&title=Club Ibuki in Break All
&artist=void+夕野ヨシミ (IOSYS) feat.藤原鞠菜
&wholebpm=175
&demo_seek=72.4
&demo_len=16.3
&lv_1=3
&lv_2=5
&lv_3=8
&lv_4=11
&lv_5=13
&des_4=はっぴー
&des_5=某S氏
&inote_1=(175.0){1},,,,,,
{4},1,,1,
{4},2,,2,
{4},3,,3,
{4},4,,4,
{4},5,,5,
{4},6,,6,
{4},7,,7h[4:3],{1},
{2}8,8,
{1}7,
{2}6,6,
{1}5,
{2}4,4,
{1}3,
{2}2,2,
{1}1/8,
{2}1,1,
{2}2,2,
{2}3,3,
{2}4,4,
{2}5,5,
{2}6,6,
{2}7,7,
{1}1/8,
{2}8,8,
{2}7,7,
{2}6,6,
{2}5,5,
{2}4,4,
{2}3,3,
{2}2,2,
{1}1b,,,,,
{1}1/8,
{1}1/8,
{1}7-3[4:3],,
{1}2-6[4:3],,
{1}7-3[4:3],,
{1}3h[1:1],,,
{4},5,5,5,
{4},6,6,6,
{4},7,7,7,
{4},8,8,8,
{4},1,1,1,
{4},2,2,2,
{4},3,3,3,
{4},4,4,4,
{4},5,5,5,
{4},4,4,4,
{1}4b,
{2}4,4,
{2}3,3,
{2}2,2,
{2}1,1,
{2}8,8,
{2}7,7,
{2}6,6,
{2}5,
{1}5-1[4:3],,
E
&inote_2=(175.0){1},,,,,,
{2}1,1,
{4}2,2,2,,
{2}3,3,
{1}4h[2:1]/5h[2:1],
{2}5,5,
{4}6,6,6,,
{2}7,7,
{1}1h[2:1]/8h[2:1],
{2}1/2,7/8,
{2}1/2,1/8,
{2}7/8,1/2,
{2}7/8,1/8,
{2}2/8,1/7,
{2}2/8,1/8,
{2}1/8,2/7,
{4}1,8,1b,,
{2}1,1,
{2}2,2,
{2}3,3,
{4}4,5,4,,
{2}5,5,
{2}6,6,
{2}7,7,
{4}8,1,8b,,
{2}8,8,
{2}7,7,
{2}6,6,
{4}5,4,5,,
{2}4,4,
{2}3,3,
{4}2,2,1,1,
{1}1b/8b,,
{1}1-4[4:3]/8-5[4:3],,,
{2}4,5,
{4}4,4,5,5,
{4}4,4,4,,
{4}3,3,3/4,,
{4}2,2,2,,
{4}1,1,1/8,,
{4}8,8,8,,
{4}7,7,7/8,,
{4}6,6,5,5,
{1}4-1[4:3]/5-8[4:3],,
{4}1,1,2,2,
{4}3,3,3/4,,
{4}5,5,6,6,
{1}7h[2:1],
{4}8,8,7,7,
{4}6,6,5/6,,
{4}4,4,3,3,
{1}2h[2:1],
{1}1-5[4:3],,
{1}1b/8b,
{2}7/8,1/2,
{2}7/8,1/8,
{2}1/2,7/8,
{2}1/2,1/8,
{2}1/7,2/8,
{2}1/7,1/8,
{2}1/8,2/7,
{4}8,1,8,
{1}1-5[4:3],,
E
&inote_3=(175.0){1},,,,,
{8},,,,,,,1h[8:15]/8h[8:15],{1},
{8},,,,,,,2h[8:15]/7h[8:15],{1},
{8},,,,,,,3h[8:15]/6h[8:15],{1},
{8},,,,,,,4h[8:15]/5h[8:15],{1},,
{4}3/4,2,5/6,7,
{4}3/4,2,1/8,,
{4}5/6,7,3/4,2,
{4}5/6,7,1/8,,
{4}3/4,2,5/6,7,
{4}3/4,2,1/8,,
{2}7b/8b,1b/2b,
{1}1-4[4:1]/8-5[4:1],
{4}3,3/4,3,3/4,
{4}6,5/6,6,5/6,
{4}3,2/4,3,2/4,
{4}6,5/7,1/8,,
{4}6,5/6,6,5/6,
{4}3,3/4,3,3/4,
{4}6,5/7,6,5/7,
{4}3,2/4,1/8,,
{4}7,7/8,7,7/8,
{4}2,1/2,2,1/2,
{4}7,6/8,7,6/8,
{4}4/5,4/5,2/7,2/7,
{4}2,1/2,2,1/2,
{4}7,7/8,7,7/8,
{4}2,1/3,2,1/3,
{1}5h[1:4]/6<4[4:11],,,,,
{4}5,5,4,4,
{4}6,5/6,3,3/4,
{4}2,1,8,7,
{4}6h[4:1],5,4/7,,
{4}7,8,1,2,
{4}3h[4:1],4,2/5,,
{4}6h[4:1],5,4/7,4/7,
{4}3h[4:1],4,2/5,2/5,
{4}1/8,2/7,3/6,4/5,
{1}4b^1[4:3]/5b^8[4:3],,
{4}3h[4:1],4,6h[4:1],5,
{4}2h[4:1],3,7h[4:1],6,
{4}2h[4:1],1,7h[4:1],8,
{1}1w5[8:3],
{4}7h[4:1],8,2h[4:1],1,
{4}6h[4:1],7,3h[4:1],2,
{4}6h[4:1],5,3h[4:1],4,
{2}5-8[4:1],4-1[4:1],
{1}5q8[4:5],,
{8}2/7,2/7,2b/7b,,,,,,
{4}5/6,7,3/4,2,
{4}5/6,7,1/8,1/8,
{4}3/4,2,5/6,7,
{4}3/4,2,1/8,1/8,
{4}5/6,7,3/4,2,
{4}5/6,7,1/8,1/8,
{2}1b/2b,7b/8b,
{1}1pp4[4:7]/8qq5[4:7],,,
E
&inote_4=(175.0){1},4pp1[4:7],,,,
{8},,,,,,,3h[4:1]/8h[8:9],
{4},3,4,3,
{8}1^4[4:1],,,,,,,6h[4:1]/1h[8:9],
{4},6,5,6,
{8}8^5[4:1],,,,,,,3h[4:1]/8h[8:9],
{4},3,1,2,
{8}3p6[4:1],,,,,,,6h[4:1]/1h[8:9],
{4},6,5,8,
{4}7p2[4:1],,,1/2,
{2}6/5-8[8:1],3/4-1[8:1],
{4}6/5-8[8:1],,1/2,4b/7b,
{2}3/4-1[8:1],6/5-8[8:1],
{4}3/4-1[8:1],,7/8,2b/5b,
{2}6/5-1[8:1],3/4-8[8:1],
{4}6/5-1[8:1],,3/4,1b/6b,
{8}5/6,5/6,,,3/4,3/4,,,
{8},1/8,1-5[4:1]/8-4[4:1],,,,,,
{4}5/6-8[8:1],1,5/6-8[8:1],1,
{4}4/3-1[8:1],8,4/3-1[8:1],8,
{4}5/6-8[8:1],1,4/3-1[8:1],8,
{8}5-1[8:1]/6-8[8:1],,,,3/4,3/4,2b/5b,,
{4}1/2-4[8:1],5,1/2-4[8:1],5,
{4}8/7-5[8:1],4,8/7-5[8:1],4,
{4}1/2-4[8:1],5,8/7-5[8:1],4,
{8}1b-5[8:1]/2b-4[8:1],,,,7/8,7/8,1b/6b,,
{4}4/3-8[8:1],7,4/3-8[8:1],7,
{4}5/6-1[8:1],2,5/6-1[8:1],2,
{4}4/3-8[8:1],7,5/6-1[8:1],2,
{8}1-4[8:1]/8-5[8:1],,,,4/5,4/5,3b/6b,,
{4}5/6^1[8:1],2,5/6^1[8:1],2,
{4}4/3^8[8:1],7,4/3^8[8:1],7,
{1}4qq1[8:5]/5pp8[8:5],
{1}3h[2:3]/6h[2:3],,
{1}3p6[8:3]/7^2[8:3],
{4},2/7,,,
{1}3b,
{4}6h[2:1],5,3h[2:1],4,
{4}7h[2:1],8,2h[2:1],1,
{4}8h[4:1],7h[4:1],6h[4:1],5-2[8:1],
{4},6-1[8:1],,4,
{4}8/1h[4:1],2h[4:1],3h[4:1],4-7[8:1],
{4},3-8[8:1],,5,
{4}8/7h[4:1],5h[4:1],4h[4:1],2-5[8:1],
{4},6-1[8:1],,2,
{8}1/2,1/2,3/8,,7/8,7/8,1/6,,
{8}2/7,2/7,,3/4,3/4,,5/6,5^2[4:1]/6p1[4:1],
{8},,,,7b/8b,,3/7,3/7h[4:1],
{8},8,1/6,,4/7,,5-1[8:1]/6-1[8:1],,
{8},,3-8[8:1]/4-8[8:1],,,,2/6,6/2h[4:1],
{8},1,3/8,,2/5,,3/4,3>6[8:3]/4p5[8:3],
{8},,,,,,2/6,6/2h[4:1],
{8},1,3/8,,2/5,,3-8[8:1]/5-8[8:1],,
{8},,4-1[8:1]/6-1[8:1],,,,3/7,3/7h[4:1],
{8},8,1/6,,4/7,,5/6-8[8:1],,
{4}4-2[8:1],5-1[8:1],,1/8h[4:1],
{4}7h[4:1],6h[4:1],5h[4:1],4>5[4:3],{1},
{8}2b/7b,2b/7b,2b/7b,,1-5[8:1]/8-4[8:1],,,,
{2}3-1[8:1]/5-8[8:1],4-1[8:1]/6-8[8:1],
{8}3-1[8:1]/5-8[8:1],,,,7/8,1/6,2b/5b,,
{2}4-1[8:1]/6-8[8:1],3-1[8:1]/5-8[8:1],
{8}4-1[8:1]/6-8[8:1],,,,1/2,3/8,4b/7b,,
{2}2-8[8:1]/4-7[8:1],5-2[8:1]/7-1[8:1],
{8}2-8[8:1]/4-7[8:1],,,,7/8,1/6,2b/5b,,
{8}1/2,1/2,,,7/8,7/8,,,
{8},1/8,2/7,3/6,4/5,,2/7,7h[8:9]/2qq5[8:7],{1},,
E
&inote_5=(175.0){1},
{16}3,4,5h[16:55],,,,,,,,,,,,,,
{8}6,,,7,,,
{4}8pp3[16:25],{1},,
{8},1b/8b,,,,,,5/4h[4:1],
{16},,7,5,6,,2,4,3,,7,5,6,,3^8[8:1],,
{8},4,5,6^1[8:1],,5,4,3h[4:1],
{16},,7,5,6,,2,4,3,,7pp2[8:3],5,6,,3,,
{8},,,,4/5,3/6,2/7,1b/8h[4:1],
{16},,3,1,2,,6,8,7,,3,1,2,,7^4[8:1],,
{8},8,1,2^5[8:1],,1,8,7h[4:1],
{16},,3,1,2,,6,8,7,,3,1,2,,3/6,,
{16}4,5,4,5,4^1[8:1],5,4,5,4b^7[8:1],,,,4b,,,,
{16}2-5[8:1],1,2,1,2b,,,,7-4[8:1],8,7,8,7b,,,,
{16}2-5[8:1],1,2,1,2b,,,,4-1[8:1]/6v1[8:1],,,,4b/6b,,,,
{16}7-4[8:1],8,7,8,7b,,,,2-5[8:1],1,2,1,2b,,,,
{16}7-4[8:1],8,7,8,7b,,,,3v8[8:1]/5-8[8:1],,,,3b/5b,,,,
{16}2-5[8:1],1,2,1,2b,,,,7-4[8:1],8,7,8,7b,,,,
{16}2-5[8:1],1,2,1,2b,,,,4-1[8:1]/6v1[8:1],,,,4b/6b,,,,
{8}3b-7[8:1],4b-8[8:1],,,5b-1[8:1],6b-2[8:1],,,
{8},4b/8b,3b/7b,2b/6b,1b^4[8:1]/5b^8[8:1],,,,
{8}3h[4:1],4,6h[4:1],5,2h[4:1],4,7h[4:1],5,
{8}1h[4:1],3,8h[4:1],6,2h[4:1],4,7h[4:1],5,
{8}3h[4:1],1,6h[4:1],8,4h[4:1],2,5h[4:1],7,
{16}3-8[8:1],4,3,4,3b,,,,6-1[8:1],5,6,5,6b,,,,
{8}2h[4:1],1,7h[4:1],8,3h[4:1],1,6h[4:1],8,
{8}4h[4:1],2,5h[4:1],7,3h[4:1],1,6h[4:1],8,
{8}2h[4:1],4,7h[4:1],5,1h[4:1],3,8h[4:1],6,
{16}3b-8[8:1],5b,3b,5b,3b,,,,6b-1[8:1],4b,6b,4b,6b,,,,
{8}2-5[8:1],2,6-1[8:1],6,3-8[8:1],3,7-4[8:1],7,
{8}1-5[8:1],1,4-8[8:1],4,5-1[8:1],5,8-4[8:1],8,
{8}2^7[8:1],2,6^3[8:1],6,8-4[8:1],8,5,5,
{16}3-8[8:1],7,3,7,3b,,,,6-1[8:1],2,6,2,6b,,,,
{8}4,7b/8b,5,1b/2b,4,1b/7b,5,2b/8b,
{8}3/4,1b/7b,5/6,2b/8b,3/5,1b/7b,4/6,2b/8b,
{16}3/4,,1b/6b,,5/6,,3b/8b,,1b/8b,,,2b/7b,2b-6[8:1]/7b-3[8:1],,,,
{1}2b/7b,
{4},,,2p6[8:1]/6-3[8:1],{1},,
{16},3b,,,,,,,,,,,,,,,
{4}4h[8:1]/5h[8:1],4h[8:1]/5h[8:1],3h[8:1]/5h[8:1],4h[8:1]/6h[8:1],
{8}4,3/5,6,4/7,2,1/6,8,2/7,
{8}1>5[8:1],1,7,7,8p4[8:1],8,2,2,
{16}1q6[8:1],,1,,7,,7,,8,1,8,,2b/7b,,1,,
{8}8<4[8:1],8,2,2,1q5[8:1],1,7,7,
{16}8p3[8:1],,8,,2,,2,,1,8,1,,2b/7b,,6,,
{8}4>8[8:1],4,6,6,5q1[8:1],5,3,3,
{16}4p7[8:1],,4,,6,,6,,5,4,5,,3b/6b,,1b/8b,,
{8},1/2,3b/8b,4/7,5b/6b,3/4,2b/5b,1/6,
{16}1b/5b,2/6,3b/7b,,,,4b/8b,3/7,2b/6b,,,,1b/8b,2/7,3bqq5[8:3]/6bpp4[8:3],,
{8},,,,,1b/8b,,2b/7b,
{16},,6,5,7,,3,4,2,,6q2[8:1],5,7,,4b/6b,,
{8},3p7[8:1],4,3b/5b,,8,1,2b/7b,
{16},,3,4,2,,6,5,7,,3q6[8:5],4,2,,3b/6b,,
{8},7,7,8,8,1,1,2b/7b,
{16},,3,4,2,,6,5,7,,3p7[8:1],4,2,,3b/5b,,
{8},6q2[8:1],5,4b/6b,,1,8,2b/7b,
{16},,6,5,7,,3,4,2,,6,5,7,,3b/6b,,
{8},4b-1[8:1],5b-8[8:1],4b,5b,,2b/7b,6-2[8:1],
{8},,3,3-8[8:1],,5-1[8:1],,4>5[8:5],{1},
{8}1b/8b,4b/5b,2b/7b,,1pp3[8:1]/8qq6[8:1],,1/8,,
{16}2-5[8:1],1,3,8,2b,,,,7-4[8:1],8,6,1,7b,,,,
{16}2-5[8:1],1,3,8,2b,,,,4-1[8:1]/6v1[8:1],,3/7,,4b/6b,,,,
{16}7-4[8:1],8,6,1,7b,,,,2-5[8:1],1,3,8,2b,,,,
{16}7-4[8:1],8,6,1,7b,,,,3v8[8:1]/5-8[8:1],,2/6,,3b/5b,,,,
{16}2-5[8:1],1,3,8,2b,,,,7-4[8:1],8,6,1,7b,,,,
{16}2-5[8:1],1,3,8,2b,,,,4-1[8:1]/6v1[8:1],,3/7,,4b/6b,,,,
{8}3b-7[8:1],6b-2[8:1],,,5b-1[8:1],4b-8[8:1],,,
{8},1b/2b,7b/8b,5b/6b,3b/4b,,1b/2b,1bqq6[8:7]/2bpp5[8:7],{1},,
E
