&title=踊れオーケストラ
&artist=YASUHIRO(康寛)
&wholebpm=180
&demo_seek=59.9
&demo_len=21.5
&lv_1=2
&lv_2=5
&lv_3=7
&lv_4=9+
&lv_5=12
&des_4=Jack
&des_5=rioN
&inote_1=(180.0){1},,,,,
{1}8,
{1}8,
{1}7,
{1}7,
{1}6,
{1}6,
{1}5,
{1}5,
{1}4,
{1}4,
{1}3,
{1}3,
{1}2,
{1}2,
{1}1,
{1}1,
{1}1,
{1}2,
{1}3,
{1}4,
{1}5,
{1}6,
{1}7,
{1}8,
{1}8,
{1}7,
{1}6,
{1}5,
{1}4,
{1}3,
{1}2,
{1}1,
{1}1-4[4:3],,
{1}5-8[4:3],,
{1}1h[1:1],,
{1}8h[1:1],,
{2}1b,1,
{1}1,
{2}2,2,
{1}2,
{2}3,3,
{1}3,
{2}4,4,
{1}4,
{2}5,5,
{1}5,
{2}6,6,
{1}6,
{2}7,7,
{1}7,
{2}8,8,
{1}8,
{1}7-3[4:3],,
{1}2-6[4:3],,
{1}7h[1:1],,
{1}8,
{1}1/8,
{2}8,8,
{1}8,
{2}7,7,
{1}7,
{2}6,6,
{1}6,
{2}5,5,
{1}5,
{2}4,4,
{1}4,
{2}3,3,
{1}3,
{2}2,2,
{1}2,
{2}1,1,
{1}1b,
E
&inote_2=(180.0){1},,,,,
{4}1,1,1,,
{4}2,2,2,,
{4}3,3,3,,
{4}4,5,4,,
{4}5,5,5,,
{4}6,6,6,,
{4}7,7,7,,
{1}1/8,
{4}8,8,8,,
{4}7,7,7,,
{4}6,6,6,,
{4}5,4,5,,
{4}4,4,4,,
{4}3,3,3,,
{4}2,2,2,,
{1}1/8,
{2}1,1,
{1}8h[2:1],
{2}7,7,
{2}6,6,
{1}5h[2:1],
{1}4h[2:1],
{2}5,6,
{4}7,7,7,,
{2}8,8,
{2}1,1,
{2}2,2,
{2}3,3,
{1}4h[2:1],
{1}5h[2:1],
{2}4,3,
{4}2,2,2b,,
{1}1-5[4:3],,
{2}6,6,
{2}7,7,
{1}8-4[4:3],,
{2}3,3,
{2}2,1b/2b,
{4}8,8,8,,
{4}7,7,7,,
{4}6,6,5,5,
{1}4h[2:1],
{2}3/4,3/5,
{2}5/6,4/6,
{2}3,3,
{4}2,2,2,,
{4}1,1,1,,
{4}2,2,2,,
{4}3,3,4,4,
{1}5h[2:1],
{2}5/6,4/6,
{2}3/4,3/5,
{1}4-1[4:3]/5-8[4:3],,
{4}7,7,7/8,,
{4}2,2,1/2,,
{4}8,1,8,,
{4}1/8,1/8,2/7,,
{4}3,3,3/4,,
{4}6,6,5/6,,
{4}4,5,4,,
{4}4/5,4/5,3/6,,
{4}2,2,1,1,
{4}8,8,7/8,,
{4}6,6,5,5,
{4}4,4,5b,,
{4}7,7,8,8,
{4}1,1,1/2,,
{4}3,3,4,4,
{1}5h[2:1],
{2}4,4,
{1}3h[2:1],
{2}2,2,
{2}1,1,
{1}7h[2:1]/8h[2:1],
{2}5/6,5/6,
{4}4,4,5,5,
{4}4,5,4,5b,
E
&inote_3=(180.0){1},,,,,
{4}3,3,4,4,
{1}3^6[8:3],
{4}6,5,4/7,,
{4}3,4,2/5,,
{4}3,2,1,8,
{4}7,6,4/5,,
{4}3,3,4,4,
{4}2/5,2/5,1/8,,
{4}6,6,5,5,
{1}6^3[8:3],
{4}3,4,2/5,,
{4}6,5,4/7,,
{4}6,7,8,1,
{4}2,3,4/5,,
{4}6,6,5,5,
{4}4/7,4/7,1/8,,
{4}3,3,4,4,
{4}3,4,2/5,,
{4}6,6,5,5,
{4}6,5,4/7,,
{2}1/2,7/8,
{4}1/8,1/8,2/7,,
{4}4,4,5,5,
{4}4/5,3/6,2/7,,
{4}6,6,5,5,
{4}6,5,4/7,,
{4}3,3,4,4,
{4}3,4,2/5,,
{2}7/8,1/2,
{4}1/8,1/8,2/7,,
{4}5,5,4,4,
{1}4^1[8:3]/5^8[8:3],
{2}2h[2:1],3h[2:1],
{4}4,4,3/5,,
{2}7h[2:1],6h[2:1],
{4}5,5,4/6,,
{4}3,3,3/4,3/4,
{4}6,6,5/6,5/6,
{2}4/7,2/5,
{4}1/8,1/8,2b/7b,,
{4}6,5/6,3,3/4,
{4}7,7/8,2,1/2,
{4}7/8,1/6,2/5,4/3>6[2:1],{1},
{4}6h[2:1],,5,4/7,
{4}3h[2:1],,4,2/5,
{2}7h[4:1]/8h[4:1],1h[4:1]/2h[4:1],
{4}1/8,2/7,3/6,,
{4}3,3/4,6,5/6,
{4}2,1/2,7,7/8,
{4}1/2,3/8,4/7,5/6<3[2:1],{1},
{4}3h[2:1],,4,2/5,
{4}6h[2:1],,5,4/7,
{2}1h[4:1]/2h[4:1],7h[4:1]/8h[4:1],
{4}1/8,2/7,3b/6b,,
{4}2,1/2,7,7/8,
{4}1/2,1/2,4/7,,
{4}6,5/6,3,3/4,
{1}4^1[8:3]/5^8[8:3],
{4}7,7/8,2,1/2,
{4}7/8,7/8,2/5,,
{4}3,3/4,6,5/6,
{4}4/5,4/5,2b/7b,,
{4}1/2,1/2,7/8,7/8,
{4}5/6,5/6,3/8,,
{4}2,1/2,7,7/8,
{1}1^4[8:3]/8^5[8:3],
{4}7/8,7/8,1/2,1/2,
{4}3/4,3/4,1/6,,
{4}7,7/8,2,1/2,
{4}4/5,4/5,2/7,,
{4}7,7,8,8,
{4}7,8,1/6,,
{4}2,2,1,1,
{4}2,1,3/8,,
{2}5/6,3/4,
{4}4/5,4/5,2/7,,
{4}2,1/2,7,7/8,
{4}1/8,2/7,3/6,4b/5b,
E
&inote_4=(180.0){1},,,,
{4},,2,2,
{4}3/4,3/4,5/6,6/5-1[4:1],
{4},,2/8,2/8,
{4}3,4,5,5/6,
{4}6,5,4,3/4,
{4}5/6,5/6,3/4,3/4-8[4:1],
{4},,1/7,1/7,
{4}6,5,4,3/4,
{4}2,3^6[4:1],,,
{4}7/8,7/8,1/2,1-6[4:1]/2-5[4:1],
{4},,4/7,4/7,
{4}6,7,8,1/2,
{4}3,2,1,7/8,
{4}1/2,1/2,7/8,7-4[4:1]/8-3[4:1],
{4},,2/5,2/5,
{4}3,2,1,7/8,
{4}6,7-3[4:1],,,
{4}3,2/4,6,7/5-1[4:1],
{2},1,
{4}2,1/2,7,7/8,
{4}1,1-5[4:1]/8-4[4:1],,,
{8}4/5,,3/4,,2,2,8,,
{8}1,8,1,8-4[4:1],,,,,
{8}3,3,3,,6,6,6,,
{8}4,5,4,5,4,,2/7,,
{4}1/8,1/8,2h[4:1],4,
{4}7h[4:1],5,1/8,1/8,
{2}2-7[8:1],6-3[8:1],
{2}2-7[8:1],6-3[8:1],
{8}2,,1/8,,7,7,1,,
{8}8,1,8,1-5[4:1],,,,,
{8}6,6,6,,4,5,4,5,
{8},3,3,5,4,,4/5,,
{8}7h[4:3],,,,8h[4:1],,,7-4[16:3]/8-3[16:3],
{4},,2/5,4/7,
{8}5/6,,4/5,,3/4,,1/2,1-6[16:3]/2-5[16:3],
{4},,4/7,2/5,
{4}3/4,5,3/4,2,
{4}5/6,4,5/6,7pp2[4:3],{1},
{8},,,1,8,1,8,,
{2}1b-3[8:1]/5b-7[8:1],4-2[8:1]/8-6[8:1],
{2}1-3[8:1]/5-7[8:1],4-2[8:1]/8-6[8:1],
{4}1/5,2/6,3/7,4^1[4:1]/8^5[4:1],
{4},,6/8,1/3,
{4}4,5,6,1/7,
{4}5,4,3,2/8,
{8}7,7,1,,2,2,8,,
{4}3h[4:1],4h[4:1],5h[4:1],6,
{2}4b-1[8:1]/8b-5[8:1],1-4[8:1]/5-8[8:1],
{2}4-1[8:1]/8-5[8:1],1-4[8:1]/5-8[8:1],
{4}4/8,3/7,2/6,1^4[4:1]/5^8[4:1],
{4},,1/3,6/8,
{8}2h[2:1],,,1,1,,4/5,,
{8}7h[2:1],,,8,8,,4/5,,
{4}6h[4:1],5h[4:1],4h[4:1],3qq6[2:1],
{4},,,8b,
{4}5/6,4/5,3/4,2-7[4:1]/3-6[4:1],
{4},,5/8,5/8,
{4}7,3/4,2,5/6,
{4}8,2/4,1,5/7,
{4}3/4,4/5,5/6,6-3[4:1]/7-2[4:1],
{4},,1/4,1/4,
{4}2,5/6,7,3/4,
{4}2,5/6q3[4:1],,,
{4}1/2,3/8,1/6,7-4[4:1]/8-3[4:1],
{4},,1/6,6/1q5[8:1],
{4},7p3[8:1],,2,
{1}3>6[2:1]/4p5[2:1],
{4}7/8,1/6,3/8,1-6[4:1]/2-5[4:1],
{4},,3/8,3/8p4[8:1],
{4},2q6[8:1],,7,
{4}3/6,1^4[4:1]/8^5[4:1],,,
{4}3h[4:1],4,6h[4:1],5,
{4}2h[4:1],4,7h[4:1],5,
{4}3h[4:1],1,6h[4:1],8,
{4}2/7,3/6,4/5,2/7,
{8}1/8,,1/8,,3/4,3/4,3/4,,
{8}5/6,5/6,,1b/8b,,,,,
{8}3,4,3,,6,5,6,5,
{8},8,1,2,
{2}3pp1[4:5],{1},,
E
&inote_5=(180.0){1},
{2}5-3[8:1]/6-1[8:1],3-8[8:1]/4-6[8:1],
{2}5-2[8:1]/6-8[8:1],3-1[8:1]/4-7[8:1],
{4}7/8,1/2,5/6,3/4,
{8}3/6,3/6,3/6,,4,,4,,
{2}3q8[8:1]/4^7[8:1],5^2[8:1]/6p1[8:1],
{8}3,3,6,6h[4:1],,5^2[8:1],,7h[4:1],
{8},8^3[8:1],,6h[4:1],,5,5^2[8:1],,
{8}8^5[8:1],,3,3h[4:1],,4,2/5,,
{2}7^5[8:1]/8p4[8:1],1q5[8:1]/2^4[8:1],
{8}6,6,3,3h[4:1],,4,4^7[8:1],,
{8}1-5[8:1],,8-4[8:1],,3-7[8:1],,8,8,
{8},1/2,3/8,,3,2,1,,
{2}5^2[8:1]/6p1[8:1],3q8[8:1]/4^7[8:1],
{8}6,6,3,3h[4:1],,4^7[8:1],,2h[4:1],
{8},1^6[8:1],,3h[4:1],,4,4^7[8:1],,
{8}1^4[8:1],,6,6h[4:1],,5,4/7,,
{2}1q5[8:1]/2^4[8:1],7^5[8:1]/8p4[8:1],
{8}3,3,6,6h[4:1],,5,5^2[8:1],,
{8}8-4[8:1],,1-5[8:1],,6-2[8:1],,1,1,
{8},7/8,1/6,,4/5,,2/7,,
{4}5/2-6[8:1],1,4/7-3[8:1],8,
{4}2-5[8:1],8-5[8:1],1,6/8,
{4}4/7-3[8:1],8,5/2-6[8:1],1,
{4}7-4[8:1],1-4[8:1],8,1/3,
{8}3/6,,1/8,,4/5,4/5,4/5,,
{8}3/4,3/4,,1/8,,5/6,5/6,,
{8}2/4,2/4,2/4,,5/7,5/7,5/7,,
{8}3/6,3/6,4,5,3-8[8:1]/6-1[8:1],,,,
{4}5/2-6[8:1],7-3[8:1],1-4[8:1],6p4[4:1],
{8},,,,1/2,1/2,1/2,,
{4}4/7-3[8:1],2-6[8:1],8-5[8:1],3q5[4:1],
{8},,,,7/8,7/8,7/8,,
{8}1/2,,4/7,,5/6,5/6,5/6,,
{8}3/4,3/4,,6/1h[4:1],,3,3,,
{8}5/7,5/7,5/7,,3/4,2/5,,1/8,
{8},6,5,4,3,,1b/8b,,
{8}1p3[4:1]/8V64[4:1],,,,,2/7,,3/8,
{8},5/6,4/7,,2/5,,1/8,,
{8}1V35[4:1]/8q6[4:1],,,,,2/7,,1/6,
{8},3/4,2/5,,4/7,,1/8,,
{4}6-1[8:1],4-1[8:1],5,2,
{4}3-8[8:1],5-8[8:1],4,7,
{8}5/6,5/6,5/6,,3/4,3/4,3/4,,
{8}1/8,2/7,,4/5,4^1[8:1]/5^8[8:1],,,,
{8}2q5[4:1],,,7,7p4[4:1],,,3,
{8}3p8[4:1],,,6,6q1[4:1],,,2,
{4}2^5[8:1],6-2[8:1],3-8[8:1],5<4[2:1],
{4},,,2/7,
{16}2/4h[16:3],,,6h[16:3],,,8,,8,,,,1/3,,,,
{16}7/5h[16:3],,,3h[16:3],,,1,,1,,,,6/8,,,,
{8}2-5[8:1],,7-4[8:1],,2,2,7,7,
{4}1b/8b,2b/7b,3b/6b,4b/5b,
{8}6q1[4:1],,,3,3p8[4:1],,,7,
{4}7^4[8:1],3-7[8:1],6-1[8:1],2-5[8:1],
{8}8-4[8:1],,2,2,2^5[8:1],,8<1[2:1],,
{4},,,3/6,
{8}7p4[4:1],,,1,1,,5/6,,
{8}2q5[4:1],,,8,8,,3/4,,
{8},7,7-4[8:1],,2-5[8:1],,8-4[8:1],,
{1}1>8[2:1],
{2}3^5[8:1]/6-1[8:1],3-8[8:1]/6^4[8:1],
{8}2,3,4,6h[4:1],,5^2[8:1],6,7h[4:1],
{8},8^3[8:1],7,6,,4,5,5,
{8}3,3-7[8:1],6,6-1[8:1],,4,4,,
{2}3-8[8:1]/6^4[8:1],3^5[8:1]/6-1[8:1],
{8}7,6,5,3h[4:1],,4^7[8:1],3,2,
{8}1^4[8:1],,6-2[8:1],,3-8[8:1],,5,5,
{8},1/2,1/2,,3/8,3/8,5/6,,
{2}4b^6[8:1]/8b-3[8:1],1-6[8:1]/5^3[8:1],
{8}1/7,1/7,2/8,2/8,,5/6,4/7,3/8,
{8},3/4,2/5,1/6,,1/8,1/8,,
{1}4>6[8:3]/5p4[8:3],
{2}1-6[8:1]/5^3[8:1],4^6[8:1]/8-3[8:1],
{8}2/8,2/8,1/7,1/7,,4/5,3/6,2/7,
{8}8^5[8:1],,3-7[8:1],,6-1[8:1],,4,4,
{8},7/8,7/8,,1/6,1/6,3/4,,
{4}6/4p8[8:1],5^8[8:1],3^8[8:1],4q8[8:1],
{8}2qq7[8:3],,,,5,5,5,,
{4}3/5q1[8:1],4^1[8:1],6^1[8:1],5p1[8:1],
{8}7pp2[8:3],,,,4,4,4,,
{8}7/8,,2/5,,3/4,3/4,3/4,,
{8}5/6,5/6,,3/8h[4:1],,6,6,,
{8}2/4,2/4,2/4,,5/6,4/7,,1/8,
{8},3,4,5,6,,
{4}1b>8[2:3]/8b<1[2:3],,,{1},,
E
