&title=天火明命
&artist=削除
&wholebpm=155
&demo_seek=57.6
&demo_len=12.8
&lv_1=3
&lv_2=6
&lv_3=9+
&lv_4=13
&lv_5=14
&des_4=rioN
&des_5=Jack
&inote_1=(155.0){1},,,
{1}1,
{1}2,
{1}3,
{1}4,
{1}5,
{1}6,
{1}7,
{1}8,
{2}1b,1,
{2}1,2,
{2}2,3,
{2}3,4,
{2},5,
{2}5,6,
{2}6,7,
{2}7,8,
{2},7h[1:1],{1},
{2},8h[1:1],{1},
{2},1h[1:1],{1},
{2},2h[1:1],{1},
{2},3,
{2}3,4,
{2}4,5,
{2}5,4/5,
{2},6,
{2}6,5,
{2}5,4,
{2}4,4/5,
{2}4/5,4h[1:1]/5h[1:1],{1},
{4},,5,5,
{4}5,,6,6,
{4}6,,7,7,
{4}7,,8,8,
{4}8,,1,1,
{4}1,,2,2,
{4}2,,3,3,
{4}3,,4,4,
{4}4,,4,4,
{4}4,,3,3,
{4}3,,2,2,
{4}2,,1,1,
{4}1,,8,8,
{4}8,,7,7,
{4}7,,6,6,
{4}6,,5,5,
{2}5b,4-7[4:3],{1},
{2},8-3[4:3],{1},
{2},2,
{2}2,1,
{2}1,8,
{4}8,,1/8,1/8,
{2}1/8,1/8,
{2},7-3[4:3],{1},
{2},2-6[4:3],{1},
{2},6h[2:1],
{2},5h[2:1],
{2},4h[2:1],
{2},3h[2:1],
{2},4,
{4}4,,3,3,
{2}3,2,
{4}2,,1,1,
{2}1,8,
{4}8,,7,7,
{2}7,6,
{4}6,,5,5,
{2}5,5-2[4:3],{1},
{2},1-6[4:3],{1},
{4},,6,6,
{4}6,,4/5,4/5,
{4}4/5,,3,3,
{4}3,,4/5,4/5,
{2}4/5,
{1}5-1[4:3],,
E
&inote_2=(155.0){1},,,
{2}1,1,
{2}2,2,
{2}3,3,
{1}4h[2:1],
{2}5,5,
{2}6,6,
{2}7,7,
{2}8,8,
{2}1h[4:1],1,
{4}1,,8,8,
{2}8,7,
{4}7,,6,6,
{2}6,5,
{4}5,,4,4,
{2}4,3,
{4}3,,2,2,
{4}2,,1,1,
{4}1,,2,2,
{4}2,,3,3,
{4}3,,4,4,
{4}5,5,4,4,
{4}4,,5,5,
{4}5,,6,6,
{4}6,,7,7,
{4}8,8,
{2}1-4[4:3],{1},
{2},8-5[4:3],{1},
{2},2-5[4:3],{1},
{2},7-4[4:3],{1},
{2},1h[1:1]/8h[1:1],{1},
{4}1b/8b,,1,1,
{4}2,2,3,3,
{4}4/5,,5,5,
{4}6,6,7/8,7/8,
{2}7/8,1/2,
{2}1/2,3/4,
{2}3/4,5/6,
{4}5/6,,7,8,
{4}7,,8,8,
{4}7,7,6,6,
{4}4/5,,4,4,
{4}3,3,1/2,1/2,
{2}1/2,7/8,
{2}7/8,5/6,
{2}5/6,3/4,
{4}3/4,,1/2,1/2,
{2}1b/2b,1h[4:3],{1},
{4}1,1,
{2}8h[4:3],{1},
{4}8,8,1,1,
{4}2,2,3/4,3/4,
{2}3/4,5/6,
{4}3/4,,5,4,
{2}5,3/6,
{2},1-5[4:3],{1},
{2},8-4[4:3],{1},
{2},2-5[4:3],{1},
{2},7-4[4:3],{1},
{2},1,
{4}1,,2,2,
{2}2,3,
{2}3,4h[2:1],
{4},,5,5,
{4}5/6,,4,4,
{4}3/4,,5,5,
{4}4,4,5,5,
{2}4/5,6h[4:3],{1},
{4}6,6,
{2}7h[4:3],{1},
{4}7,7,8,8,
{4}8,,1,1,
{2}1,7/8,
{4}1/2,,1/8,1/8,
{2}2/7,
{1}1-4[4:3]/8-5[4:3],,
E
&inote_3=(155.0){1},,
{4},,,4/5,
{4}2h[4:1],1,7h[4:1],8,
{4}2h[4:1],1,3/8,,
{4}7h[4:1],8,1/2,1^4[4:1]/8^5[4:1],
{4},,4/5,2/7,
{4}3,3/4,6,5/6,
{4}3,2/4,6,5/7,
{2}3-7[8:1],6-2[8:1],
{4}1/8,2/7,3/6,4^1[4:1]/5^8[4:1],
{4},,3,3h[4:1],
{4}4,4h[4:1],5,5h[4:1],
{4}6,3/8,6,6h[4:1],
{4}5,5h[4:1],4,4h[4:1],
{8}3,,1/6,,3,3,4,,
{8}6,6,5,,2,2,4,,
{8}7,7,5,,2,2,1,,
{8}7,7,8,,1-6[8:1]/8-3[8:1],,,,
{4}4-1[8:1]/5-8[8:1],,2h[4:1],1^6[4:1],
{4},,7h[4:1],8^3[4:1],
{4},,3h[4:1],1^6[4:1],
{4},,6h[4:1],7h[4:1],
{4}8h[4:1],1,7h[4:1],8^3[4:1],
{4},,2h[4:1],1^6[4:1],
{4},,6h[4:1],8^3[4:1],
{4},,3h[4:1],2h[4:1],
{4}1h[4:1],8,2q5[2:1],,
{2},4q7[2:1],
{2},6q1[2:1],
{2},8q3[2:1],
{2},2-6[8:1],
{2}7-3[8:1],2^7[8:1],
{2}6^3[8:1],2qq7[2:1],
{2},6qq3[2:1],
{2},1pp4[2:1]/8qq5[2:1],
{2},4h[4:1]/5h[4:1],
{4}2b/7b,,3/4,2/5,
{8}1,1,2/8,,5/6,,4/7,,
{8}8,8,1/7,,3-8[8:1],,,,
{4}7-4[8:1],,3/4,1/2,
{8}7/8,,5/6,,3,3,1,,
{8}6,6,8,,2,2,1/3,,
{8}7,7,6/8,,3^8[8:1],,,,
{4}7^4[8:1],,2/4,5/7,
{4}1b/8b,,5/6,4/7,
{8}8,8,1/7,,3/4,,2/5,,
{8}1,1,2/8,,6-1[8:1],,,,
{4}2-5[8:1],,5/6,7/8,
{8}1/2,,3/4,,6,6,8,,
{8}3,3,1,,7,7,6/8,,
{8}2,2,1/3,,6^1[8:1],,,,
{4}2^5[8:1],,5/7,2/4,
{8}1b/8b,,,,2h[8:3],,,3h[8:3],
{8},,4h[8:3],,,5h[8:3],,,
{8}6,,3/8,,7h[8:3],,,6h[8:3],
{8},,5h[8:3],,,4h[8:3],,,
{4}3,1/6,3h[4:1],4h[4:1],
{8}5h[4:1],,6h[4:1],,7,6,5,4,
{2}3^6[8:1],8-3[8:1]*-5[8:1],
{4}4-1[8:1]*-7[8:1],,8-4[8:1],2-6[8:1],
{2},1b/8b,
{2},7h[2:1],
{2}6h[2:1],5h[2:1],
{2}4h[2:1],3h[2:1],
{4}2,1pp4[4:3]/5pp8[4:3],,,
{4},,6,5/6,
{4}3,3/4,6,5/7,
{4}3,2/4,6-2[8:1],,
{4}3-7[8:1],,6/8,1/3,
{4}2-6[8:1]/7-3[8:1],,4/5,6/8,
{8}1,1,2/8,,4/5,,1/3,,
{8}8,8,1/7,,3-8[8:1],,,,
{4}7-4[8:1],,3/4,1/2,
{8}7/8,,5/6,,3,3,2/4,,
{8}6,6,5/7,,1/8,1/8,2/7,2/7,
{8}3/6,3/6,4/5,,3^8[8:1],,,,
{4}7^4[8:1],,2/4,5/7,
{8}1b/8b,,,,6h[4:1],,5,5h[4:1],
{8},4,4h[4:1],,3,3h[4:1],,2,
{8}2h[4:1],,1,,3h[4:1],,4,4h[4:1],
{8},5,5h[4:1],,6,6h[4:1],,7,
{4}7h[4:1],8,6h[4:1],5h[4:1],
{8}4h[4:1],,3h[4:1],,2,3,4,5,
{2}6^3[8:1],1-5[8:1]/2-6[8:1],
{4}7-3[8:1]/8-4[8:1],,1/2,7/8,
{2}1-5[8:1]/8-4[8:1],2h[4:3]/7h[4:3],
{2},2b/7b,
E
&inote_4=(155.0){1},,
{4},,,2b/7b,
{2}1^4[8:1]/5^8[8:1],1^6[8:1]/5^2[8:1],
{4}1^4[8:1],5^8[8:1],2q3[8:1],,
{2}4^1[8:1]/8^5[8:1],4^7[8:1]/8^3[8:1],
{1}4>5[2:1],
{8}6,5/7,5/7,,1,,8,,
{8}3,2/4,2/4,,8,,1,,
{2}5-1[8:1]/6-8[8:1],3-1[8:1]/4-8[8:1],
{2}5-1[8:1]/6-2[8:1],3-7[8:1]/4-8[8:1],
{8}4/5,,2b/7b,,3,4,3,3,
{8}6,5,7,7,1,8,2,2,
{8}1h[4:1],,8,,6,5,6,6,
{8}3,4,2,2,8,1,7,7,
{8}8h[4:1],,1,,2,1,3,3,
{8}6,5,8,8,2,4,3,3,
{8}1h[4:1],,8,,7,8,6,6,
{8}3,4,1,1,7,5,6,6,
{8}8h[4:1],,1,,2/4,3,5/7,6,
{8}3/4,2/5,1/6,,5/7,6,2/4,3,
{8}5/6,4/7,3/8,,2/4,3,5/7,6,
{8}3/4,2/5,1/6,7/8,7-4[8:1]/8-3[8:1],,,,
{8}5-2[8:1]/6-1[8:1],,,,5/7,6,2/4,3,
{8}5/6,4/7,3/8,,2/4,3,5/7,6,
{8}3/4,2/5,1/6,,5/7,6,2/4,3,
{8}5/6,4/7,3/8,1/2,1-6[8:1]/2-5[8:1],,,,
{2}3-8[8:1]/4-7[8:1],5q4[2:1]/6<3[2:1],
{8},,,,5/6h[8:3],,,8h[4:1],
{8},1,1/2,,3>6[2:1]/4p5[2:1],,,,
{8},,,,4/3h[8:3],,,1h[4:1],
{8},8,7/8,,5>8[2:1]/7q6[2:1],,,,
{2},2p3[2:1]/4<1[2:1],
{2},7^4[8:1]/8p3[8:1],
{4}1q6[8:1]/2^5[8:1],,8^5[4:1],5^2[4:1],
{4}2^7[4:1],7^4[4:1],4>5[2:1],,
{2},2b/7b,
{2}4/5,5-1[8:1]/6-2[8:1],
{8}3/8,3/8,,4/3h[4:1],,7,5/6,2,
{8}3/4,8,5/6,1,3-7[8:1]/4-8[8:1],,,,
{8}1/6,,3/4,2/5,2,1/2,2,2/3,
{8}2,2/8,2,2/4,7-3[8:1]/8-4[8:1],,,,
{8}2/5,2/5,,1/2h[4:1],,5,6/8,4,
{8}1/3,,2/5,7/8,2b/5b,,4/7,1/2,
{8}4b/7b,,3/6,3/6,1/8,3/4,1/8,5/6,
{2}2b/7b,3-7[8:1]/4-8[8:1],
{8}1/6,1/6,,5/6h[4:1],,2,3/4,7,
{8}5/6,1,3/4,8,5-1[8:1]/6-2[8:1],,,,
{8}3/8,,5/6,4/7,7,7/8,7,6/7,
{8}7,1/7,7,5/7,1-5[8:1]/2-6[8:1],,,,
{8}4/7,4/7,,8/7h[4:1],,4,1/3,5,
{8}6/8,,4/7,1/2,4b/7b,,2/5,7/8,
{8}2b/5b,,3/6,3/6,1-4[8:1]/8-5[8:1],,1/8,,
{16}2b/7b,,,,,,,,3,4,3,4,3h[8:1],,8,1,
{16}8,1,8h[8:1],,5,6,5,6,5h[8:1],,8,1,8,1,8h[8:1],,
{16}2-5[8:1]*-7[8:1],,,,,,,,6,5,6,5,6h[8:1],,1,8,
{16}1,8,1h[8:1],,4,3,4,3,4h[8:1],,1,8,1,8,1h[8:1],,
{4}7-2[8:1]*-4[8:1],,2h[4:1],3h[4:1],
{8}4h[4:1],,5h[4:1],,6,7,8,1,
{16}2,3,4,5,6,,7/8,,5q2[8:1]/6^1[8:1],,,,,,,,
{4}1q6[8:1]/2^5[8:1],,3-8[8:1]/7-4[8:1],3/7,
{4}2/6,4b/5b,1V35[4:1]/5V71[4:1],,
{2},4^1[8:1]/8^5[8:1],
{4}4^7[8:1]/8^3[8:1],,8^5[8:1],4^1[8:1],
{2}7p6[8:1],1^4[8:1]/5^8[8:1],
{2}1^6[8:1]/5^2[8:1],5<4[2:1],
{8},,,,3,2/4,2/4-8[8:1],,
{8}1,,2/7,,6,5/7,7/5-1[8:1],,
{4}8,2/7,3/4-8[8:1],1,
{8}6/5-1[8:1],,8,,3/6,,3/6,2/7,
{4}1b-5[8:1]/8b-4[8:1],1b/8b,2w6[8:1],,
{8}7w3[8:1],,,,1h[4:1],,2,2/5,
{2}3q8[8:1]/4^7[8:1],7w3[8:1],
{8}2w6[8:1],,,,8h[4:1],,7,4/7,
{8}5^2[8:1]/6p1[8:1],,,,7/8,1/6,2/5,,
{8}1/2,3/8,4/7,,5b/6b,,3b/4b,,
{4}6b/8b,1b/3b,5/6w2[8:1],,
{2}4/3w7[8:1],7/5w1[8:1],
{16}2/4w8[8:1],,,,,,,,6,5,6,5,6h[8:1],,2,3,
{16}2,3,2h[8:1],,8,1,8,1,8h[8:1],,6,7,6,7,6,,
{16}5/8,,3/6,,1/4,,,,3,4,3,4,3h[8:1],,7,6,
{16}7,6,7h[8:1],,1,8,1,8,1h[8:1],,3,2,3,2,3,,
{8}1/4,3/6,5/8,,7h[4:1],,6h[4:1],,
{8}5h[4:1],,4h[4:1],,3,2,1,8,
{16}7,6,5,4,3,,1/2,,3^8[8:1]/4p7[8:1],,,,,,,,
{4}7^4[8:1]/8p3[8:1],,2-5[8:1]/6-1[8:1],2/6,
{4}3/7,4b/5b,
{1}1pp4[4:3]/8qq5[4:3],,
E
&inote_5=(155.0){1},
{16}4/5,,,,2/3,,,1/8,,,5/7,,4/6,,3/5,,
{12}2/4,
{995}1,,,,,,,,,,,,,,,,,,,,,,,,,,,,,,,,,,,,,,,,,,,,,,,,,,,,,,,,,,,,,,,,,,,,,,,,,,,,,,,,,,,
{12}8,7,
{995}6,,,,,,,,,,,,,,,,,,,,,,,,,,,,,,,,,,,,,,,,,,,,,,,,,,,,,,,,,,,,,,,,,,,,,,,,,,,,,,,,,,,
{24}5,,4,,,3/6,,,
{4}1b<1[2:3]/8b>8[2:3],{1},,
{2}3h[2:1],4h[2:1],
{2}5h[2:1],6<3[4:1],
{4}4,5,6,7,
{8}1/8,,2/3,,4/5,,6/7,8,
{8}1,2,3,4,5,6,7,8,
{8}1/2,3/4,5/6,7/8,
{16}1,8,1,8,
{983}1,,,,,,,,,,,,,,,,,,,,,,,,,,,,,,,,,,,,,,,,,
{625}2,,,,,,,,,,,,,,,,,,,,,,,,,,
{983}3,,,,,,,,,,,,,,,,,,,,,,,,,,,,,,,,,,,,,,,,,8,,,,,,,,,,,,,,,,,,,,,,,,,,,,,,,,,,,,,,,,,
{625}7,,,,,,,,,,,,,,,,,,,,,,,,,,
{983}6,,,,,,,,,,,,,,,,,,,,,,,,,,,,,,,,,,,,,,,,,
{8}1b-4[8:1]/5b-8[8:1],,,,4/8,3,2/8,1,
{8}2/7,3,4/7,3,2/6,1-3[16:1],5,1/4-8[8:1],
{8},4/7-5[16:1],,7,1,6,1/7,8,
{8}2/7,6,2/5,6,3/7,8-6[16:1],4,8/5-1[8:1],
{16},,5/2-4[16:1],,,,2,,5,,3,4,3,,6,5,
{16}6,,2,4,3,,7,5,6,,1,4,3,,8,5,
{16}6,,1,4,2,,8,5,7,,1,3,2,,8,6,
{16}7,,1,8,2,7,3,6,4v2[8:1]/5v7[8:1],,2V48[4:1]/7V51[4:1],,,,,,
{16},,,,2b/7b,,,,3,4,2,5,3,4,2,5,
{16}3,3,,1/8,,,,,6,5,7,4,6,5,7,4,
{16}6,6,,1/8,,7,8,6,3,4,2,5,3,4,2,5,
{16}3,3,,1/8,,2,1,3,8,7,6,5,1,8,7,6,
{16}2,1,8,7,3,2,1,8,6,5,7,4,6,5,7,4,
{16}6,6,,1/8,,,,,3,4,2,5,3,4,2,5,
{16}3,3,,1/8,,2,1,3,6,5,7,4,6,5,7,4,
{16}6,6,,1/8,,7,8,6,1,,2/8,,3p6[8:1]/7p2[8:1],,,,
{16},,,,1b/5b,,,,8,,7,,6h[8:1],,5,6,
{16},,4,,3,,2,,
{983}1,,,,,,,,,,,,,,,,,,,,,,,,,,,,,,,,,,,,,,,,,
{625}5,,,,,,,,,,,,,,,,,,,,,,,,,,
{983}1,,,,,,,,,,,,,,,,,,,,,,,,,,,,,,,,,,,,,,,,,5,,,,,,,,,,,,,,,,,,,,,,,,,,,,,,,,,,,,,,,,,
{625}1,,,,,,,,,,,,,,,,,,,,,,,,,,
{983}5,,,,,,,,,,,,,,,,,,,,,,,,,,,,,,,,,,,,,,,,,
{16}1,,2,4,
{16}3,,4/5,,7,5,6,,1,,2,,3h[8:1],,4,3,
{16},,1/8,,
{983}6,,,,,,,,,,,,,,,,,,,,,,,,,,,,,,,,,,,,,,,,,
{625}5,,,,,,,,,,,,,,,,,,,,,,,,,,
{983}4,,,,,,,,,,,,,,,,,,,,,,,,,,,,,,,,,,,,,,,,,
{8}3,1/2,
{16}3,4,3,,5/6,,
{16}7,8,,2,1,,4/8,,1/5,,2,,3h[8:1],,4,3,
{16},,5,,6,,7,,
{983}8,,,,,,,,,,,,,,,,,,,,,,,,,,,,,,,,,,,,,,,,,
{625}4,,,,,,,,,,,,,,,,,,,,,,,,,,
{983}8,,,,,,,,,,,,,,,,,,,,,,,,,,,,,,,,,,,,,,,,,4,,,,,,,,,,,,,,,,,,,,,,,,,,,,,,,,,,,,,,,,,
{625}8,,,,,,,,,,,,,,,,,,,,,,,,,,
{983}4,,,,,,,,,,,,,,,,,,,,,,,,,,,,,,,,,,,,,,,,,
{16}8,,7,5,
{16}6,,4/5,,2,4,3,,4/5,,2,,
{983}8,,,,,,,,,,,,,,,,,,,,,,,,,,,,,,,,,,,,,,,,,
{625}7,,,,,,,,,,,,,,,,,,,,,,,,,,
{983}6,,,,,,,,,,,,,,,,,,,,,,,,,,,,,,,,,,,,,,,,,
{8}4/5,
{8}4/5,7,
{983}1,,,,,,,,,,,,,,,,,,,,,,,,,,,,,,,,,,,,,,,,,
{625}2,,,,,,,,,,,,,,,,,,,,,,,,,,
{983}3,,,,,,,,,,,,,,,,,,,,,,,,,,,,,,,,,,,,,,,,,
{8}4/5,4/5pp5[4:1],,,,
{2}4qq4[4:1],5h[2:1],
{16}4,6,2,8,4>5[8:3],6,2,8,,,,,,,,,
{16}2b/6b,,,,,,,,7/8^3[8:1],,,,6h[16:3],,,5,
{8}6,1-5[8:1]/2-6[8:1],,1/2,,4/7,2/5-2[8:1],4,
{16}5/6,,8,,7/4-7[8:1],,1,,4/3h[16:3],,,4,3^8[8:1],,8^5[8:1],,
{16}5^2[8:1],,,,,,7,8,5,2,6,1,4,3,6,1,
{16}5,2,7,8,1/6,,2/5,,3/4-1[8:1],,,,7h[16:3],,,8,
{8}7,3/4-7[8:1],,4/5-2[8:1],,5/6,7,8,
{8}1/2,,6/5-8[8:1],4,3,,5,6,
{8}4/7,3,5/2-8[8:1],6,2b/7-3[8:1],,7b/1v4[8:1]*v6[8:1],,
{16}1b,,,,1/5,2/6,3/7,4/8,5/1^6[8:1],,,,3h[16:3],,,4,
{8}3,7-3[8:1]/8-4[8:1],,7/8,,2/5,7/4-7[8:1],5,
{16}3/4,,1,,2/5-2[8:1],,8,,5/6h[16:3],,,5,6^1[8:1],,1^4[8:1],,
{16}4^7[8:1],,,,,,2,1,4,7,3,8,5,6,3,8,
{16}4,7,2,1,3/8,,4/7,,6/5-8[8:1],,,,2h[16:3],,,1,
{8}2,6/5-2[8:1],,5/4-7[8:1],,3/4,2,1,
{8}7/8,5/6,3/4,1/2,8-3[8:1],8,4-7[8:1],4,
{16}1-6[8:1],,1,,5-2[8:1],,5,,7h[16:3],,,8,7,,1>5[8:1]/5<1[8:1],,
{16}1/5,,,,,,,,4/3h[4:1],5,6,7,8,,1/8h[4:1],2,
{16}3,4,5,,5/6h[4:1],4,3,2,1,,8/1h[4:1],7,6,5,4,,
{16}4h[4:1]/3-8[8:1],,,,,,,,5/6h[4:1],4,3,2,1,,8/1h[4:1],7,
{16}6,5,4,,4/3h[4:1],5,6,7,8,,1/8h[4:1],2,3,4,5,,
{4}5h[4:1]/6-1[8:1],,2h[4:1],4h[4:1],
{8}5h[4:1],,7h[8:5],,8,1,2,3,
{16}3/7,2/6,1/5,4/8,3^6[8:1]/7^2[8:1],,,,7-3[8:1],,,,,,,,
{4}4v1[8:1]/8-5[8:1],,4V62[8:1]/8V26[8:1],4/8,
{4}3/7,5b-1[8:3],5h[2:1],,
{16}1,,8,8,8,,,,2h[2:1],,,,,,3,,
{8}3h[2:1],,,4,4h[4:1],,5h[4:1],,
{8}6<3[4:1],,,,6h[2:1],,,5,
{4}5h[4:1],4>5[2:1],,,
{8},4,3,2,1/5,1,5/1h[4:1],,
{8}6,1,2/6,3,4/7,4^1[8:1],7,4,
{8}8,1,2/8,3/7,4/6h[4:1],,4,7,
{8}3/8h[4:1],,3,7,2/6,2/6,1/5,1/5,
{16}4/8,,1b,1b,1b,,,,3h[16:3],,,4,3-8[8:1],,7,,
{16}3/6h[16:3],,,5,6-1[8:1],,2,,6/4h[16:3],,,5,4-8[8:1],,2/6,,
{16}4/8,,,,2/6<3[4:1],3,4,5,6,,,,,,4/5,,
{16}4/5,,1v3[8:1]/8v6[8:1],2/7,3V15[4:1]/6V84[4:1],,,,,,,,,,,,
{8}1/8,2-5[8:1],1,2,7-4[8:1],8,7,,
{16}2/7,,4,8,3,7,2,6,1b-3[8:1]/5b-7[8:1],,,,1b-5[8:1]/5b-1[8:1],,,,
{8}1b^4[8:1]/5b^8[8:1],,1b/5b,,3/8-3[8:1],1,7/8,4,
{8}6/1-6[8:1],8,1/2,5,4/7V51[8:1],3,2V48[8:1],,
{16}1bw5[8:1],,,,,,,,5/7h[16:3],4,3,2,1/7,,7/1h[16:3],6,
{16}5,4,1/3,,3/1h[16:3],4,5,6,1/7,,1/7h[16:3],2,3,4,5/7,,
{16}5-1[8:1]/7-3[8:1],,,,5/7,,,,4/2h[16:3],5,6,7,2/8,,2/8h[16:3],3,
{16}4,5,6/8,,6/8h[16:3],5,4,3,2/8,,8/2h[16:3],7,6,5,2/4,,
{4}2-6[8:1]/4-8[8:1],2b/4b,5-1[8:1]/7^4[8:1],5/7,
{8}2^5[8:1]/4-8[8:1],,2/4,,1^7[8:1],7^5[8:1],5^3[8:1],3^1[8:1],
{16}8,7,6,5,4,,3/6,,1/8,,7,6,4/5,,2/3,,
{16}1/8,,2,3,4^1[8:1]/5-2[8:1],,6/7,,4-7[8:1]/5^8[8:1],,,,4>5[8:3]/5p4[8:3],,,,
{16},,,,,,,,2b/7b,,,,3,3,4,4,
{16}5,5,6,6,7,7,8z4[8:1],,1,,,,,
E
