&title=四月の雨
&artist=cubesato
&wholebpm=79
&demo_seek=2.9
&demo_len=26.2
&lv_1=2
&lv_2=3
&lv_3=8+
&lv_4=12
&lv_5=13+
&des_4=Jack
&des_5=譜面-100号
&inote_1=(79.0){1},
{2}1,1,
{2}2,2,
{2}3,3,
{2}4,4,
{2}5,5,
{2}6,6,
{2}7,7,
{2}8,8,
{1}1h[2:1],
{1}8h[2:1],
{4}8,8,8,,
{4}7,7,7,,
{4}6,6,6,,
{4}5,5,5b,,
{4}4,4,4,,
{4}3,3,3,,
{4}2,2,2,,
{4}1,1,1,,
{1}1h[2:1],
{1}2h[2:1],
{1}3h[2:1],
{1}4h[2:1],
{1}5h[2:1],
{1}6h[2:1],
{1}7h[2:1],
{1}8h[2:1],
{1}7-3[2:1],,
{1}2-6[2:1],,
{4}8,8,7,7,
{4}6,6,4/5,,
{4}4,4,3,3,
{4}2,2,1/8,,
{4}1,1,2,2,
{4}3,3,4/5,,
{4}5,5,6,6,
{4}7,7,1/8,,
{1}1h[2:1],
{4}8-5[2:1],,,,
E
&inote_2=(79.0){1},
{4}1,1,1h[4:1],,
{1}8-5[4:1],
{4}8,8,8h[4:1],,
{1}1-4[4:1],
{4}1,1,2,2,
{4}3,3,4/5,,
{4}5,5,6,6,
{4}7,7,1b/8b,,
{1}8-4[4:1],
{1}1-5[4:1],
{4}8,8,7,7,
{4}6,6,5,4/5,
{4}4,4,3,3,
{4}2,2,1,1b/8b,
{4}1,1,2,2,
{4}3,3,4,4/5,
{4}5,5,6,6,
{4}7,7,8,1b/8b,
{2}8h[4:1],1h[4:1],
{1}8-5[4:1],
{2}1h[4:1],8h[4:1],
{1}1-4[4:1],
{8}5,,,4,4,,,5,
{8}5,,,4,4,,,5,
{8}6,,,4,3,,,5,
{8}6,,,4,3,,,5,
{1}6-1[4:1],
{1}3-8[4:1],
{1}5-1[4:1],
{1}4-8[4:1],
{8}5,5,,6,6,6,,7,
{8}7,7,,8,8,8,,1,
{8}1,1,,2,2,2,,3,
{8}3,3,,4,4h[4:1],,,,
{8}4/5,4/5,,3,3,3,,2,
{8}2,2,,1,1,1,,8,
{8}8,8,,7,7,7,,6,
{8}6,6,,5,5h[4:1],,,,
{1}4h[4:3]/5h[4:3],
{4}3h[4:3]/6h[4:3],,,,
E
&inote_3=(79.0){1},1-6[4:1]/2-5[4:1],
{1}7-4[4:1]/8-3[4:1],
{8}3,3,3,,2/4,,2/4,,
{4}6h[4:1],5,3h[4:1],4,
{1}5-2[4:1]/6-1[4:1],
{1}3-8[4:1]/4-7[4:1],
{8}6,6,6,,5/7,,5/7,,
{4}3h[4:1],4,6h[4:1],5,
{1}1^4[2:1]/8^5[2:1],
{4},,4/5,2b/7b,
{8}3,3,4,4,3,4,2/5,,
{8}6,6,5,5,6,5,4/7,,
{8}2,2,1,1,2,1,3/8,,
{8}7,7,8,8,7,8,1/6,,
{8}2,3,4,5,6,7,1/8,1/8,
{8}7,6,5,4,3,2,1/8,,
{8}7,6,5,4,3,2,1/8,1/8,
{8}2,3,4,5,6,7,1/8,,
{8}3h[4:1],,4,3/4,6h[4:1],,5,5/6,
{8}3h[4:1],,4,2/5,6h[4:1],,5,4/7,
{8}2h[4:1],,1,3/8,7h[4:1],,8,1/6,
{8}2h[4:1]/7h[4:1],,,1/8,1/8,2/7,3/6,,
{8}7h[4:1],,8,7/8,2h[4:1],,1,1/2,
{8}7h[4:1],,8,1/6,2h[4:1],,1,3/8,
{8}6h[4:1],,5,4/7,3h[4:1],,4,2/5,
{8}3h[4:1]/6h[4:1],,,4/5,4/5,3/6,2/7,,
{4}2h[4:1],3h[4:1],4h[4:1],5,
{4}7h[4:1],6h[4:1],5h[4:1],4,
{2}2h[4:1]/4h[4:1],5h[4:1]/7h[4:1],
{4}4-1[4:1]/5-8[4:1],,,2b/7b,
{8}2,3,4,5/6,7,6,5,3/4,
{8}2,1,8,7,6/5h[4:1],,4,,
{8}4,3,1^6[4:1]/2^5[4:1],,,,,,
{4}7^4[4:1]/8^3[4:1],,,2/7,
{8}7,6,5,3/4,2,3,4,5/6,
{8}7,8,1,2,3/4h[4:1],,5,,
{8}5,6,7^4[4:1]/8^3[4:1],,,,,,
{4}1^6[4:1]/2^5[4:1],,,2/7,
{1}4qq1[4:7]/5pp8[4:7],,,
E
&inote_4=(79.0){1},
{2}1-6[8:1],6-3[8:1],
{2}1-4[8:1],4qq2[8:1]*pp6[8:1],
{8}8,2/6,4,2/6,8pp2[8:1]*qq6[8:1],,,,
{4}1pp3[8:1]*qq7[8:1],,5-1[8:1],4>5[8:5],
{16}8h[4:3],,,,,,,,,,,,1,1/8,,3/6,
{2}3p5[8:1]/6-1[8:1],3-8[8:1]/6q4[8:1],
{8}1,3/7,5,3/7,1-5[8:1],,7-3[8:1],,
{4}1-4[8:1]*-6[8:1],,5v4[8:1],3p6[8:1],
{1}7^2[8:11],
{4},,,1b/8b,
{16}4h[4:1],5,6,,6h[4:1],5,4,,3h[4:1],4,5,,7h[4:1],6,5,,
{16}2h[4:1],3,4,,8h[4:1],7,6,,3,3,5,5,4,4,3/7,,
{16}5h[4:1],4,3,,3h[4:1],4,5,,6h[4:1],5,4,,2h[4:1],3,4,,
{16}7h[4:1],6,5,,1h[4:1],2,3,,6h[8:3],5,4,3,2h[8:1],,,,
{16}3h[4:1],4,5,,2h[4:1],3,4,,1h[4:1],2,3,,8h[4:1],7,6,,
{16}7h[4:1],6,5,,6h[4:1],5,4,,5,5,4,4,6,5,4/7,,
{16}6h[4:1],5,4,,7h[4:1],6,5,,8h[4:1],7,6,,1h[4:1],2,3,,
{16}2h[4:1],3,4,,3h[4:1],4,5,,4,,6/7,,1/2,,4/5,,
{8}7/8,1/2-5[8:1],4-7[8:1],,,4-7[8:1],6-1[8:1],,
{8},6-1[8:1],8-3[8:1],,,2h[4:1],1,3,
{8}4/5,6/7-4[8:1],5-2[8:1],,,5-2[8:1],3-8[8:1],,
{16},,7,7,8,8,1,1,2,2,3,3,4,4,5/6,,
{8}2/3,8/7-4[8:1],5-2[8:1],,,5-2[8:1],3-8[8:1],,
{8},3-8[8:1],1-6[8:1],,,7h[4:1],8,6,
{8}4/5,3/2-5[8:1],4-7[8:1],,,4-7[8:1],6-1[8:1],,
{16},,2,2,1,1,8,8,7,7,6,6,5,5,3/4,,
{8}1h[8:7]/7s3[2:1],,,,,,,3p7[8:1],
{8}5h[8:3],,,7p3[8:1],1h[8:3],,,3s7[2:1],
{1}5h[1:1],
{8}1pp3[8:1],,5pp7[8:1],,1,2,3/6,,
{16}1b^4[8:1],8,7,6,5,6,7,8,1,2,3,4,5/6,5/6,,3/8,
{16}7,6,5,4,2/3,,4,5,6/7,,2/3,,6,5,4,3,
{8}2V48[16:3],5-7[16:1],,,4-2[16:1]/5-1[16:1],,,,
{16}8,7,6,5,2/4,,1/3,,1,2,3,4,5/7,,6/8,,
{16}8b^5[8:1],1,2,3,4,3,2,1,8,7,6,5,3/4,3/4,,1/6,
{16}2,3,4,5,6/7,,8,1,2/3,,6/7,,3,2,1,8,
{8}7V51[16:3],4-2[16:1],,,4-8[16:1]/5-7[16:1],,,,
{16}1,2,3,4,5/7,,2/4,,8,7,6,5,4/2^7[8:15],,
{1}5/7,,,
E
&inote_5=(79.0){1},
{16}7,,,,6h[16:1]/2q7[8:1],5h[16:1],4h[16:1],3h[16:1],,,,,1s5[8:1],3/7,,3/7,
{16},,,,3h[16:1]/7p2[8:1],4h[16:1],5h[16:1],6h[16:1],,,,,8h[16:1],6h[16:1],4h[16:1],2h[16:1],
{8}7q3[8:1],1,2q6[8:1],8,7>6[8:1],1,,,
{8}2p6[8:1],8,7p3[8:1],1,2^7[16:1],8,,
{639}4,,,,,,,,,,,,,,,,,,,,
{641}4,,,,,,,,,,,,,,,,,,,,
{639}5,,,,,,,,,,,,,,,,,,,,
{641}5,,,,,,,,,,,,,,,,,,,,
{16}1p6[4:1],,8,,6>1[4:1],7,7,,1p6[4:1],,8,,6,7b,,7b,
{8}8q3[4:1],1,3<8[4:1],2,8q3[4:1],1,3,,
{8}1-7[8:1],7-2[8:1],2-6[8:1],6-3[8:1],3-5[8:1],5-1[8:1],,,
{8}8-6[16:1],1-5[16:1],2-4[16:1],,7-5[16:1],8-4[16:1],1-3[16:1],,
{16}8q1[2:3],8,8,8,7,7,7,7,6,6,6,6,5,5,5,5,
{16}4,4,4,4,3,3,3,3,2,2,2,2,,,,,
{16}2-5[16:1],2,1,8,7-4[16:1],7,8,1,2^5[16:1],2,1,8,7^4[16:1],7,8,1,
{16}2q6[16:1],2,1,8,7p3[16:1],7,8,1,2,2,1,8,8-2[16:1],2-6[16:1],6V84[8:1],,
{16},,,,6^3[16:1],6,7,8,2-5[16:1],2,1,8,7-4[16:1],7,8,1,
{16}3^6[10000:313],3,2,1,7,7,8,1,2,7,
{639}4,,,,,,,,,,,,,,,,,,,,
{641}6,,,,,,,,,,,,,,,,,,,,
{639}1,,,,,,,,,,,,,,,,,,,,
{641}7,,,,,,,,,,,,,,,,,,,,
{639}3,,,,,,,,,,,,,,,,,,,,
{641}5,,,,,,,,,,,,,,,,,,,,
{639}2,,,,,,,,,,,,,,,,,,,,
{641}8,,,,,,,,,,,,,,,,,,,,
{16}1,,
{16}6-2[16:1],6,5,4,3-7[16:1],3,4,5,6^1[16:1],6,5,4,3^8[16:1],3,4,5,
{16}6p1[16:1],6,5,4,3q8[16:1],3,4,5,6,6,5,4,1^7[16:1],7-3[16:1],3^1[16:1],1-5[16:1],
{16},,,,2^7[16:1],2,3,4,6-1[16:1],6,5,4,3-8[16:1],3,4,5,
{16}7^2[16:1],7,6,5,3,3,4,5,7/8h[16:1],7,3/4h[16:1],3,2/1h[16:1],2,6/5h[16:1],6,
{16}2,,,,8,8^2[16:1]*^6[16:1],2v4[16:1]/6v4[16:1],,,,,,1,1^3[16:1]*^7[16:1],3v5[16:1]/7v5[16:1],,
{16},,,,8v2[8:1]*v6[8:1],8,2^4[16:1]/6^4[16:1],,,,,,1v3[8:1]*v7[8:1],1,3^5[16:1]/7^5[16:1],,
{16},,,,7^5[16:1],5-1[16:1],1^3[16:1],3-7[16:1],,,,,2^4[16:1],4-8[16:1],8^6[16:1],6-2[16:1],
{16},,,,8,3,6,1,
{639}5,,,,,,,,,,,,,,,,,,,,
{641}2,,,,,,,,,,,,,,,,,,,,
{639}7,,,,,,,,,,,,,,,,,,,,
{641}4,,,,,,,,,,,,,,,,,,,,
{639}8,,,,,,,,,,,,,,,,,,,,
{641}3,,,,,,,,,,,,,,,,,,,,6,,,,,,,,,,,,,,,,,,,,
{639}1,,,,,,,,,,,,,,,,,,,,5,,,,,,,,,,,,,,,,,,,,
{641}2,,,,,,,,,,,,,,,,,,,,
{639}7,,,,,,,,,,,,,,,,,,,,
{641}4,,,,,,,,,,,,,,,,,,,,
{639}8,,,,,,,,,,,,,,,,,,,,
{641}3,,,,,,,,,,,,,,,,,,,,
{639}6,,,,,,,,,,,,,,,,,,,,
{641}1,,,,,,,,,,,,,,,,,,,,
{8}5h[4:1],,2h[4:1],1-5[16:1],7h[8:1],,6h[4:1],8-4[16:1],
{8}3h[8:1],,1h[4:1],3^6[16:1],8h[4:1],,4h[8:1],5h[8:1],
{8}2h[4:1],8-3[16:1],7h[4:1],8-5[16:1],1h[4:1],8-3[16:1],6h[4:1],8-5[16:1],
{8}2h[4:1],8q4[16:1],7h[4:1],8p4[10000:313],1h[4:1],8,
{639}6,,,,,,,,,,,,,,,,,,,,
{641}6,,,,,,,,,,,,,,,,,,,,
{639}3,,,,,,,,,,,,,,,,,,,,
{641}3,,,,,,,,,,,,,,,,,,,,
{16}8,,
{16}1-3[10000:313],1-4[1250:39],1-5[10000:313],1-6[10000:313],,,,,8-6[10000:313],8-5[10000:313],8-4[10000:313],8-3[10000:313],,,,,
{16}2-7[10000:313],2-6[10000:313],2-5[10000:313],2-4[10000:313],,,,,7-2[10000:313],7-3[10000:313],7-4[10000:313],7-5[10000:313],,,,,
{16}3^6[10000:313],3q7[10000:313],3v8[1250:39],3-1[10000:313],,,,,6^3[10000:313],6p2[10000:313],6v1[10000:313],6-8[10000:313],,,,,
{16}4^7[10000:313],4q8[1250:39],4-1[10000:313],4^2[10000:313],,,,,5>5[8:1],5,5,5,,,,,
{641}8,,,,,,,,,,,,,,,,,,,,
{639}7,,,,,,,,,,,,,,,,,,,,6,,,,,,,,,,,,,,,,,,,,
{641}5,,,,,,,,,,,,,,,,,,,,
{639}8-4[10000:313],,,,,,,,,,,,,,,,,,,,
{641}1,,,,,,,,,,,,,,,,,,,,
{639}2,,,,,,,,,,,,,,,,,,,,
{641}3,,,,,,,,,,,,,,,,,,,,
{639}8,,,,,,,,,,,,,,,,,,,,
{641}7,,,,,,,,,,,,,,,,,,,,8,,,,,,,,,,,,,,,,,,,,
{627}1,,,,,,,,,,,,,,,,,,,,,,,,,,,,,,,,,,,,,,,,,,,,,,,,,,,,,,,,,,,,,,,,,,,,,,,,,,,,,,,,,,,,,,,,,,,,,,,,,,
{639}1,,,,,,,,,,,,,,,,,,,,
{641}2,,,,,,,,,,,,,,,,,,,,
{639}3,,,,,,,,,,,,,,,,,,,,
{641}4,,,,,,,,,,,,,,,,,,,,1-5[10000:313],,,,,,,,,,,,,,,,,,,,
{639}8,,,,,,,,,,,,,,,,,,,,7,,,,,,,,,,,,,,,,,,,,
{641}6,,,,,,,,,,,,,,,,,,,,
{639}1,,,,,,,,,,,,,,,,,,,,
{641}2,,,,,,,,,,,,,,,,,,,,
{639}1,,,,,,,,,,,,,,,,,,,,
{621}8,,,,,,,,,,,,,,,,,,,,,,,,,,,,,,,,,,,,,,,,,,,,,,,,,,,,,,,,,,,,,,,,,,,,,,,,,,,,,,,,,,,,,,,,,,,,,,,,,
{639}2,,,,,,,,,,,,,,,,,,,,
{641}3,,,,,,,,,,,,,,,,,,,,
{639}4,,,,,,,,,,,,,,,,,,,,
{641}5,,,,,,,,,,,,,,,,,,,,
{639}7s3[16:1],,,,,,,,,,,,,,,,,,,,
{641}6,,,,,,,,,,,,,,,,,,,,
{639}5,,,,,,,,,,,,,,,,,,,,
{641}4,,,,,,,,,,,,,,,,,,,,
{639}2,,,,,,,,,,,,,,,,,,,,
{641}1,,,,,,,,,,,,,,,,,,,,
{639}8,,,,,,,,,,,,,,,,,,,,
{621}7,,,,,,,,,,,,,,,,,,,,,,,,,,,,,,,,,,,,,,,,,,,,,,,,,,,,,,,,,,,,,,,,,,,,,,,,,,,,,,,,,,,,,,,,,,,,,,,,,
{639}1,,,,,,,,,,,,,,,,,,,,
{641}8,,,,,,,,,,,,,,,,,,,,
{639}7,,,,,,,,,,,,,,,,,,,,
{641}6,,,,,,,,,,,,,,,,,,,,
{639}8,,,,,,,,,,,,,,,,,,,,
{641}1,,,,,,,,,,,,,,,,,,,,
{639}2,,,,,,,,,,,,,,,,,,,,
{641}3,,,,,,,,,,,,,,,,,,,,
{639}6,,,,,,,,,,,,,,,,,,,,
{641}6,,,,,,,,,,,,,,,,,,,,
{639}5,,,,,,,,,,,,,,,,,,,,
{641}5,,,,,,,,,,,,,,,,,,,,
{639}4,,,,,,,,,,,,,,,,,,,,
{641}4,,,,,,,,,,,,,,,,,,,,
{639}3,,,,,,,,,,,,,,,,,,,,
{641}3,,,,,,,,,,,,,,,,,,,,
{639}7,,,,,,,,,,,,,,,,,,,,
{641}4,,,,,,,,,,,,,,,,,,,,
{639}7,,,,,,,,,,,,,,,,,,,,
{641}4,,,,,,,,,,,,,,,,,,,,
{639}6,,,,,,,,,,,,,,,,,,,,
{641}3,,,,,,,,,,,,,,,,,,,,
{639}6,,,,,,,,,,,,,,,,,,,,
{641}3,,,,,,,,,,,,,,,,,,,,
{639}5w1[8:1],,,,,,,,,,,,,,,,,,,,
{641}2,,,,,,,,,,,,,,,,,,,,
{639}5,,,,,,,,,,,,,,,,,,,,
{641}2,,,,,,,,,,,,,,,,,,,,
{639}6,,,,,,,,,,,,,,,,,,,,
{641}3,,,,,,,,,,,,,,,,,,,,
{639}6,,,,,,,,,,,,,,,,,,,,
{641}3,,,,,,,,,,,,,,,,,,,,
{2}5pp1[8:1]*qq1[8:1],
{639}1p4[8:1],,,,,,,,,,,,,,,,,,,,
{641}5p8[8:1],,,,,,,,,,,,,,,,,,,,
{639}2,,,,,,,,,,,,,,,,,,,,
{641}6,,,,,,,,,,,,,,,,,,,,
{639}3,,,,,,,,,,,,,,,,,,,,
{641}7,,,,,,,,,,,,,,,,,,,,
{639}4,,,,,,,,,,,,,,,,,,,,
{633}8,,,,,,,,,,,,,,,,,,,,,,,,,,,,,,,,,,,,,,,,,,,,,,,,,,,,,,,,,,,,,,,,,,,,,,,,,,,,,,,,,,,,,,,,,,,,,,,,,,,,,,,,,,,,,,,,,,,,,,,,,,,,,,,,,,,,,,,,,,,,,,,,,,,,,,,,,,,,,,,,,,,,,,,,,,,,,,,,,,
{639}8q5[8:1],,,,,,,,,,,,,,,,,,,,
{641}4q1[8:1],,,,,,,,,,,,,,,,,,,,
{639}7,,,,,,,,,,,,,,,,,,,,
{641}3,,,,,,,,,,,,,,,,,,,,
{639}6,,,,,,,,,,,,,,,,,,,,
{641}2,,,,,,,,,,,,,,,,,,,,
{639}5,,,,,,,,,,,,,,,,,,,,
{633}1,,,,,,,,,,,,,,,,,,,,,,,,,,,,,,,,,,,,,,,,,,,,,,,,,,,,,,,,,,,,,,,,,,,,,,,,,,,,,,,,,,,,,,,,,,,,,,,,,,,,,,,,,,,,,,,,,,,,,,,,,,,,,,,,,,,,,,,,,,,,,,,,,,,,,,,,,,,,,,,,,,,,,,,,,,,,,,,,,,
{16}4-7[16:1],,8,,5-2[16:1],1,1,,3-8[16:1],,7,,6-1[16:1],2b,,2b,
{16}8-3[16:1],,4,,1-6[16:1],,5,,7-4[16:1],,3,,2,2,
{625}6,,,,,,,,,,,,,
{622}5,,,,,,,,,,,,,
{625}6,,,,,,,,,,,,,5,,,,,,,,,,,,,
{622}6,,,,,,,,,,,,,
{625}5,,,,,,,,,,,,,
{16}6-1[16:1],1-6[16:1],2-5[16:1],5-2[16:1],,,,,8-3[16:1],3-8[16:1],4-7[16:1],7-4[16:1],,,,,
{16}1-5[16:1],5-1[16:1],3-7[16:1],7-3[16:1],,,,,8-4[16:1],4-8[16:1],6-2[16:1],2-6[16:1],,,,,
{16}3v2[16:1],7v6[16:1],3v4[16:1],7v8[16:1],,,,,2v3[16:1],6v7[16:1],2v1[16:1],6v5[16:1],,,,,
{16}4v1[16:1],8v5[16:1],4v3[16:1],8v7[16:1],,,,,1v4[16:1],5v8[16:1],1v2[16:1],5v6[16:1],,,,,,
E
