&title=ファッとして桃源郷
&artist=新庄かなえ(CV:三森すずこ)「てーきゅう」
&wholebpm=160
&demo_seek=63
&demo_len=18.1
&lv_1=2
&lv_2=6
&lv_3=6
&lv_4=10
&lv_5=13
&des_4=rioN
&des_5=はっぴー
&inote_1=(160.0){1},,,
{1}8,
{1}7,
{1}6,
{1}5,
{1}4,
{1}3,
{1}2,
{1}1,
{1}1/8,
{1}1,
{1}2,
{1}3,
{1}4,
{1}5,
{1}6,
{1}7,
{1}8,
{1}8h[1:1],,
{1}1h[1:1],,
{1}8,
{1}7,
{1}6,
{1}5,
{1}4,
{1}3,
{1}2,
{1}1,
{1}8-4[4:3],,
{1}1-5[4:3],,
{1}7-3[4:3],,
{1}2-6[4:3],,
{1}7,
{1}8b,
{2}7,7,
{1}7,
{2}6,6,
{1}6,
{2}5,5,
{1}5,
{2}4,4,
{1}4,
{2}3,3,
{1}3,
{2}2,2,
{1}2,
{2}1,1,
{1}1,
{1}8,
{1}7,
{1}6,
{1}5,
{1}4,
{1}3,
{1}2,
{1}1,
{1}1/8,
E
&inote_2=(160.0){1},,
{2}1,1,
{4}2,2,2,,
{4}3,3,3,,
{4}4,4,4,,
{1}5h[2:1],
{4}6,6,6,,
{4}7,7,7,,
{4}8,8,8,,
{1}1h[2:1],
{4}1,8,1,,
{4}8,8,8,,
{4}7,7,7/8,,
{4}6,6,6,,
{2}5/6,3/4,
{4}4,4,4,,
{4}3,3,3/4,,
{4}2,2,2,,
{1}1h[2:1]/8h[2:1],
{1}1-5[4:3],,
{1}8-4[4:3],,
{4}1,1,1,,
{4}2,1,2,,
{4}3,3,3,,
{2}3/4,5/6,
{4}5,5,5,,
{4}6,5,6,,
{4}7,7,7,,
{1}1h[2:1]/8h[2:1],
{2}8,8,
{2}7,7,
{4}6,6,5,5,
{2}4b/5b,3/6,
{4}4,4,4,,
{4}3,3,3,,
{2}1/2,7/8,
{4}1,8,1,,
{4}2,2,3,3,
{1}4h[2:1]/5h[2:1],
{4}5/6,5/6,3/4,3/4,
{4}5,4,3/6,,
{4}7,7,8,8,
{4}1,1,8,8,
{4}1/2,1/2,7/8,7/8,
{4}1,8,2/7,,
{4}3,3,4,4,
{4}5,5,6,6,
{1}7h[2:1]/8h[2:1],
{1}1h[2:1]/2h[2:1],
{1}1-4[4:3]/8-5[4:3],,
{2}2/8,6,
{1}4h[8:5],
{4}3,3,3,,
{4}2,2,1/2,,
{4}1,1,1,,
{4}8,1,8,,
{4}7,7,7,,
{4}6,6,5/6,,
{4}5,5,5,,
{4}4,5,4,,
{8}3h[8:5]/6h[8:5],,,,,,
E
&inote_3=(160.0){1},,
{4},,,3/6,
{4}3,3,4,4,
{4}3,3,2/5,,
{4}6,6,5,5,
{4}6,6,4/7,,
{4}3,4,5,6,
{4}6,5,4,3,
{4}4/5,4/5,3/6,3/6,
{4}2/7,2/7,1/8,1/8,
{2}1h[4:1]/8h[4:1],2b/7b,
{4}2,1,8,7,
{1}1-4[4:1]/8-5[4:1],
{4}6,5,4,3,
{1}4-1[4:1]/5-8[4:1],
{4}7,8,1,2,
{1}1-6[4:1]/2-5[4:1],
{4}3,4,5,6,
{1}5-2[4:1]/6-1[4:1],
{4}3h[4:3],,4,4,
{4}6h[4:3],,5,5,
{4}2h[4:3],,1,1,
{2}7h[2:1],8,
{4}3,4,5,6,
{4}5/6,4/7,3/8,,
{4}7,8,1,2,
{4}1/2,3/8,4/7,,
{4}6,6,5,5,
{1}4-2[4:1]/6-8[4:1],
{4}2,2,1,1,
{1}2-4[4:1]/8-6[4:1],
{4}1,2,3,3/4,
{4}8,7,6,5/6,
{4}4,5,
{2}4bz8[4:3],{1},
{2}3h[2:1],4,
{2}6h[2:1],5,
{4}3,3/4,6,5/6,
{4}4/5,4/5,2/7,,
{4}1,2,3,4,
{1}5b-2[4:1]/6b-1[4:1],
{4}1/2,1/2,7/8,7/8,
{4}6,5,4/7,,
{4}7/8,7/8,1/2,1/2,
{4}3,4,5/6,4/7,
{4}5/6,5/6,3/4,3/4,
{4}2,1,3/8,,
{4}3/4,3/4,5/6,5/6,
{4}7/8,1/6,2/5,3/4,
{4}4,3,2,1/8,
{4}5,6,7,1/8,
{4}8,8,1,1,
{4}1b,8b,1b,8b,
{4}1,2,3,4,
{1}5h[8:5]/6h[8:5],
{4}8,7,6,5,
{4}4,3,2/8,2/8,
{4}1,2,3,4,
{4}5,6,1/7,1/7,
{4}6,5,4,3,
{4}1/2,1/8,7/8,1/6,
{4}3,4,5,6,
{4}7/8,1/8,1/2,
{8}8/3q6[8:5],,,,,,,,
E
&inote_4=(160.0){1},,
{4},,,2/7,
{4}3,2/4,6,5/7,
{4}3h[4:1],4,2/5,1/6,
{4}6,5/7,3,2/4,
{1}5/6<3[2:1],
{4}6,5/7,3,2/4,
{4}6h[4:1],5,4/7,3/8,
{4}2,1/3,7,6/8,
{4}1/8,2/7,3/6,4/5,
{8}3/6,,4,5,4,,2b/7b,,
{2}4/3-8[8:1],5/6-1[8:1],
{8}3h[4:1],,4,3,4,,2/8,,
{2}5/6-1[8:1],4/3-8[8:1],
{8}7,7,6/8,,2,2,1/3,,
{2}5/6-2[8:1],4/3-7[8:1],
{8}6h[4:1],,5,6,5,,1/7,,
{2}2/1-6[8:1],7/8-3[8:1],
{4}4qq2[4:1]/5pp7[4:1],,,1/8,
{4}7h[4:1],6h[4:1],5h[4:1],4,
{4}2/3,5/6,1/2,3/7,
{4}2h[4:1],3h[4:1],4h[4:1],5,
{4}6/7,3/4,7/8,2b/6b,
{2}3/4-8[8:1],6/5-1[8:1],
{8}8,8,1,1,7/2h[4:1],,3,,
{2}6/5^2[8:1],3/4^7[8:1],
{8}2,2,1/3,,7,7,6/8,,
{2}7/8^3[8:1],2/1^6[8:1],
{8}4,4,5,5,2/7h[4:1],,6,,
{8}8,8,1,1,7,7,2,2,
{8}1/8,1^4[4:1]/8^5[4:1],,,,,,,
{8}6h[8:3],,,5,5/6,,2/8,,
{8}3h[8:3],,,4,3/4,,1/7,,
{8}6h[8:3],,,5,5/6,,2/8,,
{1}1s5[2:1],
{4}6h[4:1],8,3h[4:1],1,
{8}5h[4:1],,8,,4h[4:1],,1,8,
{8}1b/7b,,,1,2b/8b,,,,
{8}3/4,,5/6,,1/8,1/8,1/8,,
{8}1,2,3,4,5,6,7,8,
{1}1b>8[2:1],
{4}7-4[8:1],8-3[8:1],7^4[8:1],8,
{8}1/2,,5/6,5/6,4/7,,1/5,,
{4}8-5[8:1],1-4[8:1],8-5[8:1],1,
{8}1/2,1/2,3/8,,7/8,7/8,1b/6b,,
{4}2-5[8:1],1-6[8:1],2^5[8:1],1,
{8}7/8,,3/4,3/4,2/5,,4/8,,
{4}4/3-8[8:1],4,5/6-1[8:1],5,
{4}4/3-8[8:1],4,5/6-1[8:1],5,
{4}1/2,3/4,5/6,7/8,
{4}2/4,1/8,5/7,1/8,
{8}5-8[8:1],,,4,4-1[8:1],,,,
{4}7/8,5/6,3/4,1/2,
{1}7h[8:11]/8b>6[2:1],
{8}6,6,6,6,,1b/8b,,,
{8}5/7h[4:1],,1,,3,4,3,,
{8}4/2h[4:1],,8,,6,5,6,,
{4}4/3h[4:1],8,5/6h[4:1],1,
{8}2/7,,3/6,,4,4,4,4,
{8}7/5h[4:1],,4,,2,1,2,,
{8}2/4h[4:1],,5,,7,8,7,,
{4}7/8h[4:1],3,2/1h[4:1],6,
{8}1/8,,4/5,,3/6,3/6,2/7,,
{8}1-4[8:1]/8-5[8:1],,,,,2b/7b,
E
&inote_5=(160.0){1},
{4},,,4h[8:1]/5h[8:1],
{16}1,8,1,8,2,,3,,6,,5,,2b/7b,,,,
{16}3,4,2,5,3-8[8:1],,3,,6-1[8:1],,6,,4,,2,,
{16}6,5,7,4,6qq3[8:3],,6,,1h[4:1],,,,,,,,
{16}3,4,2,5,3-7[8:1],,3,,6-2[8:1],,6,,1>8[8:3],,1,,
{8}8b,,,,5/6,4/7,3/8,1/2,
{16}6,5,7,4,6-1[8:1],,6,,3-8[8:1],,3,,5,,7,,
{16}3,4,2,5,3-8[8:1],,3,,6,,6,,4,,2,1,
{16}3,,7,8,6,,3,4,2,,8,,7,,6,,
{4}5-1[8:1],4-8[8:1],6-1[8:1],3,
{16}3/6,,4,5,4,,1/8,,3/6,,4b/5b,,2b/7b,,,,
{16}4,5,4,6,3,,4/5,,1b,,6b,,8-5[8:1],,8,,
{8}1pp4[8:3],1,8,7,6,,3/6h[4:1],5,
{8}3h[4:1],4,7h[4:1],5,2h[4:1],4,7h[4:1],8,
{8}2h[4:1],1,6pp1[8:3]*^3[16:5],,,,,,
{4}2q7[8:1]/6^3[8:1],,1h[8:1]/7h[8:1],2h[8:1]/8h[8:1],
{16}1,8,1,8,2b/7b,,4/5,,2b/7b,,,,6/3h[4:1],,4,,
{8}6h[4:1],5,2h[4:1],4,7h[4:1],5,2,3,
{8}4/5,4qq3[4:1]/5pp6[4:1],,,,,2/7,,
{8}6-8[16:1],5,4-2[16:1],5,6-8[16:1],5,4-2[16:1],5,
{8}6,5,4V68[4:1]/6V42[4:1],5,,,,,
{8}3-1[16:1],4,5-7[16:1],4,3-1[16:1],4,5qq4[4:1]*pp6[4:1],4,
{4},,1-6[8:1]/8-3[8:1],1b/8b,
{16}5,4,5,3,6,,4/5,,2-7[8:1]/3-6[8:1],,,,,,,,
{8}3/4,4/5,2/4-1[8:1]*-7[8:1],4/6,,,4/5,6,
{2}8/7q3[8:1]*qq5[8:1],7/8q4[8:1]*qq6[8:1],
{8}7/8,1/6,3/4,,5-2[8:1]/6-1[8:1],4/7,,,
{8}7/8,6,5/6,4,3/4,2,1/2,4/7,
{8}1/8-5[8:1]*q5[8:1],1/8,,,8/1-4[8:1]*^4[8:1],,,,
{8}6,5/7,3,2/4,7,6/8,2,1/3,
{8}6/7,6-3[8:1]/7-2[8:1],,,,5b,4b,3b,
{8}6h[4:1],8,5h[4:1],8,6h[4:1],8,4h[4:1],8,
{8}5h[4:1],1,3h[4:1],1,4h[4:1],1,3h[4:1],1,
{8}5h[4:1],1,4h[4:1],8,5s1[4:1],5,,,
{8},3/6,3qq2[4:1]/6pp7[4:1],2/7,,,,,
{2}6h[1:1]/5pp7[8:1],5>1[8:1],
{8}5qq2[8:3],,,,,,,8/7-4[8:1],
{8}1/6,8b,8b,1/2-5[8:1],3/8,1b,1b,4/5,
{8}6,4/5,3,4/5,2/7,1b,8b,4/5,
{8}6/7,5/8,1/4,2/3,1/8,2/3,1/4,5/8,
{16}6/7,,5,,3,,4,,2b,7b,3b,6b,4b-8[8:1]/5b-7[8:1],,,,
{8}4-2[8:1]/5-1[8:1],,4/5,,4/5,4/5,2/7,4/5,
{8}6/8,4/5,1/3,4/5,2/7,1b/8b,3b/6b,,
{2}1-7[8:1]/8-4[8:1],2qq1[8:1]*^5[8:1],
{8}4v1[8:1]/5-8[8:1],4/5,,,3b/6b,1b/8b,4b-2[8:1]/5b-1[8:1],,
{8}4-8[8:1]/5-7[8:1],,4/5,,4/5,4/5,6/8,4/5,
{8}3/6,2/7,1pp2[8:1]/8qq7[8:1],2/7,,,5-3[8:1]*-7[8:1],,
{4},4-1[8:1]*-7[8:1],,5w1[4:1],
{8},,,1/8,1^4[8:1]/8^5[8:1],,1/8,,
{16}4/5,,3,4,2,,6,5,7,,2,1,3,,7,8,
{4}6h[4:1],8h[4:1],1h[4:1],3>6[8:3],
{8}6,,,4,4,,7/2-5[8:1],,
{4}6-1[8:1],3-8[8:1],7-4[8:1],1b,
{16}6,5,,3,4,,6,5,7,5,,3,4,,4/5,,
{16}7h[2:1],,,,
{983}8b,,,,,,,,,,,,,,,,,,,,,,,,,,,,,,,,,,,,,,,,,
{625}1,,,,,,,,,,,,,,,,,,,,,,,,,,
{983}2,,,,,,,,,,,,,,,,,,,,,,,,,,,,,,,,,,,,,,,,,3,,,,,,,,,,,,,,,,,,,,,,,,,,,,,,,,,,,,,,,,,
{625}4,,,,,,,,,,,,,,,,,,,,,,,,,,
{983}5,,,,,,,,,,,,,,,,,,,,,,,,,,,,,,,,,,,,,,,,,
{8}6,3b/8b,,,
{16}6,5,7,4,6-1[8:1],,6,,3-8[8:1],,3,,5,,7,,
{16}3,4,2,5,3pp6[8:3],,3,,8h[4:1],,,,,,,,
{16}6,5,7,4,6-2[8:1],,6,,3-7[8:1],,3,,8<1[8:3],,8,,
{8}1b,,,,3/4,2/5,1/6,7/8,
{16}3,4,2,5,3-8[8:1],,3,,6-1[8:1],,6,,4,,2,,
{16}6,5,7,4,6-1[8:1],,6,,3,,3,,5,,7,8,
{16}6,,2,1,3,,6,5,7,,1,,2,,3,,
{4}4-8[8:1],5-1[8:1],3-8[8:1],6,
{8}2h[2:1]/1<3[4:1],1,,,,1b/6b,
E
