&title=いぇす!ゆゆゆ☆ゆるゆり♪♪
&artist=七森中☆ごらく部「ゆるゆり♪♪」
&wholebpm=182
&demo_seek=3.8
&demo_len=16.4
&lv_1=2
&lv_2=4
&lv_3=7
&lv_4=9
&lv_5=11
&des_4=如月 ゆかり
&des_5=某S氏
&inote_1=(182.0){1},,,
{1}2,
{1}3,
{1}4,
{1}5,
{1}6,
{1}7,
{1}8,
{1}1,
{1}1b,
{1}8,
{1}7,
{1}6,
{1}5,
{1}4,
{1}3,
{1}2,
{1}2h[1:1],,
{1}1h[1:1],,
{1}8h[1:1],,
{1}7h[1:1],,
{1}6,
{1}6,
{1}5,
{1}5,
{1}4,
{1}4,
{1}3,
{1}3,
{1}2-6[4:3],,
{1}7-3[4:3],,
{1}2-6[4:3],,
{1}7-3[4:3],,
{1}2,
{1}1/8,
{2}1,1,
{1}1,
{2}2,2,
{1}2,
{2}3,3,
{1}3,
{2}4,4,
{1}4,
{2}5,5,
{1}5,
{2}6,6,
{1}6,
{2}7,7,
{1}7,
{2}8,8,
{1}8,
{1}1/8,,
{1}1h[1:1],,
{1}8h[1:1],,
{1}1b,
E
&inote_2=(182.0){1},,,
{2}4,4,
{2}4,4,
{2}5,5,
{2}5,5,
{2}3,3,
{2}3,3,
{2}6,6,
{2}6,6,
{2}4b,4,
{2}3,3,
{2}2,2,
{2}1,1/8,
{2}8,8,
{2}7,7,
{2}6,6,
{1}4h[2:1]/5h[2:1],
{2}3,3,
{2}3/4,3/4,
{2}6,6,
{2}5/6,5/6,
{2}4,4,
{2}3/4,3/4,
{2}5,5,
{2}5/6,5/6,
{2}7,7,
{2}7/8,7/8,
{2}2,2,
{2}1/2,1/2,
{2}8,8,
{2}7/8,7/8,
{2}1,1,
{1}1h[2:1]/2h[2:1],
{1}2-5[4:3],,
{1}7-4[4:3],,
{1}3h[2:1]/4h[2:1],
{1}3h[2:1]/5h[2:1],
{1}5h[2:1]/6h[2:1],
{1}4h[2:1]/6h[2:1],
{2}4/5,4/5,
{1}3b/6b,
{4}4,4,4,,
{4}3,3,3,,
{4}2,2,2,,
{4}1,1,1,,
{4}8,8,8,,
{4}7,7,7,,
{4}6,6,6,,
{2}4/5,4/5,
{4}5,5,5,,
{4}6,6,6,,
{4}7,7,7,,
{4}8,8,8,,
{4}1,1,1,,
{4}2,2,2,,
{4}3,3,3,,
{4}4,4,4,,
{1}4h[1:1]/5h[1:1],,
{2}5/6,5/6,
{2}3/4,3/4,
{2}2,1,
{2}8,7,
{1}1b/8b,
E
&inote_3=(182.0){1},,,
{2}3/4,3/4,
{4}3,4,2/5,,
{2}4/5,4/5,
{4}4,5,3/6,3/6,
{2}5/6,5/6,
{4}6,5,4/7,,
{2}4/5,3/6,
{4}1/8,1/8,2/7,2/7,
{4}3,4,2/5,2/5,
{4}1,8,2/7,,
{4}6,5,4/7,4/7,
{4}8,1,2/7,,
{4}2,2,1/8,1/8,
{4}7,7,1/8,,
{4}1/8,2/7,3/6,4/5,
{4}4h[4:1]/5h[4:1],,4/5,2b/7b,
{4}3,3,4,4,
{4}3,4,2/5,,
{4}6,6,5,5,
{4}6,5,4/7,,
{4}5,5,4,4,
{4}5,4,3/6,,
{2}3/4,5/6,
{4}4/5,3/6,2/7,1/8,
{4}2,2,1,1,
{4}2,1,3/8,,
{4}7,7,8,8,
{4}7,8,1/6,,
{4}1,1,8,8,
{4}1,8,2/7,,
{2}1/3,6/8,
{4}1/8,2/7,2b/7b,,
{4}3h[2:1],,4,2/5,
{4}6h[2:1],,5,4/7,
{4}3h[2:1],,4,2/5,
{4}6h[2:1],,5,4/7,
{1}2-5[4:1],
{1}7-4[4:1],
{1}1-5[4:1],
{1}8-4[4:1],
{1}1>8[4:3],
{4},,1/8,2/7,
{4}3,3/4,6,5/6,
{4}3,3/4,1/6,,
{4}6,5/6,3,3/4,
{4}6,5/6,3/8,,
{4}3,3/4,6,5/6,
{4}3,2/4,6,5/7,
{1}1-4[4:1]/8-5[4:1],
{4}3/4,3/4,5/6,5/6,
{4}7,7/8,2,1/2,
{4}7,7/8,2/5,,
{4}2,1/2,7,7/8,
{4}2,1/2,4/7,,
{4}6h[4:1],5,3h[4:1],4,
{4}7h[4:1],6,2h[4:1],3,
{4}6h[4:1],7,3h[4:1],2,
{4}7h[4:1],8,2h[4:1],1,
{1}8<1[4:3],
{4},,1/8,1/8,
{4}3/4,2/5,5/6,4/7,
{4}4/5,4/5,2/7,,
{2}2-5[4:1],7-4[4:1],
{4}1,1,8,8,
{1}2b/7b,
E
&inote_4=(182.0){1},
{2}8,7,
{2}6,5,
{4}4,5,4,5,
{4}3/6,3/6,2/7,,
{4}3/4,3/4,5/6,5/6,
{4}3/4,5/6,3/4,5/6,
{4}1,8,1,8,
{4}2/7,2/7,3/6,,
{1}5-2[4:1]/6-1[4:1],
{4}4/5,3/6,2/7,1/8,
{8}2b/7b,,5,,3,4,3,,
{4}5,6,7/8,1/2,
{8}3,,4,,6,5,6,,
{4}4,3,1/2,7/8,
{8}5/6,,3/4,,1,8,1,,
{4}4/6,3/5,2/8,1/7,
{1}4qq1[2:1]/5pp8[2:1],
{4}2h[4:1]/7h[4:1],,3/6,1b/8b,
{4}3/5,4/6,3/5,4/6,
{4}3/5,4/6,3/5,4/6,
{4}3/4,5/6,3/4,5/6,
{4}3/4,5/6,3/4,5/6,
{4}2/4,5/7,2/4,5/7,
{4}2/4,5/7,2/4,5/7,
{8}3/6,,4,5,4,,7-4[16:3],,
{4}2-5[16:3],8-4[16:3],1-5[16:3],7,
{8},,3,4,3,4,,2/5,
{8},1/6,,7,8,,1/6,,
{8}3/4,,6,5,6,5,,4/7,
{8},3/8,,2,1,,3/8,,
{8}5/6,,4,5,4,5,,3/6,
{8},2/7,,1,8,,3/6,,
{4}1/2h[4:1],6,8/7h[4:1],3,
{4}4-1[4:1]/5-8[4:1],,,2b/7b,
{4}4h[4:1],3,5h[4:1],6,
{4}1h[4:1],3,8h[4:1],6,
{4}4h[4:1],2,5h[4:1],7,
{8}1,8,2,7,,5,4,6q3[4:1],
{8},,,,,4,5,3p6[4:1],
{8},,,,,8,1,7^2[4:1]*^4[4:1],
{8},,,,,1,8,2^5[4:1]*^7[4:1],
{4},,,3/6,
{6}2b,1b,2b,7b,8b,7b,
{4}1b/8b,3/4,1/8,5/6,
{8}7,8,7,,1/6,,3-8[4:1]/4-7[4:1],,
{4},,2/6,4/8,
{8}6,5,6,,1-6[16:3]/2-5[16:3],,,,
{4},3/8,4/7,5/6,
{4}2h[4:1],3h[4:1],4h[4:1],5,
{4}6h[4:1],7h[4:1],8h[4:1],1,
{1}4w8[2:1],
{4}4/5,1/2,4/5,7/8,
{8}2,1,2,,3/8,,5^2[4:1]/6^1[4:1],,
{4},,4/8,2/6,
{8}3,4,3,,7^4[4:1]/8^3[4:1],,,,
{4},1/6,2/5,3/4,
{4}6h[4:1],7h[4:1],8h[4:1],1,
{4}2h[4:1],3h[4:1],4h[4:1],5,
{4}7-4[16:3],1,2-5[16:3],8,
{4}7^4[4:1],8,2^5[4:1],1,
{1}8w4[2:1],
{8},1,8,1,8,,3b/6b,,
{4}1/2h[4:1],6,8/7h[4:1],3,
{4}8/1h[4:1],4,1/8h[4:1],5,
{8}3/4,,1/6,,7,8,7,,
{8}5/6,,3/8,,2,1,2,,
{8}3b/6b,,1/8,2b/7b,
E
&inote_5=(182.0){1},
{2}2,2,
{12}2,,,,,
{625}4,,,,,,,,,,,,,,,,,,,,,,,,,,
{983}5,,,,,,,,,,,,,,,,,,,,,,,,,,,,,,,,,,,,,,,,,
{4}4,,
{8}1/8,,3,5h[2:1],,6,,4,
{8},8,1,7,2,5/6,4/5,3/4,
{8}2,1,3,3,7,8,6,6,
{8}2,7,1-5[8:1]/8-4[8:1],,1-6[8:1]/8-3[8:1],,,,
{8}1/8,,6,4h[2:1],,3,,5,
{8},1,8,2,7,3/4,4/5,5/6,
{8}7b/8b,,4/5,,1b/2b,,4/5,2b/7b,
{8},1,1,1,2/8,8,1/7,1,
{8}7b/2b-5[8:1],2,8,8,7-4[8:1],7,1,1,
{8}2-5[8:1],2,8,8,4h[8:1]/6h[8:1],,3h[8:1]/5h[8:1],,
{8}7-4[8:1],7,1,1,2-5[8:1],2,8,8,
{8}7-4[8:1],7,1,1,3h[8:1]/5h[8:1],,4h[8:1]/6h[8:1],,
{8}3-8[8:1],3,5,5,6-1[8:1],6,4,4,
{8}3-8[8:1],3,5,5,1h[8:1]/7h[8:1],,2h[8:1]/8h[8:1],,
{8}3/7,5,4,3,2/6,4,2pp4[8:3]/6pp8[8:3],2/6,
{4},,3b/7b,6b/2b^5[16:1],
{8}7b^4[16:1],7b,2^5[16:1],,7^4[16:1],,2^5[16:1],,
{4}7^4[16:1],2^5[16:1],7^4[16:1],2,
{8}1/8bp4[16:1],8b,1q5[16:1],,8p4[16:1],,1q5[16:1],,
{4}8p4[16:1],1q5[16:1],8p4[16:1],1,
{8}2/7bp3[16:1],7b,2q6[16:1],,7p3[16:1],,2q6[16:1],,
{4}7p3[16:1],2q6[16:1],7p3[16:1],2,
{8}1/2,,6,3,5,4,3-7[8:1],3,
{8}4-6[8:1],4,3-7[8:1],3,4-6[8:1],4,3b,,
{4}3q8[4:1],8^3[4:1],3^6[4:1],6q3[4:1],
{1}3pp6[2:1]*pp7[2:1],
{2}2q7[8:1]/3^6[8:1],6^3[8:1]/7p2[8:1],
{1}2qq7[2:1]/3q6[2:1],
{4}1-7[8:1],6-2[8:1],3-5[8:1],8-4[8:1],
{4}3-7[8:1],6-2[8:1],4-8[8:1],1b,
{8}2,1,3b/8b,,7,8,1b/6b,,
{8},1/2,3/8,4/7,5/6,,1b/8b,,
{8}5/3qq4[4:1],,,6,6,,1/8,,
{8}4/6pp5[4:1],,,3,3,,1/8,,
{8}5/3qq4[4:1],,,6,6,,1/8,,
{8}6,2,8,3/7,,4,4^1[8:3],4,
{8},5,5^8[8:3],5,,3,3-8[8:3],3,
{8},6,6-1[8:3],6,,2,2V48[8:3],2,
{8},7,7V51[8:3],7,,3,3,3h[8:3],
{4},7,1/5,4/8,
{6}1b/2b,3/8,5/6,7b/8b,1/6,3/4,
{4}1b/8b,2/7,4/5,8b/1b>5[8:1],
{8}1/7h[8:3],,,8,1/6,,5,2,
{4}3/4-8[8:1],1b,6/5-1[8:1],8b<4[8:1],
{8}8/2h[8:3],,,1,3/8,,4,7,
{4}6/5-1[8:1],8b,3/4-8[8:1],1b,
{4}7/2^5[4:1],5^8[4:1],8^3[4:1],3^6[4:1],
{4}6^1[4:1],1^4[4:1],4,7,
{8}7h[4:1],,8,6,5/2h[4:1],,1,3,
{8}4/6h[4:1],,1,1,5/3h[4:1],,8<4[8:1],,
{8}8/2h[8:3],,,1,3/8,,4,7,
{4}6/5-1[8:1],8b,3/4-8[8:1],1b>5[8:1],
{8}1/7h[8:3],,,8,1/6,,5,2,
{4}3/4-7[8:1],4b-1[8:1],4b-8[8:1],4b,
{4}2/7^4[4:1],4^1[4:1],1^6[4:1],6^3[4:1],
{4}3,8,4/5,2/7,
{4}1-5[8:1]/2-4[8:1],1/2,7-5[8:1]/8-4[8:1],7/8,
{4}1^4[4:1],4^7[4:1],7^2[4:1],2q5[8:5],
{8}5b,,,,,,,1/8,
{8},1/8,2/7,3/6,1-5[8:1]/8-4[8:1],,1b/8b,,
{8}2/7,,6,4h[2:1],,3,,5,
{8},1,8,2,7,5/6,4/5,3/4,
{16}2,,7,8,7,,2,1,2,,7,,1,,8,,
{8},1,1,1,2/8,8,1/7,1,
{8}3/7b,,2b/5,4/7b,
E
