&title=fake!fake!
&artist=カラスは真っ白
&wholebpm=156
&demo_seek=44.4
&demo_len=13
&lv_1=2
&lv_2=4
&lv_3=7+
&lv_4=10
&lv_5=13
&des_4=Jack
&des_5=rioN
&inote_1=(156.0){1},,,,
{1}6,
{1}6,
{1}5,
{1}5,
{1}4,
{1}4,
{1}3,
{1}3,
{1}2,
{1}2,
{1}1,
{1}1,
{1}8,
{1}8,
{1}7,
{1}7,,
{1}7,
{1}7,
{1}8,
{1}8,
{1}1,
{1}1,
{1}2,
{1}2b,
{2}3,3,
{1}3,
{2}4,4,
{1}4,
{2}5,5,
{1}5,
{2}6,6,
{1}6,
{1}5-8[4:3],,
{1}1-4[4:3],,
{1}5h[1:1],,
{1}6h[1:1],,
{1}5h[1:1],,
{1}4h[1:1],,
{1}3h[1:1],,
{1}4h[1:1],,
{1}5h[1:1],,
{1}6h[1:1],,
{1}5,
{1}5,
{1}4,
{1}4,
{1}3-6[4:3],,
{1}7-2[4:3],,
{1}1/8,
{1}1/8,
{2}7,7,
{1}7,
{2}6,6,
{1}6,
{2}5,5,
{2}5,5b,
{2}4,4,
{1}4,
{2}3,3,
{1}3,
{2}2,2,
{1}2,
{2}1,1,
{2}1,1b,
{2}8,8,
{1}8,
{2}1,1,
{1}1-4[4:3],,
{1}5-8[4:3],,
E
&inote_2=(156.0){1},,,,
{2}1,1,
{2}2,2,
{2}3,3,
{2}4,4/5,
{2}5,5,
{2}6,6,
{2}7,7,
{2}8,1/8,
{2}2,2,
{2}3,3,
{2}4,4,
{2}5/6,3/4,
{2}6,6,
{2}7,7,
{2}8,8,
{2}1/2,7/8,
{1}1b,
{2}8,7,
{2}6,4/5,
{2}3,2,
{4}1,1,8,8,
{2}1,2,
{2}3,4/5,
{2}6,7,
{4}8,8,8,,
{4}1,1,1,,
{4}2,2,2,,
{4}3,3,3,,
{4}4,5,4,,
{4}5,5,5,,
{4}6,6,6,,
{4}7,7,7,,
{4}8,8,1,1,
{1}8-5[4:3],,
{1}1-4[4:3],,
{1}5h[1:1],,
{1}4h[1:1],,
{1}6h[1:1],,
{1}3h[1:1],,
{1}5,
{1}5,
{1}4,
{1}4,
{1}6,
{1}6,
{1}3,
{1}3,
{1}6-2[4:3],,
{1}3-7[4:3],,
{2}8,7,
{2}6,5,
{2}4,3,
{1}2h[2:1],
{1}1b,
{1}8b,
{4}2,2,3,,
{4}3,3,3/4,,
{4}4,4,5,,
{4}5,5,6,,
{4}6,6,7,,
{4}7,7,1/8,1/8,
{4}8,8,7,,
{4}7,7,6,,
{4}6,6,5,,
{4}4,5,4,,
{4}5,5,4,,
{4}4,4,3,,
{4}3,3,2,,
{4}2,2,1/8,1/8,
{2}1,2,
{2}3,4,
{2}5,6,
{1}7-2[4:3],,
{1}3-6[4:3],,
E
&inote_3=(156.0){1},,,,
{4}1,2,3/4,,
{4}8,7,5/6,,
{4}1,2,3/4,,
{4}8,7,6,4/5,
{4}4,3,1/2,,
{4}5,6,7/8,,
{4}4,3,2,1/8qq5[4:3],{1},
{4}6,5,3/4,,
{4}3,4,5/6,,
{4}6,5,4,3/4,
{4}5,4/6,4,3/5,
{4}2,1,7/8,,
{4}7,8,1/2,,
{4}1,8,1,2/7,
{4}8,1/7,1,2/8,
{1}1^4[2:1],
{4}7,6,4/5,,
{4}2,3,4/5,,
{4}7,6,4/5,,
{4}4,3/5,5,4/6,
{1}6^1[2:1],
{1}2^5[2:1],
{1}5-1[2:1],
{4}1,1,1b/8b,,
{4}3,4,2/5,2/5,
{4}6,5,4/7,4/7,
{4}1,8,2/7,2/7pp2[4:3],{1},
{4}2,1,3/8,3/8,
{4}7,8,1/6,1/6,
{4}6,5,4,3,
{4}2,1,8b,8b,
{4}2,3,4,7,
{4}6,5,4/5,4/5,
{1}4<2[4:5],,
{1}2-5[2:1],
{1}6-1[2:1],
{1}8-3[2:1],
{1}4-7[2:1],
{1}6^1[2:1],
{1}2^5[2:1],
{1}4^7[2:1],
{1}8^3[2:1],
{2}3h[2:1],4h[2:1],
{2}5h[2:1],6,
{2}6h[2:1],5h[2:1],
{2}4h[2:1],3,
{2}2h[2:1],1h[2:1],
{2}8h[2:1],7,
{2}7h[2:1],8h[2:1],
{2}1h[2:1],2,
{2}3h[2:1],4h[2:1],
{2}5h[2:1],6h[2:1],
{2}5h[2:1],4h[2:1],
{2}3h[2:1],4,
{4}4/5,4/5,4/6,4/6,
{4}4/5,4/5,3/5,3/5,
{1}2/7,
{8}1/8,,,1/8,,,1/8,,
{4}2,1,3/8,3/8,
{4}7,8,1/6,1/6,
{4}3/4,2/5,5/6,4/7,
{4}7/8,1/6,1/2,3/8,
{4}7,8,1/6,1/6,
{4}2,1,3/8,3/8,
{2}3h[4:1]/4h[4:1],5h[4:1]/6h[4:1],
{4}2h[4:1]/7h[4:1],,8b,8b,
{4}8,1/7,1,2/8,
{4}8,1/7,1,2/8,
{4}7,6/8,2,1/3,
{4}7,6/8,2,1/3,
{4}1/8,7/8,1/8,1/2,
{4}1,8,2/7,2/7,
{4}8/7h[4:1],8,1/2h[4:1],1,
{4}3/6,4/5,4b,4b,
{1}5^8[2:1],
{1}4^1[2:1],
{1}4-1[2:1]/5-8[2:1],
{1}1pp4[2:3]/8qq5[2:3],,
{8}3/6,,2/7,,1h[4:1]/8h[4:1],,,2/7,
E
&inote_4=(156.0){1},
{8}1-3[8:1],,,7-5[8:1],,,2-4[8:1],,
{8},8-6[8:1],,,1-5[8:1],,,,
{641},,,,,,,,,,,,,,,,,,,,8b,,,,,,,,,,,,,,,,,,,,,,,,,,,,,,,,,,,,,,,,,,,,,,,,,,,,,,,,,,,,,,,,,,,,,,,,,,,,,,,,,,,,,,,,,,,,,,,,,,,,,,,,,,,,,,,,,,,,,,,,,,,,,,,,,,,,,,,,,,,,,,,,,,,,,,,,,,,,,,,,,,,,,,,,,,,,,,,,,,,,,,,,,,,,,,,,,,,,,,,,,,,,,,,,,,,,,,,,,,,,,,,,,,,,,,,,,,,,,,,,,,,,,,,,,,,,,,,,,,,,,,,,,,,,,,,,,,,,,,,,,,,,,,,,,,,,,,,,,,,,,,,,,,,,,,,,,,,,,,,,,,,,,,,,,,,,,,,,,,,,,,,,,,,,,,,,,,,,,,,,,,,,,,,,,,,,,,,,,,,,,,,,,,,,,,,,,,,,,,,,,,,,,,,,,,,,,,,,,,,,,,,,,,,,,,,,,,,,,,,,,,,,,,,,,,,,,,,,,,,,,,,,,,,,,,,,,,,,,,,,,,,,,,,,,,,,,,,,,,,,,,,,,,,,,,,,,,,,,,,,,,,,,,,,,,,,,,,,,,,,,,,,,,,,,,,,,,,,,,,,,,,,,,,,,,,,,,,,,,,,,,,,,,,,,,,,,,,,,,,,,,,,,,,,,,,,,,,,,,,,,
{4}3,4,3,2/5,
{4}6,5,6,4/7,
{4}3,2,1,7/8,
{4}6,7,8,1/2,
{4}3,4,2,1/8,
{4}6,5,7,1/8,
{4}4,5,4,2/7,
{4}1/8,2/7,3/6,4/5,
{4}7/8,1/2>6[16:5],,,
{4}7h[4:1],8,2h[4:1],1,
{4}6h[4:1],5,4/7,3/8,
{8}2,1,2,,7,8,7,,
{4}1/2,8/7<3[16:5],,,
{4}2h[4:1],1,7h[4:1],8,
{4}3h[4:1],4,2/5,1/6,
{2}8h[2:1],1h[2:1],
{4}2>7[8:3],,,1/8,
{4}5/6,4/3>6[8:3],,,
{4}5h[4:1],4,2h[4:1],1,
{4}7h[4:1],8,1/6,2/5,
{8}3,4,2/5,,6,5,4/7,,
{1}8qq5[2:1],
{1}4qq1[2:1],
{1}8<1[2:1],
{4}5/7,2/4,3b/6b,,
{16}4/5,,,,2,,1,,3/8,,,2/5,,,7-4[8:1]/8-3[8:1],,
{8},,,1/2,1-6[8:1]/2-5[8:1],,,,
{16}7,,7,,4,,5,,2h[16:3],,,4h[16:3],,,5,,
{8},6,6,3,3,8,1/8,,
{16}4/5,,,,7,,8,,1/6,,,4/7,,,1-6[8:1]/2-5[8:1],,
{8},,,7/8,7-4[8:1]/8-3[8:1],,,,
{16}2,,2,,5,,4,,7h[16:3],,,8h[16:3],,,1,,
{8},2/7,2/7,,4b/8b,,1b/5b,,
{8}2h[4:1]/8h[4:1],,,3h[4:1]/4h[4:1],,,1h[4:1]/7h[4:1],,
{8},5h[4:1]/6h[4:1],,,1/8,,4/5,,
{8}8-6[8:1],,,2-4[8:1],,,7-5[8:1],,
{8},1-3[8:1],,,8,7,6,5,
{1}4h[1:1],
{1}6h[1:1],
{1}8h[1:1],
{1}7h[1:1],
{1}2h[1:1],
{1}1h[1:1],
{1}3h[1:1],
{1}4>5[2:1],
{4}3,3,4,4,
{4}5,5,6,5/7,
{4}6,6,5,5,
{4}4,4,3,2/4,
{4}3,2,1,7/8,
{4}6,7,8,1/2,
{4}3h[4:1],4h[4:1],5h[4:1],6,
{8}7,7,1,,2,2,8,,
{8}3h[8:3],,4,4,,2/5,2/5,,
{8}6h[8:3],,5,5,,4/7,4/7,,
{8}1h[8:3],,8,8,,2/7,2/7,,
{4}3/6,4/5,2^4[8:1]/7^5[8:1],,
{8}1,8,1,8,3,7,3,7,
{8}2,6,2,6,4,5,4,5,
{8}2,6,2,6,3,7,3,7,
{8}1/8,,,2/4,,,5/7,,
{8}1b/8b,,,,,,,4/5,
{16}3/4,,,1/6,,,4/5,,
{621}5/6,,,,,,,,,,,,,,,,,,,,,,,,,,,,,,,,,,,,,,,,,,,,,,,,,,,,,,,,,,,,,,,,,,,,,,,,,,,,,,,,,,,,,,,,,,,,,,,,,
{637}3/8,,,,,,,,,,,,,,,,,,,,,,,,,,,,,,,,,,,,,,,,,,,,,,,,,,,,,,,,,,,,,,,,,,,,,,,,,,,,,,,,,,,,,,,,,,,,,,,,,,,,,,,,,,,,,,,,,,,,,,,,,,,,,,,,,,,,,,,,,,,,,,,,,,,,,,,,,,,,,,,,,,,,,,,,,,,,,,,,,,,,,,,,,,,,,,,,,,,,,,,,,,,,,,,,,,,,,,,,,,,
{16}1,,8,,2,,7,,3h[16:3],,,4h[16:3],,,5,,
{8},7,8,7,,4/5,4/5,,
{16}1/8,,,,2,,1,,2,,,4/5,,,6h[4:1],,
{16},,8,,,,3,,3h[16:3],,,1,,,,,
{16}8,,1,,7,,2,,6h[16:3],,,5h[16:3],,,4,,
{8},2/7,2/7,,4qq2[8:1]/5pp7[8:1],,,,
{16}1/8,,,,3,,4,,2/5,,,3/8,,,5-2[8:1]/6-1[8:1],,
{8},,,3/4,3-8[8:1]/4-7[8:1],,,,
{16}6,,1,,8,,3,,5h[16:3],,,2h[16:3],,,1,,
{8},7,7,4,5,2,2,,
{16}1/8,,,,6,,5,,4/7,,,1/6,,,3-8[8:1]/4-7[8:1],,
{8},,,5/6,5-2[8:1]/6-1[8:1],,,,
{16}3,,8,,1,,6,,4h[16:3],,,7h[16:3],,,8,,
{8},2,2-6[8:1],,7b-3[8:1],,1b,,
{8}2h[8:3],,,4h[8:3],,,5h[8:3],,
{8},7h[8:3],,,1h[8:3],,,8h[8:3],
{8},,1,,3,4,5,6,
{8}1h[4:1]/7h[4:1],,,5h[4:1]/6h[4:1],,,2h[4:1]/8h[4:1],,
{8},3h[4:1]/4h[4:1],,,1^3[8:1]/8^6[8:1],,,,
{16}2h[8:3]/7h[8:3],,,,,,,,1/8,,,2/7,,,4b/5b,
E
&inote_5=(156.0){1},
{641},,,,,,,,,,,,,,,,,,,,
{8}3/4,,,5/6,,,
{617}2/4,,,,,,,,,,,,,,,,,,,,,,,,,,,,,,,,,,,,,,,,,,,,,,,,,,,,,,,,,,,,,,,,,,,,,,,,,,,,,,,,,,,,,,,,,,,,,,,,,,,,,,,,,,,,,,,,,,,,,,,,,,,,,,,,,,,,,,,
{621},,,,,,,,,,,,,,,,,,,,,,,,,,,,,,,,,,,,,,,,,,,,,,,,,,,,,,,,,,,,,,,,,,,,,,,,,,,,,,,,,,,,,,,,,,,,,,,,,
{8}5/7,,,3/6,,
{617}1/8,,,,,,,,,,,,,,,,,,,,,,,,,,,,,,,,,,,,,,,,,,,,,,,,,,,,,,,,,,,,,,,,,,,,,,,,,,,,,,,,,,,,,,,,,,,,,,,,,,,,,,,,,,,,,,,,,,,,,,,,,,,,,,,,,,,,,,,
{16}1,,8,,2/7,,,,1/8,,,1/8,,,1/8,,
{16}3,,4,,3,,,,6h[16:3],,,5,,,2/7,,
{16}6,,5,,6,,,,3h[16:3],,,4,,,2/7,,
{16}3,,4,,2,,,,7h[16:3],,,5,,,1/8,,
{16}6,,5,,7,,,,2h[16:3],,,4,,,1/8,,
{16}2,,4,,3,,,,4/5h[16:3],,,7,,,1/8,,
{16}7,,5,,6,,,,5/4h[16:3],,,2,,,1/8,,
{16}8,,1,,2/7,,,,1/8,,,1/8,,,1/8,,
{16}2/7,,3/6,,4,5,4,5,4,,,6/8,,,1/3,,
{16}7,,3,3,4,,6,,7/8,,,1/8,,,1/2,,
{16}3,,2/4,,3-8[8:1],,,5,,,5,,6,,1/7,,
{16}2,,6,6,5,,3,,6,,5,,4,,3,,
{16}2-5[8:1],,1,,2,,7-4[8:1],7,,,8,,8,,,,
{16}2,,6,6,5,,3,,1/2,,,1/8,,,7/8,,
{16}6,,5/7,,6-1[8:1],,,4,,,4,,3,,2/8,,
{16}7,,3,3,4,,6,,3,,4,,5,,6,,
{16}7-4[8:1],,8,,7,,2-5[8:1],2,,,1,,1,,,,
{16}6,,5/6,,3,,3/4,,5/7,,,2/4,,,1/8,,
{16}3/5,,4,5,4,,3/6,,2/4,,,5/7,,,2-5[8:1],,
{16},,2/7,,7-4[8:1],,,2,,,2,,4,,3/5,,
{16}4/6,,5,4,5,,3/6,,4/5,,2,,4/5,,7,,
{16}1-5[8:1],,2/8,,1,,8-4[8:1],8,,,1,,1,,,,
{1}4-7[4:1]/5-2[4:1],
{1}2pp5[2:1]/6pp1[2:1],
{1}3qq8[2:1]/7qq4[2:1],
{4}3,2,1b,,
{16}5/7-3[8:1],,,,7/8,,1,,2,,,4/8,,,2-5[8:1]/6-1[8:1],,
{16},,2/6,,,,4/7,,5/6,,,1/2,,,,,
{16}6/8,,7,,1/3,,2,,7/5h[16:3],,,3,,,6/2pp5[4:1],,
{8},7,8,1^6[8:1],,1,2,,
{16}4/2-6[8:1],,,,1/2,,8,,7,,,1/5,,,3-8[8:1]/7-4[8:1],,
{16},,3/7,,,,2/5,,3/4,,,7/8,,,,,
{16}1/3,,2,,6/8,,7,,2/4h[16:3],,,6,,,5/7,,
{8},2/7,1-5[8:1]/8-4[8:1],,1-6[8:1]/8-3[8:1],,1b/8b,,
{16}2h[16:3],,,4,3,,7h[16:3],,,5,6,,1h[16:3],,,4,
{16}3,,8h[16:3],,,5,6,,3/8,,,,1/6,,,,
{16}3,4,,6,5,,2,4,,7,5,,2,1,,7,
{16}8,,3,1,,6,8,,2/7,,1,8,2,7,3,6,
{1}4>5[2:1],
{8}2,3,4,5>1[4:1],,,,,
{8}7,6,5,4<8[4:1],,,,,
{8}2,3,4,5>1[8:1]*^8[8:1],,,,,
{8}5,3,1,7s3[4:1],,,,,
{8}4,6,8,2z6[4:1],,,,,
{8}7,6,5,4^1[8:1]*<8[8:1],,,,,
{8}6,5,4,3,,,2/7,,
{8},,,2h[4:1],,4h[4:1],,3,
{8}4,3,,7h[4:1],,5h[4:1],,6,
{8}5,6,,4h[4:1],,5h[4:1],,4,
{8}3/6,,,,4/5,,4/5,7,
{8}5,6h[4:1],,5h[4:1],,4,,,
{8}4,4h[4:1],,5h[4:1],,4,,2,
{8}4,3h[4:1],,4h[4:1],,5,,3/6,
{8}4,5,3/6,,4/5,,2/7,,
{8}1-4[8:1],,7-4[8:1],7,,2-5[8:1],2,,
{8}8-5[8:1],,2-5[8:1],2,,7-4[8:1],7,,
{8}1-4[8:1],,7-4[8:1],7,,2-5[8:1],2,,
{8}8w4[8:1],,,,2/4,,5/7,3/6,
{8}4/5,3,4/5,6,4/5,2,4/5,7,
{8}5/6,4,5/6,7,3/4,2,3/4,5,
{16}3/4,,1,,5/6,,8,,4/5,,2/7,,1,8,1,,
{16}3/4,3/4,,,,,5/6,5/6,,,,,4/5,4/5,,,
{8}2/7,,,,,,,1/6,
{16}2/4,,,7b/8b,,,3/8,,5/7,,,1b/2b,,,,,
{16}6,,5/6,,3,,3/4,,7/5h[16:3],,,3,,,4/2^5[8:1],,
{8},1/2,8,7^4[8:1],,7/8,1,,
{16}2/7,,,,3/5,,4/6,,3/8,,,1/6,,,1-4[8:1]/8-5[8:1],,
{16},,1/8,,,,3/6,,1/2,,,7/8,,,,,
{16}3,,2/4,,6,,5/7,,3/1h[16:3],,,7,,,6/8,,
{8},3/6,1-5[8:1]/2-6[8:1],,1^6[16:1]/2^5[16:1],,1b/2b,,
{16}1/5h[4:1],,,,3,4,3,,6,5,,3/8,,,1-6[8:1]/2-5[8:1],,
{16},,1/2,,,,3/4,,1/7-3[8:1],,,5,,,,,
{16}1-5[8:1],,1,,6-2[8:1],,6,,3,,,5,,,3/7qq4[4:1],,
{8},2,1,8^3[8:1],,8,7,,
{16}8/4h[4:1],,,,6,5,6,,3,4,,1/6,,,7-4[8:1]/8-3[8:1],,
{16},,7/8,,,,5/6,,8/2-6[8:1],,,4,,,,,
{16}8-4[8:1],,8,,3-7[8:1],,3,,6,,,4,,,3/8,,
{8},1/6,7-3[8:1]/8-4[8:1],,7^4[8:1]/8^3[8:1],,7b/8b,,
{16}2,2,,1,,,7,7,,8,,,1-5[8:1],1,,6,
{16},,8-4[8:1],8,,3,,,2-5[8:1],2,,6,,,7-4[8:1],7,
{16},3,,,1b,,,,1,8,2,7,1,8,3,6,
{16}4,
{611}4/5,,,,,,,,,,,,,,,,,,,,,,,,,,,,,,,,,,,,,,,,,,,,,,,,,,,,,,,,,,,,,,,,,,,,,,,,,,,,,,,,,,,,,,,,,,,,,,,,,,,,,,,,,,,,,,,,,,,,,,,,,,,,,,,,,,,,,,,,,,,,,,,,,,,,,,,,,,,,,,,,,,,,,,,,,,,,,,,,,,,,,,,,,,,,,,,,,,,,,,,,,,,,,,,,,,
{623}2/4,,,,,,,,,,,,,,,,,,,,,,,,,,,,,,,,,,,,,,,
{621}2/4,,,,,,,,,,,,,,,,,,,,,,,,,,,,,,,,,,,,,,,,,,,,,,,,,,,,,,,,,,,,,,,,,,,,,,,,,,,,,,,,,,,,,,,,,,,,,,,,,,,,,,,,,,,,,,,,,,,,,,,,,,,,,,,,,,,,,,,,,,,,,,,,,,,,,,,,,,,,,,,,,,,,,,,,,,,,,,,,,,,,,,,,,,,,,,,,,,
{623}5/7,,,,,,,,,,,,,,,,,,,,,,,,,,,,,,,,,,,,,,,
{621}5/7,,,,,,,,,,,,,,,,,,,,,,,,,,,,,,,,,,,,,,,,,,,,,,,,,,,,,,,,,,,,,,,,,,,,,,,,,,,,,,,,,,,,,,,,,,,,,,,,,
{621},,,,,,,,,,,,,,,,,,,,,,,,,,,,,,,,,,,,,,,,,,,,,,,,,,,,,,,,,,,,,,,,,,,,,,,,,,,,,,,,,,,,,,,,,,,,,,,,,
{623}3/6,,,,,,,,,,,,,,,,,,,,,,,,,,,,,,,,,,,,,,,
{621}3/6,,,,,,,,,,,,,,,,,,,,,,,,,,,,,,,,,,,,,,,,,,,,,,,,,,,,,,,,,,,,,,,,,,,,,,,,,,,,,,,,,,,,,,,,,,,,,,,,,,,,,,,,,,,,,,,,,,,,,,,,,,,,,,,,,,,,,,,,,,,,,,,,,,,,,,,,,,,,,,,,,,,,,,,,,,,,,,,,,,,,,,,,,,,,,,,,,,
{623}1/2,,,,,,,,,,,,,,,,,,,,,,,,,,,,,,,,,,,,,,,
{619}1/2,,,,,,,,,,,,,,,,,,,,,,,,,,,,,,,,,,,,,,,,,,,,,,,,,,,,,,,,,,,,,,,,,,,,,,,,,,,,,,,,,,,,,,,,,,,,,,,,,,,,,,,,,,,,,,,,,,,,
{623}7/8,,,,,,,,,,,,,,,,,,,,,,,,,,,,,,,,,,,,,,,
{621}7/8,,,,,,,,,,,,,,,,,,,,,,,,,,,,,,,,,,,,,,,,,,,,,,,,,,,,,,,,,,,,,,,,,,,,,,,,,,,,,,,,,,,,,,,,,,,,,,,,,
{16}4/5,,3/6,,2/7,,1/8,,2/4,,,5/7,,,
{8}1>8[8:15]/8<1[8:15],{1},,,
E
