&title=brilliant better
&artist=御形 アリシアナ(CV:福原 綾香)
&wholebpm=172
&demo_seek=59.8
&demo_len=24.3
&lv_1=3
&lv_2=5
&lv_3=7
&lv_4=11+
&lv_5=13
&des_4=Jack
&des_5=ロシェ@ペンギン
&inote_1=(172.0){1},,,,,
{1}1,
{1}2,
{1}3,
{1}4,
{1}5,
{1}6,
{1}7,
{1}8,
{1}8,
{1}7,
{1}6,
{1}5,
{1}4,
{1}3,
{1}2,
{1}1,
{1}1-4[4:3],,
{1}8-5[4:3],,
{1}1-4[4:3],,
{1}8-5[16:13],,
{1}3,
{1}2,
{1}1h[1:1],,
{1}2h[1:1],,
{1}3h[1:1],,
{1}4h[1:1],,
{1}5h[1:1],,
{1}6h[1:1],,
{2}7,7,
{1}7,
{2}8,8,
{1}8,
{2}1,1,
{1}1,
{2}2,2,
{1}2,
{2}3,3,
{1}3,
{2}4,4,
{1}4,
{2}5,5,
{1}5,
{2}6,6,
{1}6,
{1}4/5,
{1}5,
{1}4-8[4:5],,
{4},,,1/8,
{4},,,1,
{4},1,,1b,
{4},,,8,
{4},8,,8,
{4},,,7,
{4},7,,7,
{4},,,6,
{4},6,,6,
{4},,,5,
{4},5,,5,
{4},,,4-1[4:3],{1},
{4},,,8-5[4:3],{1},
{4},,,4-1[4:3],{1},
{4},,,8-5[4:3],{1},
{4},,,4,
{4},,,3,
{4},,,2,
{4},,,1,
{4},,,8,
{4},8,,8,
{4},,,7,
{4},7,,7b,
{4},,,8,
{4},8,,7,
{4},7,,6,
{4},6,,5,
{4},,,4,
{4},4,,3,
{4},3,,2,
{4},2,,1,
{4},1,,1/8,
E
&inote_2=(172.0){1},,,,,
{4}4,4,4,,
{4}3,3,3,,
{4}2,2,2,,
{1}1h[2:1],
{1}8-4[4:3],,
{1}1-5[4:3],,
{2}6,6,
{2}6,6,
{2}5,5,
{2}5,5,
{2}4,4,
{2}4,4,
{2}3,3,
{2}3/4,3b/4b,
{4}2,2,2,,
{4}2,2,2,,
{4}1,1,1,,
{4}1,1,1,,
{4}8,8,8,,
{4}8,8,8,,
{1}7h[1:1]/8h[1:1],,
{1}1h[1:1]/2h[1:1],,
{4}1,1,1,,
{4}2,2,2,,
{1}2-6[4:3],,
{2}8,8,
{4}7,7,7,,
{2}6,6,
{4}5,5,5,,
{1}4h[1:1]/5h[1:1],
{2},4/5,
{2}4,4,
{4}5,5,5b,,
{4}6,6,6,,
{4}7,7,7/8,,
{4}8,8,8,,
{4}1,8,1,,
{2}2,2,
{2}3,3,
{4}4,4,4,,
{4}5,4,4b/5b,,
{4}3,3,3,,
{4}2,2,1/2,,
{4}1,1,1,,
{4}8,1,8,,
{2}7,7,
{2}6,6,
{4}5,5,4,4,
{4}5,4,5,,
{1}4b/5b,
{1}4/5,
{2}4,5h[4:3],
{4},,,4,
{4},4,,3,
{4},3,,2,
{4}2,2,,1,
{4}1,1,,8,
{4}8,1,1,8,
{4}1,8,,7h[2:1],
{4},,,6h[2:1],
{4},,,5,
{4}5,4,4,5,
{4}4,5,,3h[1:1]/6h[1:1],{1},
{4},4/5,,5,
{4},5,,6,
{4}6,6,,7-3[4:3],{1},
{4},,,1,
{4},1,,2,
{4},2,,3,
{4}3,3,,4,
{4}5,4b/5b,,5,
{4},5,,6,
{4},6,,7,
{4},7,,8,
{4},8,,1-5[4:3],{1},
{4},,,8-4[4:3],{1},
{4},,,1,
{4}1,1,,2,
{4}2,1/2,,3,
{4}3,3,,4,
{4}5,4,,5,
{4}5,5,5,6,
{4}6,5/6,,4,
{4}4,4,4,3,
{4}3,3/4,,
{1}4-1[4:3]/5-8[4:3],,
E
&inote_3=(172.0){1},
{4}4,3,3/4,,
{4}5,6,5/6,,
{4}3,4,6,5,
{4}4,5,3/6,,
{4}5,6,5/6,,
{4}4,3,3/4,,
{4}6,5,3,4,
{4}5,4,3/6,,
{4}3,3,2/4,,
{4}6,6,5/7,,
{4}4,5,4/5,4qq2[2:1]/5pp7[2:1],{1},
{4}1,2,3/4,,
{4}8,7,5/6,,
{4}4,4,5,5,
{4}4,5,3/6,,
{4}8,7,5/6,,
{4}1,2,3/4,,
{4}5,5,4,4,
{4}5,4,3/6,,
{4}4,3,1/2,,
{4}5,6,7/8,,
{4}1,1,8,8,
{4}1,8,2/7,,
{4}5,6,7/8,,
{4}4,3,1/2,,
{4}8,8,1,1,
{4}8,1,2/7,,
{4}5,5,4,4,
{4}5,4,3b/6b,,
{2}6h[2:1],5,
{2}3h[2:1],4,
{2}7h[2:1],6,
{2}2h[2:1],3,
{2}7h[2:1],8,
{2}2h[2:1],1,
{2}6h[2:1],7,
{2}3h[2:1],2,
{4}3/4,3^8[2:1]/4p7[2:1],,,
{2},1/6,
{4}5/6,5q2[2:1]/6^1[2:1],,,
{2},3/8,
{4}3,3/4,6,5/6,
{4}3,2/4,2/4,,
{4}6,5/6,3,3/4,
{4}6,5/7,5/7,,
{4}2,1,2,3/8,
{4}7,8,7,1/6,
{4}1,8,2,7,
{4}1/8,1/8,3b/6b,,
{4}2,1/2,7,7/8,
{4}2,1/3,1/3,,
{4}7,7/8,2,1/2,
{4}7,6/8,6/8,,
{4}1,2,3,4,
{4}5/6,7/8,1/6,,
{4}4,5,3,6,
{4}4/5,4/5,
{2}2>8[4:5],{1},
{2},8z4[4:3],{1},
{1}4>5[4:5],,
{1}5-1[2:1],
{4},1s5[4:3],,,
{4},,,3,
{4}4,3,2/5,5,
{4}6,4/7,,6,
{4}5,6,4/7,4,
{4}3,2/5,,2,
{4}1,2,3/8,8,
{4}7,1/6,,7,
{4}8,7,1/6,1,
{4}2,3/8,,6,
{4}5/6,7,7/8,2,
{4}1/2,3/8,,3,
{4}3/4,2,1/2,7,
{4}7/8,1/6,,7,
{4}7/8,6,5/6,3,
{4}3/4,2/5,,2,
{4}1/2,3,3/4,6,
{4}5/6,4b/7b,,6h[2:1],
{4},5,,3h[2:1],
{4},4,,7h[2:1],
{4},6,,2h[2:1],
{4},3,,3,
{4}3/4,2/5,,6,
{4}5/6,4/7,,4/6,
{4}3/7,2/8,1-5[4:1],,
{4},3/7,,3,
{4}2/4,6,5/7,4,
{4}5,2/7,,2,
{4}1/3,7,6/8,1,
{4}8,3/6,,2,
{4}3,4,5,6,
{4}7,3/8,,7,
{4}6,5,4,3,
{4}2,1/8,2/7,3,
{4}4,5,
{2}6p3[4:5],{1},,
E
&inote_4=(172.0){1},
{4}3,4,5,6,
{4}7,6,5,4,
{4}2,4,5,7,
{4}5/6,4/5,3/4,2/7,
{8}3,3,4,,6,6,5,,
{8}3,3,4,,6,6,5,,
{8}2,2,4,,7,7,5,,
{8}3,3,5,5,4,4,6,,
{8}7,7,5,,2,2,4,,
{8}7,7,4,4,5,5,2,,
{2}6-2[8:1],3-7[8:1],
{4}1/8,2/7,3/6,1b/8b,
{8}2h[4:1],,3,3h[4:1],,4,4,,
{8}7h[4:1],,6,6h[4:1],,5,5,,
{8}3/7,,1/5,,3/8,,6,5,
{8}6,,3/4,,1/7,,3,4,
{8}3,,6,5,6,,2,4,
{8}3,,7,5,6,,1/8,,
{4}3/4,7,5/6,2,
{4}3/4,6/5-1[8:1],,8b,
{8}2/6,,7,5,6h[4:1],,8,,
{8}3/7,,2,4,3h[4:1],,1,,
{8}2/6,,4/8,,1/6,,3,4,
{8}3,,5/6,,2/8,,6,5,
{8}7,,3,4,2,,8,1,
{8}8-4[8:1],,,,3h[4:1],,4<3[4:3],4,{1},
{4}3/4,5/6,2/4,5/7,
{8}1/8,,3,4,2/5,,6,5,
{4}4/7,2/5,3/7,1/5,
{4}2h[4:1],1,7h[4:1],6,
{4}3h[4:1],4h[4:1],5,1/6,
{2}7^4[8:1],2q6[8:1],
{8}8p4[8:1],,1,1,,,2/7,,
{4}3,4,3,2/5,
{4}6,5,6,4/7,
{4}2,1,2,3/8,
{4}7,8,7,1/6,
{4}3/8,7,2,6,
{8}3h[2:1],,,,5h[4:1],,4q5[2:1],4,
{8},,,,,,,4/5,
{8},1/8,1^3[8:1]/8^6[8:1],,,,1b/8b,,
{8}2-5[8:1],,,,6,5,6,4/7,
{8},5,5-2[8:1]*-8[8:1],,,,1,,
{8}7-4[8:1],,,,3,4,3,2/5,
{8},4,4-1[8:1]*-7[8:1],,,,8,,
{8}6h[4:1],,5,6,,4/7,4/7,,
{8}3h[4:1],,4,3,,2/5,2/5,,
{8}3/4,,1/8,,5/6,,1/8,1/8,
{8},2/7,2^4[8:1]/7^5[8:1],,,,1b/8b,,
{8}2-6[8:1],2,,,7,8,7,1/6,
{8},5,5-2[8:1]*-8[8:1],,,,1,,
{8}7-3[8:1],7,,,2,1,2,3/8,
{8},4,4-1[8:1]*-7[8:1],,,,8,,
{8}3h[4:1],,4,3,7h[4:1],,6,7,
{8}1h[4:1],,8,1,8-4[8:1],,1,,
{4}2/3,4/5,6/7,1/8,
{16}2h[16:3],,,3h[16:3],,,4,,7h[16:3],,,6h[16:3],,,5,,
{1}5<4[2:3],,
{4}4,3/4,5,5/6,
{8}7p2[8:3],,,,,,,3h[8:3],
{8},,4h[8:3],,,5h[8:3],,,
{8}6h[8:3],,,5,,4/5,4/5,,
{4}2,4/5,7,3/6,
{8}2/7,,1,1,8,8,1-5[8:1],,
{8}6,,7,7,5,,8-4[8:1],,
{8}3,,2,2,4,,3h[4:1],,
{8}4,3,7h[4:1],,6,7,1h[4:1],,
{8}8,1,8^5[8:1],,,,4,4,
{8}6,6,2,2,4,,5,5,
{8}3,3,7,7,5,,3h[4:1]/4h[4:1],,
{8},3/4,,5^2[16:3]/6^1[16:3],,,,,
{8}3,3,4,4,5/6,,7h[4:1],,
{4}8,2h[4:1],3,6h[4:1],
{4}5h[4:1],4,3/8,2^5[8:1],
{4},7p3[8:1],,1q5[8:1],
{8}8,8,,,2/7,,1/8,,
{4}2,7,3,6h[2:1],
{8},,4h[4:1],,5p4[2:1],5,,,
{8},,,,,2/7,,4/5,
{4}4-2[8:1]/5-7[8:1],,1b/8b,2,
{8}3,,4,,5,5,,4,
{4}4,3/6,,7,
{8}6,,5,,4,4,,5,
{4}5,3/6,,3h[4:1],
{8}4,3,,2/5,2/5,,6h[4:1],,
{8}5,6,,4/7,4/7,,1/2,,
{8}4/5,,7/8,,4/5,4/5,,1/8,
{8}1^4[8:1]/8^5[8:1],,,,1b/8b,,7-4[8:1]/8-3[8:1],7/8,
{8},,2,5,4,7,,3/4,
{8}3-8[8:1]/4-7[8:1],,,,1/6,,1-6[8:1]/2-5[8:1],1/2,
{8},,7,4,5,2,,5/6,
{4}5-2[8:1]/6-1[8:1],,3/8,6h[4:1],
{8}5,6,2h[4:1],,3,2,8h[4:1],,
{8}1,8,1-5[8:1],,8,,6/7,,
{16}4/5,,,,2/3,,,,1/8,,,,7h[16:3],,,6h[16:3],
{16},,5,,2h[16:3],,,3h[16:3],,,4,,4,,5,,
{8}4,3/6,,1/8,1/8,1pp4[8:9]/8qq5[8:9],,,{1},,
E
&inote_5=(172.0){1},
{8}2h[8:7],,3,3,4,4,5,5h[8:9],
{8},6,6,7,7,8,8,1,
{8}1h[8:7],,6,6,5,5,4,4-8[8:1],
{8},4/2-6[8:1],,2/8,8w4[8:1],,8b,,
{8}2,1,3,8,4,4V28[8:1]*p8[8:1],,4,
{8},7,6,5,4^7[8:1],3,2,1,
{8}7,8,6,1,5,5V71[8:1]*q1[8:1],,5,
{8},2,3,4,5^2[8:1],6,7,8,
{8}7-3[8:1],,1,1-5[8:1],,6-2[8:1],,4h[8:5],
{8},1,8,7,6,5,4,,
{8}3-7[8:1],,8,8-4[8:1],,1,2,3,
{16}4/5,,4/5,,3/6,,3/6,,2,7,2,7,1,8,1,,
{8}7h[8:3],,6,6,,1/8,2/7,,
{8}2h[8:3],,3,3,,2/7,8/1>8[2:1],,
{8},,,,,,1/8,2/7,
{8},5,4,5,,3/6,3/6,,
{8}2-5[8:1],5,2,,7-4[8:1],4,7,,
{8}3-8[8:1],4,3,,6-1[8:1],5,6,,
{4}3-8[8:1],5-8[8:1],4-8[8:1],,
{8}8,1/7,2/6,3/5,4w8[8:1],,4b,,
{8}1,8>4[4:1],7,6,,8,6/7,,
{8}8,1<5[4:1],2,3,,1,2/3,,
{8}4^1[4:1]*^7[4:1],,,,,8,1/7,2/6,
{16}3,4,3,,6,5,6,,2,,7,,8/1-5[8:1],,,,
{8}1/6-2[8:1],,6/4^1[8:1],,8,7,6-2[8:1],,
{8}6/1-5[8:1],,1/8^5[8:1],,4,,3/4,2/5,
{8}6h[2:1]/1-3[8:1],,1-5[8:1],,1,,7,7h[8:5],
{8},1,2,3,4,,1/8,,
{8}3h[2:1]/8-6[8:1],,8-4[8:1],,8,,2,2h[8:5],
{8},8,7,6,5-2[8:1]*-8[8:1],,5,,
{8}1,1,7,7,4-8[8:1],4,7,6,
{8}5,5,3,3,8-4[8:1],8,3,2,
{2}1w5[8:1],5w1[8:1],
{8}3V14[4:1]/7V58[4:1],,,,,3/7,2/6,,
{2}2-5[8:1]/5-1[8:1],4-8[8:1]/7-4[8:1],
{8}8,1/7,2/6,3v1[8:1]/5v7[8:1],,,,,
{2}4-8[8:1]/7-4[8:1],2-5[8:1]/5-1[8:1],
{8}1,2/8,3/7,4v2[8:1]/6v8[8:1],,,,,
{4}7-2[4:1],2-5[4:1],5-8[4:1],8<4[8:3]*>4[8:3],
{8},,,,4,5,4,5,
{16}3,,6,5,6,,3,4,2,,6,5,7,,1/8,,
{8},5/7,2/4,1/8,4-1[8:1]/5-8[8:1],,4b/5b,,
{8}3^8[8:1]/7^4[8:1],,3/7,,4/8,1/5,2/6,3/7v4[4:1],
{8},4<3[8:3],3,2,1,,,,
{8}4,5,7/8,7/8,5,4,1/2,1/2q5[8:3],
{8},1,8,7,6-1[8:1]*-2[8:1],,,,
{8}1/2h[8:3],,4,4<8[8:1],,1,1,,
{8}8/7h[8:3],,5,5>1[8:1],,8,8V64[4:1],,
{8}4V28[4:1],,8V64[4:1],,4-8[8:1],,2,2-6[8:1],
{8},7-3[8:1],,1,1w5[8:1],,1b,,
{8}7/8,6/1-5[8:1],,1,8,7,6,5-1[8:1],
{8},3,3>6[4:1],,,,,,
{8}1-5[8:1],8,7,6,5^8[8:1],4,3,2-6[8:1],
{8},5,5qq1[4:1],,,,,,
{4}4-1[8:1],6-1[8:1],5-1[8:1],1>5[4:1],
{2}5^8[16:3],1b,
{4}5/2-5[8:1],2/7-4[8:1],7/1-5[8:1],,
{16}7b-3[8:1],,,1,,,1,,2b-6[8:1],,,8,,,8,,
{8}7^2[8:1],,4,4^1[8:1],,6,6^3[8:1],,
{8}1,1^4[8:1],,,8h[8:1],6h[8:1],4h[8:1],2h[8:1],
{8}8-6[8:1],1-5[8:1],8-4[8:1],1>8[2:1],8,1,,,
{16},,,,1b,,,2b/8b,,,3b-8[8:1]/7b-4[8:1],,,,,,
{8},,1h[4:1]/5h[4:1],,,2h[4:1]/6h[4:1],,,
{8}3h[4:3]/7<1[8:3],,,,,,8,8,
{16}1/7,,1/7,,2/6,,2/6,,3/5,,3/5,,4b,5,4,5,
{16}3b,6,3,6,4b,5,3,6,2b,7,1,8,1b,2,3,4,
{16}1,8,7,6,1,2,3,4,1,8,7,6,3,4,5,6,
{16}7,8,1,2,6,5,4,3,2,1,8,7,4^1[8:1],,,,
{8}8,7,6^1[8:1],,2,3,4>8[4:1],,
{16}8z4[4:1],,7,,6,,,,,,,,8b,7,6,5,
{16}8,1,2,3,8,7,6,5,8,1,2,3,6,5,4,3,
{16}2,1,8,7,3,4,5,6,7,8,1,2,5b,,,,
{8}2/8,2b/8b,,4^1[8:1]*^7[8:1],,4b,,8-6[8:1],
{8}1-5[8:1],8-4[8:1],1-3[8:1],8,1,,5/3-6[8:1],6,
{8}7,8,1/7-2[8:1],2,3,4,3/5-8[8:1],2,
{8}1s5[4:1],1,,,,,4w8[8:1],,
{4},8w4[8:1],,2V41[4:1]/6V85[4:1],
{8},,,2/6,3/7,,3/6^3[8:1],,
{4}6/2-5[8:1],2/7-4[8:1],7/1s5[4:1],,
{16},,,,5w1[8:1],,,,,,,,6,,3,4,
{16}3,,6,5,7,,3,4,2,,1/8,,,,2/4,,
{8}5/7,1/8,4-1[8:1]/5-8[8:1],,4b/5b,,1v4[2:1]/8v5[2:1],,
{4},,,4qq1[2:1]/5pp8[2:1],
{4},,,1^3[8:1],
{4}5^7[8:1],8^2[8:1],,8^6[8:1],
{8}4^2[8:1],,1^7[8:1],,,,4/5,3,
{8}4/5,6,4/5,3,4/5,6,4/5,2,
{8}4/5,7,4/5,2,4/5,7,5/4qq2[8:1],,
{8}5pp7[8:1],,3qq1[8:1],,6,6V84[4:1],,3,
{8}3,,2-5[8:1]*-6[8:1],,2b,,2/7,3/6,
{8}1/8,,8,7,6,5q4[4:1],,3,
{8}3>6[4:1],,,,,,8-4[8:1],1,
{8}2,3,4^1[8:1],5,6,7,,3/6,
{4}4-1[8:1]/5-8[8:1],4/5,,3-6[8:1],
{4}7-2[8:1],1-4[8:1],5-8[8:1],4p1[4:1],
{4},8b,,5/2-5[8:1],
{16}2/7-4[8:1],,,,7/1w5[8:1],,,,,,,,3b^8[8:1],,,4,
{16},,5,,6b^1[8:1],,,5,,,4,,3b,,2/4,,
{8}1/5,6b/8b,,5b/6b,4/7,
{4}3bp1[1:1]/8b<2[1:1],{1},,
E
