&title=Invitation
&artist=れるりり feat.ろん
&wholebpm=147
&demo_seek=60.6
&demo_len=15.7
&lv_1=2
&lv_2=4
&lv_3=7+
&lv_4=9+
&lv_5=13
&des_4=rioN
&des_5=某S氏
&inote_1=(147.0){1},,,,,,
{1}8,
{1}8,
{1}1,
{1}1,
{1}2,
{1}2,
{1}3,
{1}3,
{1}4,
{1}4,
{1}5,
{1}5,
{1}6,
{1}6,
{1}7,
{1}7,
{1}8,
{1}8,
{1}7,
{1}7,
{1}6,
{1}6,
{1}5,
{1}5,
{1}4h[1:1],,
{1}3h[1:1],,
{1}2h[1:1],,
{1}1,
{1}1b,
{2}8,8,
{1}8,
{2}7,7,
{1}7,
{2}8,8,
{1}8,
{2}1,1,
{1}1,
{1}1/8,,
{1}1/8,,
{2}1,1,
{1}1,
{2}2,2,
{1}2,
{2}3,3,
{1}3,
{2}4,4,
{1}4,
{1}5b,
{1}5,
{1}6-3[4:3],,
{1}2-7[4:3],,
{1}8,
{1}1b,
{2}8,8,
{2}8,8,
{2},7,
{2}7,7,
{2},6,
{2}6,6,
{2},5,
{2}5,5,
{2},4,
{2}4,4,
{2},3,
{2}3,3,
{2},2,
{2}2,2,
{2},1,
{2}1,1,
{2},1/8,
{2},1/8,
{2},
{1}2-6[4:3],,
E
&inote_2=(147.0){1},,
{2}1,1,
{1}1,
{2}8,8,
{1}8,
{2}2,2,
{1}1/2,
{2}7,7,
{1}7/8,
{2}1,1,
{2}2,2,
{4}3,3,3,,
{1}4h[2:1],
{2}5,5,
{2}6,6,
{4}7,7,8,8,
{1}1h[2:1],
{1}8-4[4:3],,
{1}1-5[4:3],,
{2}8,8,
{2}7,7,
{4}6,6,6,,
{1}5h[2:1],
{2}4,4,
{2}3,3,
{4}2,2,1,1,
{1}8h[2:1],
{1}1-4[4:3],,
{2}5,6,
{4}7,7,7,,
{1}8-5[4:3],,
{2}4,3,
{4}2,2,2b,,
{4}1,1,1,,
{4}8,8,8,,
{4}2,2,2,,
{4}7,7,7,,
{4}6,6,6,,
{4}5,5,5,,
{4}4,4,4,,
{4}3,3,3,,
{1}2-5[4:3],,
{1}7-4[4:3],,
{1}1h[2:1],
{4}1,1,1,,
{4}2,2,3,3,
{1}4h[2:1],
{2}5,5,
{4}6,6,6,,
{2}7,7,
{4}8,8,1/8,,
{1}1-4[4:3],,
{2}5,6,
{4}7,7,7,,
{1}8-5[4:3],,
{2}4,3,
{4}2,2,2b,,
{4},,1,1,
{2}1,2h[2:1],
{4},,3,3,
{4}4,4,5,5,
{4}4/5,,5,5,
{2}5,6h[2:1],
{4},,7,7,
{4}8,8,1,1,
{4}1b/8b,,8,8,
{4}7,7,6h[2:1],,
{4},,6,6,
{4}5,5,4,4,
{4}4/5,,4,4,
{4}3,3,2h[2:1],,
{4},,2,2,
{4}1,1,8,8,
{2}1b/8b,1-5[4:3],{1},
{2},4h[8:7],
{8}5h[8:3],,,,
E
&inote_3=(147.0){1},,
{4}5,5,4,4,
{4}5,5,4,4,
{4}6,5,3,4,
{4}6,5,3,4,
{4}5,5,6,5,
{4}4,4,3,4,
{4}5,5,6,7,
{4}4,4,3,2,
{1}1-6[8:3],
{4}4,4,3,3/4,
{4}5,5,6,5/6,
{4}4,3,2,1,
{1}8-3[8:3],
{4}5,5,6,5/6,
{4}4,4,3,3/4,
{4}5,6,7,8>5[4:3],{1},
{4}3,4,3,2/5,
{4}3,6,4,5,
{4}6,5,6,4/7,
{2}8-6[16:3],1-3[16:3],
{4}5,4,6,5/7,
{4}4,3,5,6,
{4}4,5,3,2/4,
{2}1-3[16:3],8-6[16:3],
{4}4,5,3,2/4,
{4}5,6,4,3,
{4}5,4,6,5/7,
{4}8,7/8,1,1/2,
{4}8,1,2/7,,
{4}2,3,4,5/6,
{4}7,6,5,3/4,
{4}2,1/2,7,7/8,
{4}1,8,2/7,,
{2}3h[2:1],4h[2:1],
{4}5h[2:1],,6,1b/8b,
{8}2,,1/2,,8,8,1,,
{8}7,,7/8,,1,1,8,,
{4}3,2/4,6,5/7,
{4}4,3^6[4:1],,,
{8}7,,7/8,,1,1,8,,
{8}2,,1/2,,8,8,1,,
{4}6,5/7,3,2/4,
{4}6,5/7,4,3>6[4:3],{1},
{4}5,4/5,,3/4,
{4},4/5,,5/6,
{4}4,3,2,1,
{1}8<4[2:1],
{4}3,4,5,6,
{4}7,6,5,3/4,
{4}2,3,4,5/6,
{4}7,7/8,2,1/2,
{2}8^6[16:3],1^3[16:3],
{4}6,5,6,4/7,
{4}3,4,3,2/5,
{4}1,1/2,8,7/8,
{4}1,8,2/7,,
{4}7,6,5,3/4,
{4}2,3,4,5/6,
{4}7,7/8,2,1/2,
{4}8,1,2/7,,
{2}6h[2:1],5h[2:1],
{4}4h[2:1],,3,1b^4[4:1]/8b^5[4:1],
{4},,7,7/8,
{8}1,1,8,,2,,1/2,,
{8}8,8,1,,6,,5/7,,
{4}3,2/4,5,6^3[4:1],
{4},,2,1/2,
{8}8,8,1,,7,,7/8,,
{8}1,1,8,,3,,2/5,,
{4}6,4/7,2,3/8,
{4}7,1/6,2,1/2,
{8}8,8,1b,,7,,7/8,,
{8}1,1,8b,,3,,2/4,,
{4}6,5/7,4,3p6[16:5],
{4},,8,7/8,
{8}1,1,8,,1,,1/2,,
{8}8,8,1,,5/6,,4/7,,
{4}3/4,2/5,4/5,2/7,
{4}1/8,3/6<3[4:3],,,
{4},,4,5,
{4}3/6,2/7,4h[4:1]/5h[4:1],,
{2}4qq3[4:1]/5pp6[4:1],,
E
&inote_4=(147.0){1},,
{4}3,4,6,5,
{4}2,4,7,5,
{4}1,3,8,6,
{4}2/4,5/7,4/5,2/7,
{4}3,3/4,6,5/6,
{4}3,2/4,6,5/7,
{4}3/4,2/5,5/6,4/7,
{4}1/6,3/8,4/5,2/7,
{4}1/8,1b-4[8:1]/8b-5[8:1],,,
{4}3,5/7,6,2/4,
{8}6/8,,1/3,,4/5,,1/8,1/8,
{8},3/8,,1/6,,4/5,4/5,,
{4}1/8,1b-5[8:1]/8b-4[8:1],,,
{4}6,2/4,3,5/7,
{8}1/3,,6/8,,4/5,,2/7,2/7,
{8},1/7,,2/8,,1,8,2>8[8:5]/7<1[8:5],{1},
{4}2,1/3,7,6/8,
{4}3/4,2/5,5/6,4/7,
{4}1/8,2/7,3/6,4/5,
{2}4/3-8[8:1],5/6-1[8:1],
{4}2,4/6,7,3/5,
{8}1,,5/7,,6,,3,3h[4:1],
{8},1,,6/8,,4/5,4/5,,
{2}5/6-1[8:1],4/3-8[8:1],
{4}7,3/5,2,4/6,
{8}8,,2/4,,3,,6,6h[4:1],
{8},8,,1/3,,5,4,5,
{4}3/6,1-6[8:1]/2-5[8:1],,,
{16}7h[16:3],,,5h[16:3],,,6,,,,3,,3,,,,
{4}7h[4:1],6h[4:1],5h[4:1],4,
{4}1h[4:1],2h[4:1],3p6[4:1]*^8[4:1],,
{4},7-4[8:1]/8-3[8:1],,,
{16}2h[16:3],,,4h[16:3],,,3,,,,6,,6,,,,
{4}2h[4:1],1h[4:1],8h[4:1],7,
{4}1/3,6/8,4/5,2b/7b,
{8}3,3,4,4,3,5,4,6<2[4:1],
{8},,,,,3,3,2/4,
{8},6,6,5/7,,2,2,1/3,
{8},7,7,6/8,,3/6,3/6,,
{8}5/7,,2/4,,6,4,5,3>7[4:1],
{8},,,,,6,6,5/7,
{8},3,3,2/4,,7,7,6/8,
{8},2,2,1/3,,1/8,1/8,,
{8}3/4,,4/7,,6,5,,3/6,
{8},3,4,,1/3,,6/8,,
{8}5/6,,2/5,,3,4,,3/6,
{8},6,5,,6/8,,1/3,,
{1}1pp4[2:1]/8qq5[2:1],
{4}2-5[8:1],7-4[8:1],1-6[8:1],8,
{4}7-4[8:1],2-5[8:1],8-3[8:1],1,
{8}4/5,,2/7,,1,8,1,,
{8}7,7,4,4,5,5,2,2,
{8}8,8,1/7,,1,1,2/8,,
{8}2,2,5,5,4,4,7,7,
{8}3,3,2/4,,6,6,5/7,,
{4}4/5,7-3[8:1]/8-4[8:1],,,
{16}2h[16:3],,,3h[16:3],,,4,,,,6,,6,,,,
{4}2h[4:1],4h[4:1],6h[4:1],8,
{4}7h[4:1],5h[4:1],3h[4:1],1,
{4}4/5,1-5[8:1]/2-6[8:1],,,
{16}7h[16:3],,,6h[16:3],,,5,,,,3,,3,,,,
{4}5h[4:1],3h[4:1],1h[4:1],7,
{4}6/8,1/3,4/5,2b/7b,
{8}1/8,1/8,1/8,,6,6,5,5,
{8}7,5,6,4-1[8:1]*-7[8:1],,,,,
{8},8,8,1/7,,1,1,2/8,
{8},7,7,6/8,,2,2,1/3,
{8},4/5,3/6,,2h[4:1]/8-4[8:1],,,,
{8}2,4,3,5-2[8:1]*-8[8:1],,,,,
{8},1,1,2/8,,8,8,1/7,
{8},3,3,2/4,,6,6,5/7,
{8},4/5,3/6,,3,4,2,5,
{8}3,3,5,5w1[8:1],,,,,
{8},1/2,1/2,3/8,,7/8,7/8,1/6,
{8},3/4,3/4,2/5,,1/8,1/8,3/6,
{8},1/8,2/7,,6h[4:1]/1-5[8:1],,,,
{8}6,6,4,4w8[8:1],,,,,
{8},7/8,7/8,1/6,,1/2,1/2,3/8,
{8},5/6,5/6,4/7,,1/8,1/8,3/6,
{8},4/5,3/6,7/2>7[4:1],,,,,
{8}8,8,,3/6,,1,1,,
{8}7,8,7,,2,1,2,,
{16}3/6,,3/6,,4,5,4,5b,
E
&inote_5=(147.0){1},,
{8}4,,4/5,,4,5,4,3/5,
{8},5,3,6,4/5,,3/6,,
{8}5,,4/5,,5,4,5,4/6,
{8},4,6,3,4/5,,3/6,,
{8}3,4,3/5,4,3,1/2,8,1/7,
{8},8,1,7,2,,1/8,,
{8}6,5,4/6,5,6,7/8,1,2/8,
{8},8,1,7,2,,1b/8b,,
{8}2V84[4:1],,4V26[4:1],,,,,7,
{8}8,7,6/8,7,2,1,2/8,1,
{8}1/2,2,2/4,4,4/5,5,5/7,7-3[8:1],
{8},1,,,1,8,2/7,,
{8}6V84[4:1],,4V62[4:1],,,,,3,
{8}4,3,2/4,3,6,5,4/6,5,
{8}5/6,6,6/8,8,1/8,1,1/3,3-7[8:1],
{8},6,,8-4[8:1],,1,2,3,
{8}4/6,5,2/4,3,2,1/3,8,1/7,
{8},6,5,6,7/4-8[8:1],,2,,
{8}3/5,4,5/7,6,7,6/8,1,2/8,
{8},3,4,3,2/5-1[8:1],,7,,
{4}8w4[8:1],8,1w5[8:1],1,
{8}7,8,1/7,8,2,1,2/8,1,
{8}2,4/5,7,4/5,1/2,3/4,5/6,7-3[8:1]/8-4[8:1],
{8},7/8,,,1,7,3/5,,
{4}4w8[8:1],4,5w1[8:1],5,
{8}3,4,3/5,4,6,5,4/6,5,
{8}6,1/8,3,1/8,5/6,7/8,1/2,4/3-7[8:1],
{8},6-2[8:1],,1-5[8:1],,8,7,6h[8:3],
{8},,5-1[8:1],,5/8-4[8:1],,8,2,
{16}1/3,,,2/6,,,4/8,,,,8,,7,,6,,
{8}2/5,3,4/7,6,1/5,2,3/8,7,
{4}1/6-1[8:1],3-8[8:1],5pp7[8:1],4qq2[8:1],
{8},,8^5[8:1],,8/1^4[8:1],,1,7,
{16}6/8,,,3/7,,,1/5,,,,1,,2,,3,,
{8}4/6,3/7,8,1/3,4/8,5,6/8,,
{8}4/5h[2:1],6,3,7,1-5[8:1],,1b/8b,,
{8}4/8,7,2/6,3,5/6,4/7,3/8,2/1pp6[8:3],
{8},3h[8:3],,,,5,4,5/2h[4:1],
{8},4,5,3/6h[4:1],,7,8,7/1h[4:1],
{8},3,4,2V41[16:3]/6V85[16:3],,2/6,,,
{8}1/5,2,3/7,6,3/4,2/5,1/6,7/8qq3[8:3],
{8},6h[8:3],,,,4,5,4/7h[4:1],
{8},5,4,6/3h[4:1],,2,1,2/8h[4:1],
{8},6,5,7/3h[4:1],,2,1,8,
{8}4/5h[8:7],,6,,4,3,4,3,
{8},4,6,5,3,,1/8,,
{8}5/4h[8:7],,3,,5,6,5,6,
{8},5,3,4,6,,1/8,,
{16}4pp1[2:1],5,4,5,4,,,,,,,,,,7,8,
{16}7,,2,1,2,,6,5,6,,3,4,2,5,3,,
{16}7,8,7,8,6,1,6,1,5,2,5,2,4,3,4,3h[16:5],
{16},,,,6,5,6,5,7,4,7,4,8,3,8,3,
{16}8,7,6,1,2,3,8,7,6,1,2,3,8,1,8,,
{16}7/8,,1/6,,4,5,4,,1/2,,3/8,,5,4,5,,
{16}2,1,3,8,4,7,5,6,4,7,3,8,2,,,,
{16}1,2,3,4,8,7,6,5,1,2,3,4,
{639}8,,,,,,,,,,,,,,,,,,,,
{641}7,,,,,,,,,,,,,,,,,,,,
{639}6,,,,,,,,,,,,,,,,,,,,
{641}5,,,,,,,,,,,,,,,,,,,,4,,,,,,,,,,,,,,,,,,,,
{639}3,,,,,,,,,,,,,,,,,,,,2,,,,,,,,,,,,,,,,,,,,
{641}1,,,,,,,,,,,,,,,,,,,,
{8}4/8b,,3/1-5[8:1],,1/4-8[8:1],,4,6,
{16}5/7,,,2/6,,,4/8,,,,4,,3,,2,,
{8}1/5,6,3/8,2,1/6,7,4/8,3,
{8}5/2-5[8:1],2,7-4[8:1],7,1pp3[8:1],1,8qq6[8:1],8,
{8},,4^1[8:1],,4/5^8[8:1],,5,3,
{16}2/4,,,3/7,,,1/5,,,,5,,6,,7,,
{8}4/8,3/7,2/6,1/5,4/8,3/7,2/6,,
{8}5/4h[2:1],3,6,2,8-4[8:1],,1b/8b,,
{16}2,7,2,7,1,8,1,8,1/7,,1,,2/8,,8,,
{8}3/7,2/6,1/5,4pp7[8:3]/8pp3[8:3],,4/8,,,
{8},4,3/5,6/2h[4:1],,5,4/6,3/7h[4:1],
{8},2,1/3,8/4h[4:1],,7,6/8,1V36[16:3]/5V72[16:3],
{8},1/5,,,2/8,8,1/7,1,
{8}2/6,3/7,4/8,1qq6[8:3]/5qq2[8:3],,1/5,,,
{8},5,4/6,3/7h[4:1],,4,3/5,6/2h[4:1],
{8},7,6/8,1/5h[4:1],,2,1/3,4/8^5[8:1],
{8},3,2,1,2b/8b,1b/3b,2b/4b,3b/5b,
{8}4b/6b,5b/7b,6b/8b,1bV38[16:3]/7bV58[16:3],,1b/7b,,,
{8},2-6[8:1],1/3,2,,8-4[8:1],1/7,8,
{8},3-7[8:1],2/4,3,,5-8[8:1],4/6,5-2[8:1],
{8},5,,,1/7,6/8,5/7,4/6,
{8}3/5,2/4,1/3,2V41[16:3]/8V61[16:3],,2/8,,,
{8},7-3[8:1]/8-4[8:1],1/6,7/8,,1-5[8:1]/2-6[8:1],3/8,1/2,
{8},3-7[8:1]/4-8[8:1],2/5,3/4,,5-1[8:1]/6-2[8:1],4/7,5/6,
{8},3qq5[8:7]/6pp4[8:7],4/5,3/6,,,,,
{16},,,,,,,,1,8,1,8,2,7,2,7,
{16}3,6,3,6,
{983}4,,,,,,,,,,,,,,,,,,,,,,,,,,,,,,,,,,,,,,,,,
{625}5,,,,,,,,,,,,,,,,,,,,,,,,,,
{983}4,,,,,,,,,,,,,,,,,,,,,,,,,,,,,,,,,,,,,,,,,5,,,,,,,,,,,,,,,,,,,,,,,,,,,,,,,,,,,,,,,,,
{625}4,,,,,,,,,,,,,,,,,,,,,,,,,,
{983}5,,,,,,,,,,,,,,,,,,,,,,,,,,,,,,,,,,,,,,,,,
{8}4,6,
{16}3,5,4,,
{16}6,7,8^5[8:1],,1,2,3,4,,
E
