&title=Hyper Active
&artist=HiTECH NINJA
&wholebpm=160
&demo_seek=14.46
&demo_len=12.74
&lv_1=4
&lv_2=6
&lv_3=9
&lv_4=13
&lv_5=13+
&des_4=Jack
&des_5=ぴちネコ
&inote_1=(160.0){1},,
{2}1,1,
{1}1,
{2}2,2,
{1}2,
{1}3h[1:1],,
{1}4h[1:1],,
{2}5,5,
{2}6,6,
{2}7,7,
{1}1/8,
{2}1,1,
{2}2,2,
{2}3,3,
{1}4/5,
{4}5,5,5,,
{2}5,5,
{4}6,6,6,,
{2}6,6,
{4}7,7,7,,
{2}7,7,
{4}8,8,8,,
{2}8,8b,
{4}1,1,1,,
{2}1,1,
{4}2,2,2,,
{2}2,2,
{4}3,3,3,,
{2}3,3,
{4}4,4,4,,
{2}4,4,
{1}5-8[1:1],,,
{1}4-1[1:1],,,
{2}1,1,
{2}2,2,
{2}3,3,
{2}4,4,
{2}5,5,
{2}6,6,
{1}7h[1:1],,
{1}8h[1:1],,
{1}1h[1:1],,
{1}2h[1:1],,
{1}3-6[4:3],,
{1}7-2[4:3],,
{1}3-6[4:3],,
{1}7-2[4:3],,
{1}1b,,
{4}8,8,8,,
{4}7,7,7,,
{4}6,6,6,,
{4}5,5,5,,
{4}4,4,4,,
{4}3,3,3,,
{4}2,2,2,,
{4}1,1,1b,,
{4}1,1,1,,
{4}2,2,2,,
{4}3,3,3,,
{4}4,4,4,,
{4}5,5,5,,
{4}6,6,6,,
{4}7,7,7,,
{4}8,8,8,,
{1}8h[2:1],
{4}7,7,7,,
{1}6h[2:1],
{4}5,5,5,,
{1}4h[2:1],
{4}3,3,3,,
{1}2h[2:1],
{4}1,1,1,,
{1}8b,
E
&inote_2=(160.0){1},,
{1}1h[2:1],
{4}2,2,2,,
{1}3h[2:1],
{4}4,4,4,,
{1}4-1[4:3]/5-8[4:3],,
{1}2h[4:3]/7h[4:3],
{4}1,8,1,1b/8b,
{2}7/8,7/8,
{2}5/6,5/6,
{2}3/4,3/4,
{4}1h[2:1]/2h[2:1],,,1/8,
{4}2,2,2,,
{4}4,4,4,,
{4}6,6,6,,
{4}8,8,8,,
{2}7h[4:1],7h[4:1],
{2}6h[4:1],6h[4:1],
{2}5h[4:1],5h[4:1],
{4}4,4,5,5,
{2}4h[4:1],4h[4:1],
{2}3h[4:1],3h[4:1],
{2}2h[4:1],2h[4:1],
{1}1h[4:3]/8h[4:3],
{4}1,1,2,2,
{4}3,3,4/5,4/5,
{4}5,5,6,6,
{4}7,7,1/8,,
{4}8,8,7,7,
{4}6,6,4/5,4/5,
{4}4,4,3,3,
{4}2,2,1/8,,
{1}1-6[2:1],
{2},7-4[2:1],{1},
{1}2-5[2:1],
{2},8-3[2:1],{1},
{4}4/5,3,,3,
{4},2,,2,
{4},1,,1,
{4},8,,8,
{4},7,,7,
{4},6,,6,
{4}4,4,4/5,,
{4}6,6,5/6,,
{4}3,3,3/4,,
{4}5,4,3/6,,
{4}3,3,2,,
{4}7,7,8,,
{4}1,1,8,8,
{4}1,8,2/7,,
{1}1-5[4:3],,
{1}8-4[4:3],,
{1}3-8[4:3],,
{1}6-1[4:3],,
{1}1h[2:3]/8h[2:3],
{4},,,1b/8b,
{4}1,1,2,2,
{4}3,3,4,4/5,
{4}5,5,6,6,
{4}7,7,8,1/8,
{4}8,8,7,7,
{4}6,6,5,4/5,
{4}4,4,3,3,
{4}2h[2:1],,,1b/2b,
{4}1,2,3,4,
{4}5,6,7,8,
{4}1,2,3,4,
{4}5,6,7,1/8,
{4}8,7,6,5,
{4}4,3,2,1,
{4}8,7,6,5,
{1}4h[4:3]/5h[4:3],
{4}4/5,4/5,3/4,3/4,
{4}4/5,4/5,5/6,5/6,
{4}4/5,4/5,3/5,3/5,
{4}4/5,4/5,4/6,4/6,
{4}4/5,3/5,4/5,3/5,
{4}4/5,4/6,4/5,4/6,
{4}5,5/6,4,3/4,
{4}4,5/6,5,3/4,
{1}2-6[4:3],,
E
&inote_3=(160.0){1},,
{4}1,2,3,4,
{4}5,6,7,1/8,
{4}8,7,6,5,
{4}4,3,1/2,,
{4}7h[4:3],,8,8,
{4}2h[4:3],,1,1s5[4:3],{1},
{4}4h[4:1]/5h[4:1],,,2b/7b,
{4}2,1,2,1/2,
{4}7,8,7,7/8,
{2}1-4[4:1],8-5[4:1],
{4}1,8,1,2/7,
{4}3,4,3,3/4,
{4}6,5,6,5/6,
{2}4-1[4:1],5-8[4:1],
{4}4,5,3b/6b,3b/6b,
{4}1,2,3/8,3/8,
{4}3,4,2/5,2/5,
{4}8,7,1/6,1/6,
{4}6,5,4/7,4/7,
{4}5,6,4/7,4/7,
{4}7,8,1/6,1/6,
{4}4,3/5,5,4/6,
{4}3/4,2/5,7/8,,
{4}3,3/4,6,5/6,
{4}2,3/4,7,5/6,
{4}2,4/5,7,4/5,
{4}4-1[4:1]/5-8[4:1],,,1/8,
{4}7,5/6,2,3/4,
{4}7,4/5,2,4/5,
{4}3/6,2/7,1/8,1pp4[4:3]/8qq5[4:3],{1},
{8}3h[8:3],,,4h[8:3],,,5h[8:3],,
{8},6,,,6h[8:3],,,5h[8:3],
{8},,4h[8:3],,,3,,,
{8}2h[8:3],,,1h[8:3],,,8h[8:3],,
{8},7,,,7h[8:3],,,8h[8:3],
{8},,1h[8:3],,,2,,,
{4}3/8,7,6,4/5,
{4}3,2,1/6,7/8,
{4}1/6,2,3,4/5,
{4}6,7,3/8,4/7,
{4}5,4/6,4,3/5,
{4}4/5,4/5,2/7,,
{4}2h[4:1],1,7h[4:1],8,
{4}2h[4:1],1,7h[4:1],8,
{4}3h[4:1],4,6h[4:1],5,
{4}3h[4:1],4,6h[4:1],5,
{4}2h[4:1],3,7h[4:1],6,
{4}2h[4:1],3,7h[4:1],6,
{4}3h[4:1],2,6h[4:1],7,
{4}3h[4:1],2,6h[4:1],7pp2[1:1],{1},
{4},,3/4,4/3pp6[1:1],{1},
{4},,7/8,7/8,
{4}1/8,1/8,2/7,2/7,
{4}3/6,3/6,4/5,4/5,
{4}3/6,3/6,2/7,2/7,
{8}1/8,,1/8,,1,8,1,8,
{1}1w5[4:5],
{4},,,2b/7b,
{4}3,3/4,6,5/6,
{4}2,3/4,7,5/6,
{4}1,3/4,8,5/6,
{4}8,3/4,1,5/6,
{4}6,5/6,3,3/4,
{4}7,5/6,2,3/4,
{4}8,5/6,1,3/4,
{8}1,8,1,,2/7,,,,
{4}2,1/3,7,6/8,
{4}3,1/3,6,6/8,
{4}4,1/3,5,6/8,
{4}5,1/3,4,6/8,
{4}7,6/8,2,1/3,
{4}6,6/8,3,1/3,
{4}5,6/8,4,1/3,
{8}8,1,8,,3/6,,3/6,,
{8}2,1,2,,3/8,,3/8,,
{8}7,8,7,,1/6,,1/6,,
{8}2,1,2,,3/8,,3/8,,
{4}1/8,1/8,3/6,,
{8}3,4,2/5,,6,5,4/7,,
{8}3,4,2/5,,6,5,4/7,,
{8}3,4,3,,6,5,6,,
{8}4,5,4,5,4,5,4,,
{1}4>5[4:15],,,,,
E
&inote_4=(160.0){1},,
{4}2-4[8:1],8-6[8:1],1-5[8:1],7,
{8}6,6,5/7,,3,3,2/4,,
{4}7-5[8:1],1-3[8:1],8-4[8:1],2,
{8}3,3,2/4,,6,6,5/7,,
{16}4h[16:3],,,5h[16:3],,,2,,2h[4:1],,,,4,,,,
{16}5h[16:3],,,4h[16:3],,,7,,7h[4:1],,,,5,,,,
{8}1,1,7,7,3,3,5,5,
{4}4q5[4:1],,,2b/7b,
{16}2h[16:3],,,3h[16:3],,,4,,7h[16:3],,,6h[16:3],,,5,,
{16}1h[16:3],,,2h[16:3],,,3,,8h[16:3],,,7h[16:3],,,6,,
{2}5-2[8:1]/6-1[8:1],3-8[8:1]/4-7[8:1],
{16}6h[16:3],,,5h[16:3],,,4,,4w8[8:1],,,,,,,,
{16}2h[16:3],,,3h[16:3],,,4h[16:3],,,5h[16:3],,,6,,,,
{16}7h[16:3],,,6h[16:3],,,5h[16:3],,,4h[16:3],,,3,,4,,
{4}5-2[8:1],3-7[8:1],6-1[8:1],2>7[8:3],
{2},1-4[8:1]/8-5[8:1],
{16}3,,4,3h[16:3],,,7,,6,,5,6h[16:3],,,2,,
{16}3,,4,3h[16:3],,,8,,6,,5,6h[16:3],,,1,,
{16}3,,4,3h[16:3],,,1,,6,,5,6h[16:3],,,8,,
{16}3,,4,3h[16:3],,,1,,6,,5,,4,,3,,
{16}2,,8,2h[16:3],,,5,,7,,1,7h[16:3],,,4,,
{16}2,,1,2h[16:3],,,6,,7,,8,7h[16:3],,,3,,
{8}2-6[8:1],2,1,,7-4[8:1],8-3[8:1],,,
{16}5h[16:3],,,4,,,3/6,,3/6,,2/7,,1b/8b,,,,
{16}1/2,,3h[16:3],4h[8:1],,,3/4,,5/6,,7h[16:3],8h[8:1],,,7/8,,
{16}1/2,,3h[16:3],4h[8:1],,,3/4,,5/6,,7h[16:3],8h[8:1],,,7/8,,
{16}1/2,,3h[16:3],4h[8:1],,,3/4,,5/6,,7h[16:3],8h[8:1],,,7/8,,
{8}1/2,3,4/5,6,3/7,8,1s5[4:1],,
{16},,,,8b,,,,3/4,,2h[16:3],1h[8:1],,,1/2,,
{16}7/8,,6h[16:3],5h[8:1],,,5/6,,3/4,,2h[16:3],1h[8:1],,,1/2,,
{16}7/8,,6h[16:3],5h[8:1],,,5/6,,3/4,,2h[16:3],1h[8:1],,,1/2,,
{16}7/8,,,2/3,,,5q4[4:1]/6<3[4:1],,,,,,,,,,
{8}4h[4:1],,3,3h[4:1],,2,2,1,
{8}3,7,8,6,5h[4:1],,6,6h[4:1],
{8},7,7,8,6,2,1,3,
{8}8h[4:1],,7,7h[4:1],,6,6,5,
{8}7,3,4,2,1h[4:1],,2,2h[4:1],
{8},3,3,4,2,6,5,7,
{8}8,1,2/7h[4:1],,3,4,5/2h[8:3],,
{8},1-6[8:1],,2-5[8:1],,1-6[8:1],,2,
{8}1,8,7/2h[4:1],,6,5,4/7h[4:1],,
{8}3,4,5/2h[4:1],,1,8,2/7h[8:3],,
{8},8-3[8:1],,7-4[8:1],,8-3[8:1],,7,
{8}8,1,2/7,,4-2[8:1]/5-7[8:1],4/5,,,
{8}1h[4:1],,3,,2,1,2/8,,
{2}1h[4:1]/8-3[8:1],1h[4:1]/2-5[8:1],
{8}8h[4:1],,6,,7,8,1/7,,
{2}8h[4:1]/1-6[8:1],8h[4:1]/7-4[8:1],
{8}3h[4:1],,2,,3,4,2/5,,
{2}4h[4:1]/5-1[8:1],4h[4:1]/3-7[8:1],
{8}6h[4:1],,7,,6,5,4/7,,
{2}5h[4:1]/4-8[8:1],5h[4:1]/6-2[8:1],
{1}3h[1:1],
{1}4h[1:1],
{1}5h[1:1],
{4}6h[2:1],,5,4/5,
{8}3h[8:3],4,4,4,6h[8:3],5,5,5,
{8}2h[8:3],4,4,4,7h[8:3],5,5,5,
{8}3h[8:1],4,6h[8:1],5,2h[8:1],4,7h[8:1],5,
{8}2h[8:1],3,7h[8:1],6,2h[8:1],1,7h[8:1],8,
{1}1b>8[8:5],
{4}1-4[8:1],1-6[8:1],1-5[8:1],1b,
{8}7h[8:1],8,2h[8:1],1,2/8,7,4/6,,
{8}2h[8:1],1,7h[8:1],8,1/7,2,3/5,,
{8}6h[8:1],5,3h[8:1],4,3/5,6,1/7,,
{8}7h[8:1],8,2h[8:1],1,6h[8:1],8,3h[8:1],1,
{8}6h[8:1],5,3h[8:1],4,3/5,6,1/7,,
{8}3h[8:1],4,6h[8:1],5,4/6,3,2/8,,
{8}7h[8:1],8,2h[8:1],1,2/8,7,4/6,,
{16}1/2,,,6/7,,,3/4,,3-8[8:1]/4-7[8:1],,,,,,,,
{8}2h[8:1],1,7h[8:1],8,1/7,1/2,2/4,,
{8}7h[8:1],8,2h[8:1],1,2/8,7/8,5/7,,
{8}3h[8:1],4,6h[8:1],5,4/6,3/4,1/3,,
{8}3h[8:1],1,6h[8:1],8,4h[8:1],2,5h[8:1],7,
{8}3h[8:1],4,6h[8:1],5,4/6,3/4,1/3,,
{8}6h[8:1],5,3h[8:1],4,3/5,5/6,6/8,,
{8}2h[8:1],1,7h[8:1],8,1/7,1/2,2/4,,
{16}7/8,,,2/3,,,5/6,,,3/4,,,1b/8b,,,,
{16}7/8,,6h[16:3],5h[8:1],,,4/7,,3,,2h[16:3],1h[8:1],,,3/8,,
{16}7,,6h[16:3],5h[8:1],,,4/7,,3,,2h[16:3],1h[8:1],,,3/8,,
{16}7,,6h[16:3],5h[8:1],,,4/7,,3,,2h[16:3],1h[8:1],,,3/8,,
{8}7,6,4/5,3,2/6,1,8z4[4:1],,
{16},,,,1b,,,,5/6,,7h[16:3],8h[8:1],,,1/6,,
{16}2,,3h[16:3],4h[8:1],,,2/5,,6,,7h[16:3],8h[8:1],,,1/6,,
{4}2-8[8:1],6-1[8:1],3-7[8:1],5-1[8:1],
{4}4-8[8:1],,1b/6b-2[8:1],3bpp7[1:2],
{1}8b,,,
E
&inote_5=(160.0){1},,
{16}7/8-4[8:1],,,,8,1,,1,,,6/8,,2,1,3,8,
{16}4,,5/6,,2,4,2,,4-8[8:1]/5-7[8:1],,3/6,,4/5,,,,
{16}2/1-5[8:1],,,,1,8,,8,,,1/3,,7,8,6,1,
{16}5,,3/4,,7,5,7,,4-2[8:1]/5-1[8:1],,3/6,,4/5,,,,
{16}6/8h[16:3],,,7h[16:3],,,6h[16:3],,,5h[16:3],,,4h[4:1],,,,
{16}1h[16:3],,,2h[16:3],,,3>6[4:1],,,,,,,,,,
{641}1,,,,,,,,,,,,,,,,,,,,
{639}2,,,,,,,,,,,,,,,,,,,,3,,,,,,,,,,,,,,,,,,,,
{641}4,,,,,,,,,,,,,,,,,,,,5,,,,,,,,,,,,,,,,,,,,
{639}6,,,,,,,,,,,,,,,,,,,,7,,,,,,,,,,,,,,,,,,,,
{641}8,,,,,,,,,,,,,,,,,,,,1,,,,,,,,,,,,,,,,,,,,
{639}2,,,,,,,,,,,,,,,,,,,,3,,,,,,,,,,,,,,,,,,,,
{641}4,,,,,,,,,,,,,,,,,,,,5,,,,,,,,,,,,,,,,,,,,
{639}6,,,,,,,,,,,,,,,,,,,,7,,,,,,,,,,,,,,,,,,,,
{641}8,,,,,,,,,,,,,,,,,,,,1,,,,,,,,,,,,,,,,,,,,
{639}2,,,,,,,,,,,,,,,,,,,,3,,,,,,,,,,,,,,,,,,,,
{641}4,,,,,,,,,,,,,,,,,,,,5,,,,,,,,,,,,,,,,,,,,
{639}6,,,,,,,,,,,,,,,,,,,,7,,,,,,,,,,,,,,,,,,,,
{641}8,,,,,,,,,,,,,,,,,,,,1,,,,,,,,,,,,,,,,,,,,
{639}2,,,,,,,,,,,,,,,,,,,,3,,,,,,,,,,,,,,,,,,,,
{641}4,,,,,,,,,,,,,,,,,,,,5,,,,,,,,,,,,,,,,,,,,
{639}6,,,,,,,,,,,,,,,,,,,,7,,,,,,,,,,,,,,,,,,,,
{641}8,,,,,,,,,,,,,,,,,,,,
{4}1b/5b,,3-8[8:1]/7-4[8:1],3/7,
{16}2/6,,7,8,,6,2,,3/7,,2,1,,3,7,,
{16}1/6,,7,8,,5,1,,3/8,,2,1,,4,8,,
{16}1-5[5000:469]/6-8[5000:469],,,1/6,,,,,3-1[5000:469]/8-4[5000:469],,,3/8,,,,,
{16}1/6,,7,8,,5,1,,3w7[8:1],,,,3b,,,,
{16}1/2,,2,3,,3,4,,4,5,,5,6,,7/8,,
{16}7,,7,6,,6,5,,5,4,,4,3,,1/2,,
{8}2q6[8:1],2,7p3[8:1],7,1q5[8:1],1,8p4[8:1],8,
{8}3,
{983}3,,,,,,,,,,,,,,,,,,,,,,,,,,,,,,,,,,,,,,,,,
{625}2,,,,,,,,,,,,,,,,,,,,,,,,,,
{983}1,,,,,,,,,,,,,,,,,,,,,,,,,,,,,,,,,,,,,,,,,
{16}7,1,7,1,8w4[8:1],,,,8b,,,,
{16}2,1,2-5[8:1],1h[16:3],,,,,7,8,7-4[8:1],8h[16:3],,,,,
{16}2,8,2-6[8:1],8h[16:3],,,,,7,1,7-3[8:1],1h[16:3],,,,,
{16}2,8,1-5[8:1],7h[16:3],,,,,7,1,8-4[8:1],2h[16:3],,,,,
{16}2,8,1-5[8:1],7h[16:3],,,,,7,1,8,2,6,4,5,3,
{16}7,1,6-2[8:1],8h[16:3],,,,,1,8,3-7[8:1],1h[16:3],,,,,
{16}8,1,6-1[8:1],8h[16:3],,,,,2,8,3-8[8:1],1h[16:3],,,,,
{16}7,1,7,1,8b,,,,3,5,3,5,2/4,,2/4,,
{16}8,,1/3,1/3,,4/8,,5-1[8:1]/7-3[8:1],,,,,,,,,
{16}6-8[8:1],,8-4[8:1],8,,,2,,3-1[8:1],,1-5[8:1],1,,,7,,
{16}6-8[8:1],,8-4[8:1],8,,,2,,3-1[8:1],,1-5[8:1],1,,,7,,
{16}6-1[8:1],,1-5[8:1],1,,,4,,3-8[8:1],,8-4[8:1],8,,,5,,
{16}6-1[8:1],,1-5[8:1],1,,,4,,2,4,3,5,4,6,5,7h[16:3],
{16},,
{983}8,,,,,,,,,,,,,,,,,,,,,,,,,,,,,,,,,,,,,,,,,
{625}1,,,,,,,,,,,,,,,,,,,,,,,,,,
{983}2,,,,,,,,,,,,,,,,,,,,,,,,,,,,,,,,,,,,,,,,,
{8}3b/6b,,3^8[8:1],
{16}8-4[8:1],8,,,5,,
{16}6^1[8:1],,1-5[8:1],1,,,4,,3^8[8:1],,8-4[8:1],8,,,5,,
{16}7,6,5,4h[16:3],,,2,3,4,5h[16:3],,,7,6,5,4,
{16}3,2,1,8<1[16:5],,,,,,,,,,,,,
{16}4b/8^5[8:1],,,,
{983}4,,,,,,,,,,,,,,,,,,,,,,,,,,,,,,,,,,,,,,,,,
{625}3,,,,,,,,,,,,,,,,,,,,,,,,,,
{983}2,,,,,,,,,,,,,,,,,,,,,,,,,,,,,,,,,,,,,,,,,
{8}1,,5,2/6,7,
{8}8,1/5,2,3,8b/4^1[8:1],,
{983}8,,,,,,,,,,,,,,,,,,,,,,,,,,,,,,,,,,,,,,,,,
{625}7,,,,,,,,,,,,,,,,,,,,,,,,,,
{983}6,,,,,,,,,,,,,,,,,,,,,,,,,,,,,,,,,,,,,,,,,
{8}5,
{8},1,4/8,7,6,1/5,4,3,
{8}6b/2^7[8:1],,
{983}6,,,,,,,,,,,,,,,,,,,,,,,,,,,,,,,,,,,,,,,,,
{625}5,,,,,,,,,,,,,,,,,,,,,,,,,,
{983}4,,,,,,,,,,,,,,,,,,,,,,,,,,,,,,,,,,,,,,,,,
{8}3,,7,4/8,1,
{8}2,3/7,4,5,2b/6^3[8:1],,
{983}2,,,,,,,,,,,,,,,,,,,,,,,,,,,,,,,,,,,,,,,,,
{625}1,,,,,,,,,,,,,,,,,,,,,,,,,,
{983}8,,,,,,,,,,,,,,,,,,,,,,,,,,,,,,,,,,,,,,,,,
{8}7,
{8},3,2/6,1,8,3/7,6,5,
{16}4/6,,7,8,7,,3/8,,2,1,2,,1/6^3[8:1],,7,,
{16}8,,1^6[8:1],,2,,3,,4,,2,1,2,,1/6,,
{16}7,8,7,,8/3^6[8:1],,2,,1,,8^3[8:1],,7,,6,,
{16}5,,7,8,6,,3/8,,2,1,3,,6/1^6[8:1],,2,,
{16}3,,4^1[8:1],,5,,6,,7,,2,8,4,,1/6,,
{16}7,1,5,,3/8,,1/6,,3-6[8:1]/7-2[8:1],,3/7,,,,,,
{16}4b/8b,,2,1,,1,,2/8,,,7/8,,1/6,,2,4,
{8}2,1/3,2/8-5[8:1],8-3[8:1],8-4[8:1],,,,
{16}1/5,,7,8,,8,,1/7,,,1/2,,3/8,,7,5,
{8}7,6/8,7/1-4[8:1],1-6[8:1],1-5[8:1],,,,
{16}3/7,,3,4,,7/8,,1/6,,,2/4,,5/7,,3,4,
{8}3,5/6,7/8-4[8:1],1-5[8:1],8^3[8:1],1,8,,
{16}2/6,,6,5,,1/2,,3/8,,,2/4,,5/7,,6,5,
{8}6,3/4,2/1-5[8:1],8-4[8:1],1^6[8:1],8,1,,
{16}3/1h[16:3],,,2h[16:3],,,3h[16:3],,,4h[16:3],,,5h[4:1],,,,
{16}8h[16:3],,,7h[16:3],,,6h[16:3],,,5h[16:3],,,4h[4:1],,,,
{16}1h[16:3],,,3h[16:3],,,4h[16:3],,,5h[16:3],,,7h[4:1],,,,
{16}8h[16:3],,,6h[16:3],,,5h[16:3],,,4h[16:3],,,2,,,,
{8}1/8,1,1/2,2,2/3,3,3/4,4,
{8}4/5,5,5/6,6,6/7,7,7/8,8,
{16}1,1,2,2,3,3,4,4,5,5,6,6,7,7,8,8,
{639}1,,,,,,,,,,,,,,,,,,,,
{641}2,,,,,,,,,,,,,,,,,,,,
{639}3,,,,,,,,,,,,,,,,,,,,
{641}4,,,,,,,,,,,,,,,,,,,,
{639}5,,,,,,,,,,,,,,,,,,,,
{641}6,,,,,,,,,,,,,,,,,,,,
{639}7,,,,,,,,,,,,,,,,,,,,
{641}8,,,,,,,,,,,,,,,,,,,,
{639}1,,,,,,,,,,,,,,,,,,,,
{641}2,,,,,,,,,,,,,,,,,,,,
{639}3,,,,,,,,,,,,,,,,,,,,
{641}4,,,,,,,,,,,,,,,,,,,,
{639}5,,,,,,,,,,,,,,,,,,,,
{641}6,,,,,,,,,,,,,,,,,,,,
{639}7,,,,,,,,,,,,,,,,,,,,
{641}8,,,,,,,,,,,,,,,,,,,,
{639}1,,,,,,,,,,,,,,,,,,,,
{641}2,,,,,,,,,,,,,,,,,,,,
{639}3,,,,,,,,,,,,,,,,,,,,
{641}4,,,,,,,,,,,,,,,,,,,,
{639}5,,,,,,,,,,,,,,,,,,,,
{641}6,,,,,,,,,,,,,,,,,,,,
{639}7,,,,,,,,,,,,,,,,,,,,
{641}8,,,,,,,,,,,,,,,,,,,,
{639}1,,,,,,,,,,,,,,,,,,,,
{641}2,,,,,,,,,,,,,,,,,,,,
{639}3,,,,,,,,,,,,,,,,,,,,
{641}4,,,,,,,,,,,,,,,,,,,,
{639}5,,,,,,,,,,,,,,,,,,,,
{641}6,,,,,,,,,,,,,,,,,,,,
{639}7,,,,,,,,,,,,,,,,,,,,
{641}8,,,,,,,,,,,,,,,,,,,,
{1}1bq3[8:5]/5bq7[8:5],
{16}1,,4,6,3,7,2,8,
{639}1w5[8:1],,,,,,,,,,,,,,,,,,,,
{641}2,,,,,,,,,,,,,,,,,,,,
{639}3,,,,,,,,,,,,,,,,,,,,
{641}4,,,,,,,,,,,,,,,,,,,,
{639}5,,,,,,,,,,,,,,,,,,,,
{641}6,,,,,,,,,,,,,,,,,,,,
{639}7,,,,,,,,,,,,,,,,,,,,
{641}8,,,,,,,,,,,,,,,,,,,,
{8}1b,,
{16}2/8,,1,7,2,6,3,5,4-8[8:1],,6,6,,7,7,,
{16}1/7,,8,2,7,3,6,4,5-1[8:1],,3,3,,2,2,,
{16}5/6,,5,7,4,6,3,5,2-6[8:1],,6,6,,7,7,,
{16}3/4,,4,2,5,3,6,4,7-3[8:1],,3,3,,2,2,,
{16}1/2,,4,6,3,7,2,8,1-5[8:1],,7,7,,6,6,,
{16}4/6,,5,3,6,2,7,1,8-4[8:1],,2,2,,3,3,,
{16}7/8,,8,6,1,7,2,8,3-7[8:1],,7,7,,6,6,,
{16}6h[8:1]/8h[8:1],,,1h[8:1]/3h[8:1],,,4h[8:1]/5h[8:1],,,2b/7b,,8,1,7,2,6,
{16}3/7,,8,8,4,4,7,7,3,,3/5,3/5,,7,8,1,
{16}2/6,,1,1,5,5,2,2,6,,4/6,4/6,,2,1,8,
{16}3/7,,8,8,2,2,3,3,4-8[8:1],,1,1,,5,5,,
{16}2/6,,1,1,7,7,6,6,5-1[8:1],,8,8,,4,4,,
{16}2/8,,8,7,6,5,4,,1/7,,1,2,3,4,5,,
{16}2/8,,1/2,3/8,4/7,,1/8,2/7,3/6,,7/8,1/6,2/5,,1/8,2/7,
{16}3/6,,3/6,,2/7,,2/7,,1/8,,1/8,,1,8,1,8,
{16}1-5[16:1],,,8-4[16:1],,,2-6[5000:469],,,7-3[16:1],,,1b,,,,
{16}7,8,7^4[8:1],8h[16:3],,,,,2,1,2^5[8:1],1h[16:3],,,,,
{16}7,1,7^4[8:1],1h[16:3],,,,,2,8,2^5[8:1],8h[16:3],,,,,
{16}7,1,8^5[8:1],2h[16:3],,,,,2,8,1^4[8:1],7h[16:3],,,,,
{16}7,1,8^5[8:1],2h[16:3],,,,,2,8,1,7,3,5,4,6,
{16}2,8,3^8[8:1],1h[16:3],,,,,7,1,6^1[8:1],8h[16:3],,,,,
{16}2,8,3^8[8:1],1h[16:3],,,,,7,1,6^1[8:1],8h[16:3],,,,,
{16}2,3,4,5h[16:3],,,7,6,5,4h[16:3],,,2,3,4,5,
{16}6,7,8,1,
{983}7b,,,,,,,,,,,,,,,,,,,,,,,,,,,,,,,,,,,,,,,,,
{625}6,,,,,,,,,,,,,,,,,,,,,,,,,,
{983}5,,,,,,,,,,,,,,,,,,,,,,,,,,,,,,,,,,,,,,,,,1b,,,,,,,,,,,,,,,,,,,,,,,,,,,,,,,,,,,,,,,,,
{625}2,,,,,,,,,,,,,,,,,,,,,,,,,,
{983}3,,,,,,,,,,,,,,,,,,,,,,,,,,,,,,,,,,,,,,,,,
{16}8w4[8:1],8,,,8b,,,,
{16}8/1h[16:3],,,7h[16:3],,,5h[16:3],,,4h[16:3],,,2h[4:1],,,,
{16}1h[16:3],,,3h[16:3],,,5h[16:3],,,7h[16:3],,,8h[4:1],,,,
{16}1h[16:3],,,7h[16:3],,,6h[16:3],,,4h[16:3],,,3h[4:1],,,,
{16}1h[16:3],,,2h[16:3],,,4h[16:3],,,6h[16:3],,,8,
E
