&title=ECHO
&artist=CIRCRUSH
&wholebpm=140
&demo_seek=35.4
&demo_len=28.5
&lv_1=2
&lv_2=4
&lv_3=7+
&lv_4=11
&lv_5=13
&des_4=rioN
&des_5=はっぴー
&inote_1=(140.0){1},,,,,
{1}1,
{1}2,
{1}3,
{1}4,
{1}5,
{1}6,
{1}7,
{1}8,
{1}7h[1:1],,
{1}8h[1:1],,
{1}1h[1:1],,
{1}2h[1:1],,
{2}1,1,
{1}1,
{2}2,2,
{1}2,
{2}3,3,
{1}3,
{2}4,4,
{1}4,
{2}5,5,
{1}5,
{2}6,6,
{1}6,
{2}7,7,
{1}7,
{2}8,8,
{1}8,
{1}1-5[4:3],,
{1}8-4[4:3],,
{1}3h[1:1],,
{1}4h[1:1],,
{1}5h[1:1],,
{1}6h[1:1],,
{2}5,5,
{1}5,
{2}6,6,
{1}6,
{2}7,7,
{1}7,
{2}8,8,
{1}8,
{2}1,1,
{1}1,
{2}2,2,
{1}2,
{2}3,3,
{1}3,
{2}4,4,
{1}4b,
{2}4,4,
{2}3,3,
{2}2,2,
{1}1,
{2}8,8,
{2}7,7,
{2}6,6,
{1}5,
{1}4/5,
E
&inote_2=(140.0){1},2,
{1}2,
{1}3,
{1}3,
{1}4,
{1}4,
{1}5,
{1}5,
{1}6,
{1}6,
{1}7,
{1}7,
{1}7/8,
{1}7/8,
{1}5/6,
{1}5/6,
{1}3/4,
{1}3/4,
{1}1/2,
{1}1/2,
{4}1,1,1,,
{4}2,2,2,,
{4}3,3,3,,
{4}4,4,4/5,,
{4}5,5,5,,
{4}6,6,6,,
{4}7,7,7,,
{4}8,8,1/8,,
{1}7h[2:1],
{1}6h[2:1],
{1}5h[2:1],
{4}4,5,4,,
{1}3h[2:1],
{1}2h[2:1],
{1}1h[2:1],
{4}8,1,8,,
{1}1-4[4:3],,
{1}8-5[4:3],,
{2}1,1,
{4}2,2,2,,
{2}3,3,
{4}4,4,4,,
{2}5,5,
{4}6,6,6,,
{2}7,7,
{1}1h[2:1]/8h[2:1],
{4}8,8,7,7,
{4}6,6,4/5,,
{4}4,4,3,3,
{4}2,2,1/8,,
{4}1,1,2,2,
{4}3,3,4/5,,
{4}5,5,6,6,
{4}7,7,1/8,,
{4}8,8,7,7,
{4}6,6,5,5,
{4}4,4,3,3,
{4}2,2,1/8,,
{4}1,1,2,2,
{4}3,3,4,4,
{4}5,5,6,6,
{4}7,7,1b/8b,,
{1}1-4[4:3],,
{1}8-5[4:3],,
{1}2-5[4:3],,
{1}7-4[4:3],,
{1}3h[1:2]/6h[1:2],,,
E
&inote_3=(140.0){1},
{2}3h[2:1],4h[2:1],
{2}5h[2:1],6,
{2}7h[2:1],5h[2:1],
{2}4h[2:1],2,
{4}3,4,3,2/5,
{4}6,5,4/7,,
{4}5/6,4/5,3h[4:1]/4h[4:1],,
{4}3/4,4/5,5h[4:1]/6h[4:1],,
{4}6,5,6,4/7,
{4}3,4,2/5,,
{4}2/4,4/5,5h[4:1]/7h[4:1],,
{4}5/7,4/5,2h[4:1]/4h[4:1],,
{4}3/4,3-8[4:1]/4-7[4:1],,,
{4}5/6,5-2[4:1]/6-1[4:1],,,
{4}7/8,7-4[4:1]/8-3[4:1],,,
{4}1/2,3-1[8:1]/8-6[8:1],,,
{4}5/6,5^2[4:1]/6^1[4:1],,,
{4}3/4,3^8[4:1]/4^7[4:1],,,
{4}1/8,2/7,3/6,4qq3[2:1]/5pp6[2:1],
{4},,,2/7,
{4}4/5,2/4,4/5,5/7,
{8}3,3,4,,2/5,,,,
{4}4,3/5,2,1/3,
{4}8,1/7,6-4[8:1]/8-2[8:1],,
{4}4/5,5/7,4/5,2/4,
{8}6,6,5,,4/7,,2/5,,
{4}6,5/7,8,1/7,
{4}2,1/3,2-8[8:1]/4-6[8:1],,
{8}7,,6/8,,5,5,4,,
{8}2,,1/3,,4,4,5,,
{4}3/4,1^4[4:1]/8q5[4:1],,,
{4}5/6,1p4[4:1]/8^5[4:1],,,
{4}3/4,1/8,5/6,1/8,
{4}2/4,1/8,5/7,1/8,
{2}2/4-7[8:1],1-4[8:1],
{4}6-1[8:1],,3,4/5,
{1}6h[1:1],
{1}5h[1:1],
{1}4h[1:1],
{4}3h[2:1],,4,5/6,
{4}4/5,3,4/5,6,
{4}4/5,2,4/5,7,
{4}4/5,1,4/5,8,
{4}4/5,3/6,2-4[8:1]/7-5[8:1],,
{4}4/5,1/3,4/5,6/8,
{8}3,3,4,,2/5,,4/7,,
{4}3,2/4,1,2/8,
{4}7,6/8,5-3[8:1]/7-1[8:1],,
{4}1/8,6/8,1/8,1/3,
{8}7,7,8,,1/6,,,,
{4}8,1/7,6,5/7,
{8}4,4,3/5,,2-8[8:1]/4-6[8:1],,,,
{4}1/8,1/3,1/8,6/8,
{8}2,2,1,,3/8,,1/6,,
{4}2,1/3,4,3/5,
{8}6,6,5/7,,6-4[8:1]/8-2[8:1],,,,
{8}3,,2/4,,1,1,8,,
{8}6,,5/7,,8,8,1,,
{4}7/8,4q1[4:1]/5^8[4:1],,,
{4}1/2,4^1[4:1]/5p8[4:1],,,
{8}5/6,,4/7,,8,8,1,,
{8}3/4,,2/5,,1,1,8,,
{4}2/7,4^1[4:1]/5^8[4:1],,,
{1}1b/8b,
{8}3/4,,5/6,,3,3,4,,
{8}5/6,,3/4,,6,6,5,,
{8}3/4,,5/7,,2,2,4,,
{8}5/6,,2/4,,7,7,5,,
{8}3/4,,6/8,,1,1,3,,
{8}5/6,,1/3,,8,8,6,,
{8}3/4,,7/8,,1,1,2,,
{8}5/6,,1/2,,8,8,7,,
{2}6h[2:1],5h[2:1],
{2}4h[2:1],3^6[4:1],,
E
&inote_4=(140.0){1},,,,
{4},,,4/5,
{4}2h[4:1],3h[4:1],4,3/5,
{4}7h[4:1],6h[4:1],5,4/6,
{4}2/4,5/7,3/6,1/8,
{4}2-6[8:1]/7-3[8:1],,,4/5,
{4}6/2h[4:1],1h[4:1],5,4/8,
{4}3/7h[4:1],8h[4:1],4,1/5,
{4}2,1/2,7,7/8,
{8}1/8,,1/8,2/7,,,,,
{8}2pp4[8:1],,8,8,,1/6,,,
{8}7qq5[8:1],,1,1,,3/8,,,
{8}1s5[4:1],,6,6,,2/7,,,
{4}2-5[8:1],7-4[8:1],1b,,
{8}6pp8[8:1],,4,4,,2/5,,,
{8}3qq1[8:1],,5,5,,4/7,,,
{8}8z4[4:1],,3,3,,2/7,,,
{8}5w1[4:1],,,,,,3,4,
{4}3-8[8:1],7-4[8:1],1-6[8:1],5,
{8}5,4,3,2,1-5[8:1],,8,,
{8}7-4[8:1],7,2-5[8:1],2,8-4[8:1],8,1-5[8:1],1,
{8}7-3[8:1],7,2-6[8:1],2,7,,1/8,,
{4}6-1[8:1],2-5[8:1],8-3[8:1],4,
{8}4,5,6,7,8-4[8:1],,1,,
{8}2-5[8:1],2,7-4[8:1],7,1-5[8:1],1,8-4[8:1],8,
{8}2-6[8:1],2,7-3[8:1],7,2,,1/8,,
{8}6,5/6,3,3/4,8,8,1/7,,
{8}3,3/4,6,5/6,1,1,2/8,,
{8}6,5/6,3,3/4,5/2-6[8:1],,7,7h[4:1],
{8},8,7,8,7,,2/5,,
{8}8b,,3b,,6,6,6,6,
{8}5/7,1/8,2/4,,3,3,3,3,
{16}1h[8:1]/2h[8:1],,,1h[8:1]/2h[8:1],,,7h[8:1]/8h[8:1],,,7h[8:1]/8h[8:1],,,6,,6,,
{8}5,5,5,4,4,4,3/6,,
{4}2V46[4:1],,1,8,
{4}7V53[4:1],,8,1,
{2}2-5[8:1],7-4[8:1],
{2}3-8[8:1]/6-1[8:1],2/7,
{4}6h[4:1],8h[4:1],1h[4:1],3h[4:1],
{8}6,,4,5,4,,,,
{8}6,6,1,1,8,8,3,3,
{8}5,5,4,4,3/6,,1/8,,
{4}8/6-3[8:1],2-7[8:1],5-8[16:1],4,
{8}1/8,3,1/8,6,1-4[8:1]/8-5[8:1],,,,
{8}2-6[8:1],2,7-3[8:1],7,1-5[8:1],1,8-4[8:1],8,
{8}2-6[8:1],2,7-3[8:1],7,2,,1/3,2,
{4}1/3-6[8:1],7-2[8:1],4-1[8:1],5,
{8}1/8,6,1/8,3,1-5[8:1]/8-6[8:1],,,,
{8}2-7[8:1],2,6-3[8:1],6,2-7[8:1],2,6-3[8:1],6,
{8}2-5[8:1],2,6-1[8:1],6,3,,6/8,7,
{4}8/6-3[8:1],2-7[8:1],5-8[8:1],4,
{8}1/8,3,1/8,6,1-3[8:1]/8-4[8:1],,,,
{8}7-2[8:1],7,3-6[8:1],3,7-2[8:1],7,3-6[8:1],3,
{8}7-4[8:1],7,3-8[8:1],3,6,,2/7,,
{8}3,3/4,6,5/6,1,1,2/8,,
{8}6,5/6,3,3/4,8,8,1/7,,
{8}3,3/4,6,5/6,4/7-3[8:1],,2,2h[4:1],
{8},1,2,1,2,,4/7,,
{8}1,3/4,8,5/6,1,2/8,3/7,,
{8}8,5/6,1,3/4,8,1/7,2/6,,
{8}4/5,3/4,4/5,5/6,4h[4:1]/5h[4:1],,,2b/7b,
{8},4,5,4,5,,,,
{8}7h[4:1],,8,7,4,5,4,,
{8}2h[4:1],,1,2,5,4,5,,
{8}7h[4:1],,8,7,4,5,4,,
{8}2,1,2,1,4,5,3/6,,
{8}2h[4:1],,1,2,5-1[8:1],4,4,,
{8}7h[4:1],,8,7,4-8[8:1],5,5,,
{8}2h[4:1],,1,2,5-1[8:1],4,4,,
{8}7,8,7,8,5,4,3/6,,
{2}7-4[8:1],2-5[8:1],
{2}8-3[8:1],1w5[4:1],,
E
&inote_5=(140.0){1},
{8}6,6h[8:3],,,5,5h[8:3],,,
{8}4,4h[8:3],,,3,3h[8:3],,,
{8}4,4h[8:3],,,5,5h[8:3],,,
{8}4,4h[8:3],,,5,,4/5,,
{4}2/4h[4:1],5^2[8:1],8h[2:1],6,
{4}5-2[8:1],1,2/1-6[8:1],5,
{4}8h[4:1],2h[4:1],3^6[8:1],,
{8}1/7,8v3[8:1]*v5[8:1],,,,,4/5,,
{4}7/5h[4:1],4^7[8:1],1h[2:1],3,
{4}4-7[8:1],8,7/8-3[8:1],4,
{4}1h[4:1],7h[4:1],6^3[8:1],,
{8}2/8,2-6[8:1]/8-4[8:1],,,,,3/8-5[8:1],,
{8}6/8,,1/2,3/8,,7/8,6/1-4[8:1],,
{8}1/3,,7/8,1/6,,1/2,3/8-5[8:1],,
{8}6/8,,1/2,3/8,,7/8,6/1^4[4:1],,
{4}4^7[4:1],7^2[4:1],2,5-8[8:1],
{8}5/7,,3/4,2/5,,5/6,7/4-1[8:1],,
{8}2/4,,5/6,4/7,,3/4,2/5-8[8:1],,
{8}5/7,,3/4,2/5,,5/6,7/4>5[2:1],,
{4}4/5,,,5b/4b-1[8:1],
{4}4/8-5[8:1],8/2-7[8:1],2/6-3[8:1],6/2-5[8:1],
{8}2/7-4[8:1],7,7/3-8[8:1],3,3/6,,8/1-5[8:1],,
{8}1/8-4[8:1],8,8/3-1[8:1],3,3/5-7[8:1],5,5/1-5[8:1],1,
{8}1/6-8[8:1],6,6/4-2[8:1],4,4/5,,4/5-8[8:1],,
{4}5/1-4[8:1],1/7-2[8:1],7/3-6[8:1],3/7-4[8:1],
{8}7/2-5[8:1],2,2/6-1[8:1],6,3/6,,1/8-4[8:1],,
{8}8/1-5[8:1],1,1/6-8[8:1],6,6/4-2[8:1],4,4/8-4[8:1],8,
{8}8/3-1[8:1],3,3/5-7[8:1],5,4/5,,3/4,,
{8}8/7^4[8:1],,1,2,3/4^7[8:1],2,1,,
{8}1/2^5[8:1],,8,7,6/5^2[8:1],7,8,,
{8}8/7^4[8:1],,1,2,3/4^7[8:1],2,1,,
{8}1/2^5[8:1],,6,7,1/8,,4/5-1[8:1],,
{8}1w5[8:1],,,,8,1/7,4,3/5,
{16}1,,2/8,,5-8[8:1],,,,3,,2,,1,1,1,,
{16}7/8h[16:3],,,6h[16:3],,,4h[16:3],,,2h[16:3],,,1,,8/3-1[8:1],,
{8}3,5-7[8:1],5,4-8[8:1],4,5,5,5,
{16}6h[16:3],,,5h[16:3],,,4,,3,,4,,3/5,,,,
{16}3h[16:3],,,4h[16:3],,,5,,6,,5,,4/6,,,,
{16}7h[16:3],,,6h[16:3],,,5,,4,,3,,2/4,,,,
{16}2h[16:3],,,3h[16:3],,,4,,4/5,,,,4/6,,,,
{4}3/5,4/6,3/5,4/6,
{8}3/5,4,4/6,5,3/5,,4/6,,
{8}2/5,3,4/7,6,2/5,3,4/7,6,
{8}2/5,3,4/7,6,2/5,,4/5,,
{8}3/2-5[8:1],2,1/2,,6/7-4[8:1],7,7/8,,
{8}3/2-5[8:1],2,1/2,,6/7-4[8:1],7,7/8,,
{8}2/3-8[8:1],3,3/4,,7/6-1[8:1],6,5/6,,
{8}2/3-8[8:1],3,3/4,,7/6-1[8:1],6,5/6,,
{8}3/2-5[8:1],2,1/2,8,6/7-4[8:1],7,7/8,1,
{8}3/2-5[8:1],2,1/2,8,6/7-4[8:1],7,7/8,1,
{8}2/3-8[8:1],3,3/4,5,7/6-1[8:1],6,5/6,4,
{8}2/3-8[8:1],3,3/4,5,7/6-1[8:1],6,5/6,4,
{8}3/2^5[8:1],2,1/2,8,6/7^4[8:1],7,7/8,1,
{8}3/2^5[8:1],2,1/2,8,6/7^4[8:1],7,7/8,1,
{8}2/3^8[8:1],3,3/4,5,7/6^1[8:1],6,5/6,4,
{8}2/3^8[8:1],3,3/4,5,2b/7b,,4/5,,
{8}8/1-6[8:1],2,3/1-4[8:1],2,7/1-5[8:1],8,1/3,,
{8}2/8-3[8:1],7,6/8-5[8:1],7,2/8-4[8:1],1,6/8,,
{8}7/1-6[8:1],2,3/1-4[8:1],2,7/1-5[8:1],8,1/3,,
{8}2/8-3[8:1],7,6/8-5[8:1],7,2/8-4[8:1],1,6/8,,
{8}7/1^6[8:1],2,4/1^4[8:1],2,6/1-5[8:1],8,1/4,,
{8}2/8^3[8:1],7,5/8^5[8:1],7,3/8-4[8:1],1,5/8,,
{8}7/1^6[8:1],2,4/1^4[8:1],2,6/1-5[8:1],8,1/4,2,
{1}1/5,
{8}6/5-2[8:1],,5/8,8,7/5-2[8:1],7,5/6,6,
{8}6/5-2[8:1],6,5/8,8,7/5-2[8:1],7,5/6,6,
{8}3/4-7[8:1],,1/4,1,2/4-7[8:1],2,3/4,3,
{8}3/4-7[8:1],3,1/4,1,2/4-7[8:1],2,3/4,3,
{8}6/5-2[8:1],,5/8,8,7/5-2[8:1],7,5/6,6,
{8}6/5-2[8:1],6,5/8,8,7/5-2[8:1],7,5/6,6,
{8}3/4-7[8:1],,1/4,1,2/4-7[8:1],2,3/4,3,
{8}3/4-7[8:1],3,1/4,1,2/4-7[8:1],2,3b/4b,,
{2}1h[2:1],2h[2:1],
{2}3h[2:1],
{4}4V28[2:1]*V68[2:1],,,,
E
