&title=CITRUS MONSTER
&artist=D-Cee
&wholebpm=220
&demo_seek=19.3
&demo_len=9.1
&lv_1=3
&lv_2=7
&lv_3=9
&lv_4=12+
&lv_5=14
&des_4=ぴちネコ
&des_5=ロシェ@ペンギン
&inote_1=(220.0){1},,
{1}1,
{1}1,
{1}2,
{1}2,
{1}3,
{1}3,
{1}4,
{1}4,
{1}5,
{1}5,
{1}6,
{1}6,
{1}7,
{1}7,
{1}8b,,
{2}8,8,
{1}8,
{2}7,7,
{1}7,
{2}6,6,
{1}6,
{2}5,5,
{1}5,
{2}4,4,
{1}4,
{2}3,3,
{1}3,
{2}2,2,
{1}2,
{2}1,1,
{1}1,
{1}1h[1:1],,
{1}2h[1:1],,
{1}3h[1:1],,
{1}4h[1:1],,
{1}5h[1:1],,
{1}6h[1:1],,
{1}7h[1:1],,
{1}8h[1:1],,
{1}1b,,,,
{1}8-5[4:3],,
{1}4-1[4:3],,
{1}8,
{1}7,
{1}6,
{1}5,
{1}4,
{1}3,
{1}2,
{1}1,
{1}1h[1:1],,
{1}2h[1:1],,
{1}3h[1:1],,
{1}4h[1:1],,
{1}5h[1:1],,
{1}6h[1:1],,
{1}7h[1:1],,
{1}8b,,
{2}8,8,
{2}8,8,
{2}7,7,
{1}7,
{2}6,6,
{2}6,6,
{2}5,5,
{1}5,
{2}4,4,
{2}4,4,
{2}3,3,
{1}3,
{2}2,2,
{2}2,2,
{2}1,1,
{1}1b,
{2}1,1,
{2}2,2,
{2}3,3,
{2}4,4,
{2}5,5,
{2}6,6,
{2}7,7,
{1}8b,
{1}1h[1:1],,
{1}8h[1:1],,
{1}1/8,
E
&inote_2=(220.0){1},,
{1}1,
{1}2,
{1}3,
{1}4,
{1}5,
{1}6,
{1}7,
{1}8,
{2}8,8,
{1}7h[2:1]/8h[2:1],
{2}1,1,
{1}1h[2:1]/2h[2:1],
{4}8,8,1,1,
{4}8,8,1,1,
{1}1/8,,
{4}1,1,1,,
{4}2,2,1/2,,
{4}3,3,3,,
{4}4,4,4,,
{4}5,5,5,,
{4}6,6,5/6,,
{4}7,7,7,,
{4}8,1,8,1,
{4}8,8,8,,
{4}7,7,7/8,,
{4}6,6,6,,
{4}5,5,5,,
{4}4,4,4,,
{4}3,3,3/4,,
{2}1/2,1/2,
{4}1,8,1,8,
{1}1h[2:1],
{4}2,1,2,,
{1}8h[2:1],
{4}7,8,7,,
{1}5h[2:1],
{4}6,5,6,,
{1}4h[2:1],
{4}3,4,3,,
{2}2b/7b,2/7,
{4}2,1,2,,
{2}3/6,3/6,
{4}3,4,3,,
{2}2/7,2/7,
{4}7,8,7,,
{2}3/6,3/6,
{4}6,5,6,,
{1}4-1[4:7]/5-8[4:7],,,,,,,,
{1}1h[2:1],
{1}2h[2:1],
{1}3h[2:1],
{1}4h[2:1],
{1}5h[2:1],
{1}6h[2:1],
{1}7h[2:1],
{1}8h[2:1],
{4}8,8,8,8,
{4}7,7,7,7,
{4}6,6,6,6,
{4}5,5,4/5,,
{4}4,4,4,4,
{4}3,3,3,3,
{4}2,2,2,2,
{4}1,1,1/8,,
{4}1,1,2,2,
{4}3,3,4,4,
{4}5,5,6,6,
{4}7,7,8,8,
{4}1,2,3,4,
{4}5,6,7,8,
{1}1b,
{4}1,1,1,1b/8b,
{4}8,8,1/8,,
{4}7,7,7/8,,
{4}6,6,5/6,,
{4}4,5,4,5,
{4}4,4,4/5,,
{4}3,3,3/4,,
{4}2,2,1/2,,
{4}1,8,1,1/8,
{4}1,1,1,,
{4}2,2,1/2,,
{4}3,3,3/4,,
{4}5,4,5,4,
{4}5,5,4/5,,
{4}6,6,5/6,,
{4}7,7,7/8,,
{4}1,8,1,1/8,
{4}1,1,1,1,
{4}2,2,2,2,
{4}3,3,3,3,
{4}4,4,4,4/5,
{4}5,5,5,5,
{4}6,6,6,6,
{4}7,7,7,7,
{4}8,8,8,1/8,
{1}1h[1:1],
{2},1/2,
{1}8h[1:1],
{2},7/8,
{1}1-4[4:7]/8-5[4:7],,,
E
&inote_3=(220.0){1},,
{1}6h[2:3],
{2}5,5,
{1}3h[2:3],
{2}4,4,
{1}7h[2:3],
{2}6,6,
{1}2h[2:3],
{2}3,3,
{4}8,8,7,7,
{4}6,6,5/6,,
{4}1,1,2,2,
{4}3,3,3/4,,
{4}5,5,6,6,
{4}7,7,8,8,
{1}1>8[4:5],,
{4}8,8,7,7,
{4}7/8,1/6,2/5,,
{4}1,1,2,2,
{4}1/2,3/8,4/7,,
{4}5,5,6,6,
{4}5/6,4/7,3/8,,
{4}4,4,3,3,
{4}3/4,2/5,1/6,,
{4}6,5/6,3,3/4,
{4}1/2,3/8,4/7,5/6,
{4}3,3/4,6,5/6,
{4}7/8,1/6,2/5,3/4,
{4}6,5/6,3,3/4,
{4}1/2,3/8,4/7,5/6,
{4}3/4,3/4,5/6,5/6,
{1}1-4[8:3]/8-5[8:3],
{4}3h[1:1],,4,4,
{2}4,2/5,
{4}6h[1:1],,5,5,
{2}5,4/7,
{4}2h[1:1],,1,1,
{2}1,3/8,
{4}7h[1:1],,8,8,
{2}8,1/6,
{1}4qq1[4:5]/5pp8[4:5],,
{4}7h[1:1],,6,6,
{2}6,1/7,
{4}2h[1:1],,3,3,
{2}3,2/8,
{4}8h[1:1],,1,1,
{2}1,4/5,
{1}2b/7b,,,,
{1}6h[1:1],
{1}5h[1:1],
{1}4h[1:1],
{2}3,3,
{1}3h[1:1],
{1}4h[1:1],
{1}5h[1:1],
{2}6,6,
{1}7h[1:1],
{1}8h[1:1],
{1}1h[1:1],
{2}2,2,
{4}1,1,2,2,
{4}3,3,4,4,
{4}5,5,6,6,
{4}7,7,7/8,,
{4}8,8,7,7,
{4}6,6,5,5,
{4}4,4,3,3,
{4}2,2,1/2,,
{4}1,2,3,4,
{4}5,6,7,8,
{4}8,7,6,5,
{4}4,3,2,1,
{4}1/2,1/2,3/4,3/4,
{4}5/6,5/6,7/8,7/8,
{1}1-6[8:3]/2-5[8:3],
{4}4/5,4/5,4/5,3b/6b,
{4}7,7,6/8,6/8,
{4}2,2,1/3,1/3,
{4}6,5/6,3,3/4,
{4}1/2,3/8,4/7,5/6,
{4}2,2,1/3,1/3,
{4}7,7,6/8,6/8,
{4}3,3/4,6,5/6,
{4}7/8,1/6,2/5,3/4,
{4}7,5/6,2,3/4,
{4}7,5/6,4,3/5,
{4}2,3/4,7,5/6,
{4}2,3/4,5,4/6,
{4}3,1/2,6,7/8,
{4}3,1/2,8,1/7,
{4}6,7/8,3,1/2,
{4}7/8,7/8,1/2,1/2,
{4}8,5/7,1,2/4,
{4}8,5/7,3/4,2/5,
{4}1,2/4,8,5/7,
{4}1,2/4,7/8,1/6,
{4}4,1/3,5,6/8,
{4}4,1/3,7/8,1/6,
{4}5,6/8,4,1/3,
{1}7-4[8:3]/8-3[8:3],
{2}6h[2:1],5,
{2}3h[2:1],4,
{2}2h[2:1],1h[2:1],
{2}8h[2:1],7,
{1}3/6,
E
&inote_4=(220.0){1},,
{4}4b-1[8:1]/5b-8[8:1],,,2/7,
{8}1h[4:1],,,2h[8:3]/8h[8:3],,,,,
{4}7^4[16:3]/8^3[16:3],,,1/6,
{8}3h[4:1]/4h[4:1],,,,7,8,7,,
{4}4b-1[8:1]/5b-8[8:1],,,2/7,
{8}8h[4:1],,,1h[8:3]/7h[8:3],,,,,
{4}1^6[16:3]/2^5[16:3],,,3/8,
{8}5h[4:1]/6h[4:1],,,,2,1,2,,
{4}5,5,2/8,2/8,
{4}4,4,1/7,1/7,
{4}6,6,1/4,1/4,
{4}3,3,5/8,5/8,
{8}6,6,3,3,5,5,4,4,
{8}6,6,3,3,7,7,2,2,
{1}8<1[1:1],
{2},4b-8[8:1],
{4}2/6,7/8,4,1/7,
{8}2,1,2,1,2-5[8:1],,,,
{4}6,7/8,4,1/7,
{8}2,1,2,1,2h[4:1],,8,,
{4}3/7,1/2,5,2/8,
{8}7,8,7,8,7-4[8:1],,,,
{4}3,1/2,5,2/8,
{8}7,8,7,8,7h[4:1],,1,,
{8}5b,5,,1/3,,6/8,,2/4,
{8},5/7,,1,1-5[8:1],,,,
{8}6,6,,1/3,,6/8,,2/4,
{8},5/7,,1/3,,6,6,,
{8}4,4,,6/8,,1/3,,5/7,
{8},2/4,,8,8h[4:1],,2b,,
{2}7/1-4[8:1],3/5-8[8:1],
{1}7/1s5[8:3],
{4}2/7h[2:1],8,2h[2:1],1,
{4}8h[4:1],7h[4:1],6h[4:1],5,
{4}6/3h[2:1],4,6h[2:1],5,
{4}4h[4:1],3h[4:1],2h[4:1],1,
{4}2/1h[2:1],4,8h[2:1],5,
{4}6h[4:1],8h[4:1],1h[4:1],3,
{4}6/5h[2:1],8,4h[2:1],1,
{4}2h[4:1],4h[4:1],5h[4:1],7,
{8}4/5,4qq1[8:5]/5pp8[8:5],,,,,,,
{4},3/6,1/8,,
{8}4/5,4/5,,2/7,,3/6,,1/8,
{8},3/6,3/6,,1h[4:1]/8h[4:1],,,,
{8}1/8,1/8,,3/6,,2/7,,4/5,
{8},2/7,2/7,,4h[4:1]/5h[4:1],,,,
{8}4/5,4/5,,2/7,,3/6,,1/8,
{8},8,1,7,2,6,3,,
{1}4bq5[4:7]/5b<4[4:7],,,,
{1}2h[2:3],
{1}1h[2:3],
{1}8h[2:3],
{1}7h[2:1],
{8}3b/4b,,5/6,,1/8,1p4[4:1]/8^5[4:1],,,
{8},,3,,1/8,1^4[4:1]/8q5[4:1],,,
{8},,6,,1/8,1p4[4:1]/8^5[4:1],,,
{4},3h[4:1],2h[4:1],1,
{8}7/8,,1/2,,4/5,4^1[4:1]/5p8[4:1],,,
{8},,7,,4/5,4q1[4:1]/5^8[4:1],,,
{8},,2,,4/5,4^1[4:1]/5p8[4:1],,,
{4},7h[4:1],6h[4:1],5,
{4}3/4,2/5,1/6,7/8,
{4}1h[4:1],8h[4:1],7h[4:1],6,
{4}5/6,4/7,3/8,1/2,
{4}8h[4:1],1h[4:1],2h[4:1],3,
{4}3/4,7/8,5/6,1/2,
{4}3/5,7/8,4/6,1/2,
{4}5,2/6,3/7,4/8,
{4}3/7,2/6,1/5b-8[8:1],,
{4}1h[4:1],2h[4:1],3h[4:1],4h[4:1],
{4}5h[4:1],6h[4:1],7h[4:1],8h[4:1],
{4}1h[4:1],2h[4:1],3h[4:1],4h[4:1],
{4}5h[4:1],6h[4:1],7h[4:1],8h[4:1],
{8}1,1,2,2,3,3,4,4,
{8}5,5,6,6,7,7,8,8,
{1}1>8[2:1],
{4}2/7,3/6,4-1[8:1]/5-8[8:1],,
{8}2b/7b,,3/4,,2/5,5/2^5[16:3],,7h[8:3],
{8},,8,,1/6,1/6^1[16:3],,3h[8:3],
{8},,4,,2/5,5/2^5[16:3],,7h[8:3],
{8},,8,,1,6,2,,
{8}3/4,,5/6,,4/7,4/7^4[16:3],,2h[8:3],
{8},,1,,3/8,8/3^8[16:3],,6h[8:3],
{8},,5,,4/7,4/7^4[16:3],,2h[8:3],
{4},1s5[8:3],,,
{8}2,2,,2/8,,2/3,,2/7,
{8},2/4,,2/6,6/2-6[8:1],,,,
{8}7,7,,1/7,,6/7,,2/7,
{8},5/7,,3/7,3/7-3[8:1],,,,
{8}2,2,,2/8,,2/3,,2/7,
{8},2/4,,2/6,6/2-6[8:1],,,,
{8}7,7,,1/7,,6/7,,2/7<2[8:3],
{4},,,1b/8b,
{8}2,2,2,2,2,2,2,2,
{8}1/2,1/2,1/2,1/2,1/2-5[8:1],,8b,,
{8}7,7,7,7,7,7,7,7,
{8}7/8,7/8,7/8,7/8,8/7-4[8:1],,1b,,
{8}1,1,1,1b,8,8,8,8b,
{8}2,2,2,2b,7,7,7,7b,
{16}1,8,1,8,1,8,1,8,1,8,1,8,1,8,1,8,
{1}1b>8[2:1],
{8}7,7,,3/4,,5/6,,3/4,
{8},8,2,6,4-8[8:1],,,,
{8}6,6,,7/8,,1/2,,7/8,
{8},3,5,1,7,4,8,,
{1}8bw4[4:7],,,
E
&inote_5=(220.0){1},,
{8}2/6,,4/8,,4,5,4,5,
{8}3/4,3q8[4:1]/4^7[4:1],,3/4,,,1,,
{8}2/8,,3/7,,5,4,5,4,
{8}7,7qq6[8:3],,8,1,2,3,,
{8}3/7,,1/5,,5,4,5,4,
{8}5/6,5^2[4:1]/6p1[4:1],,5/6,,,8,,
{8}2/4,,5/7,,4,5,4,5,
{8}2,2pp3[8:3],,1,8,7,6,,
{8}7/1-3[8:1],,6/1-5[8:1],,1/5,,1/8,1/8,
{4}2/8-6[8:1],3/8-4[8:1],4/8,3/6,
{8}7/1^3[8:1],,6/1-6[8:1],,1/5,,1/8,1/8,
{4}2/8^6[8:1],3/8-3[8:1],4/8,4/5,
{8}1,8,2,7,3,6,4,5,
{16}3,6,3,6,2,7,2,7,1,8,1,8,
{641}1,,,,,,,,,,,,,,,,,,,,
{639}2,,,,,,,,,,,,,,,,,,,,3,,,,,,,,,,,,,,,,,,,,
{641}4,,,,,,,,,,,,,,,,,,,,
{639}5,,,,,,,,,,,,,,,,,,,,
{641}6,,,,,,,,,,,,,,,,,,,,
{639}7,,,,,,,,,,,,,,,,,,,,
{641}8,,,,,,,,,,,,,,,,,,,,
{16}1q4[1:1],,,,,,,,,,,8h[2000:1],,,,,
{16},,,,,,,,5,4,5,4,3b/7b,,,,
{16}1/8,,1/8h[4:1],,2,3,4,,1/7,,1/7h[4:1],,2,3,4,,
{8}6,6,3-8[8:1],3,7q4[8:1],7,,,
{16}1/8,,1/8h[4:1],,2,3,4,,1/7,,1/7h[4:1],,2,3,4,,
{8}6,6,3,3,2/4,1/5,6/8,7,
{16}1/8,,8/1h[4:1],,7,6,5,,2/8,,8/2h[4:1],,7,6,5,,
{16}3,,3,,6,,6,,2/7,,2/7,,4,5,4,5,
{16}1,,1h[4:1],,7,6,5,,2/8,,8/2h[4:1],,7,6,5,,
{8}3-8[8:1],3,6-1[8:1],6,3,3,5b/7b,,
{16}6^1[8:1],,6,,2,3,4h[8:1],,1,8,7h[8:1],,2,3,4h[8:1],,
{16}1,8,7h[8:1],,2,3,4h[8:1],,1-5[8:1],8,7,6,1b/5,,,,
{16}8^5[8:1],,8,,4,3,2h[8:1],,5,6,7h[8:1],,4,3,2h[8:1],,
{16}5,6,7h[8:1],,4,3,2h[8:1],,1,,2/8,,3/7,,4/6,,
{16}3^8[8:1],,3,,7,6,5h[8:1],,8,1,2h[8:1],,7,6,5h[8:1],,
{16}8,1,2h[8:1],,7,6,5h[8:1],,8-4[8:1],1,2,3,4/8b,,,,
{8}5-1[8:1]/6-1[8:1],5/6,,,3-8[8:1]/4-8[8:1],3/4,,,
{8}7,7,4-1[8:1],4,8-5[8:1],,,,
{8}2h[2:1],,5,6,7,5-2[8:1]/7-4[8:1],,5/7,
{8},3,5,3,2v8[8:1]/4-8[8:1],,,,
{8}7h[2:1],,2,3,4,4qq2[8:1]/5pp7[8:1],,4/5,
{8},3,7,3-7[8:1],7>3[4:1],6,5,,
{8}7h[2:1],,4,3,2,2-5[8:1]/4-7[8:1],,2/4,
{8},6,4,6,5-1[8:1]/7^4[8:1],,,,
{8}2h[2:1],,7,6,5,4qq2[8:1]/5pp7[8:1],,4/5,
{8},2,6,2v5[8:1],5>1[4:1],6,7,,
{8}8h[8:3],,,1,,2-5[8:1]/7-4[8:1],,2b/7b,
{8},3-7[8:1],7>3[4:1],3,4-8[8:1],,,,
{8}3/7,6,1/5,2,3,4/1^4[8:1]*^6[8:1],,1,
{8},5,2,7-4[8:1],4-8[8:1],3,2,,
{8}2/6,3,4/8,7,6,5/8-3[8:1]*-5[8:1],,8,
{8},6-2[8:1],2<6[4:1],6,5-1[8:1],,,,
{8}3/7,6,1/5,2,3,1/4,,2/7qq4[8:5],
{8},5,4,3,2,1,8,,
{1}1bq3[4:7]/5bq7[4:7],,,,
{8}5h[4:1],,4h[4:1],,6,6,,5/7,
{8},4,5h[4:1],,3,3,,2/4,
{8},5,4h[4:1],,6,6,,5/7,
{8},4,5s1[4:1],,,,,,
{8}1b/8b,,4/5h[8:3],,6,6,,4/7,
{8},4/5,5/4h[8:3],,3,3,,2/5,
{8},4/5,4/5h[8:3],,6,6,,4/7,
{8},4/5,5/4h[2:1],,3,3,3,,
{8}4/6,,3/5h[8:3],,6,6,,3/7,
{8},4/6,6/4h[8:3],,3,3,,2/6,
{8},3/5,3/5h[8:3],,6,6,,3/7,
{8},4/6,4h[2:1]/6V48[4:1],,,,,,
{4}2b-6[8:1],8-4[8:1],1,3/6,
{8}5,4,5q4[4:1],,3,,8,,
{4}7-3[8:1],1-5[8:1],8p3[4:1],3^8[4:1],
{4}8p3[4:1],3,8,2/7,
{4}7-4[8:1],1-5[8:1],8,2/7,
{8}1,8,1q8[4:1],,7,,4,,
{4}2-5[8:1],6-1[8:1],4p7[4:1],7^4[4:1],
{4}4p7[4:1],7,4,1b/8b,
{8}4,5,4,5,3,6,3,6,
{8}2,7,2,7,1,8,1,8,
{8}1,1,8,8,2,2,7,7,
{8}3,3,6,6,4,4,5,5,
{16}3,6,3,6,3,6,3,6,2,7,2,7,2,7,2,7,
{16}1,8,1,8,1,8,1,8,
{641}1,,,,,,,,,,,,,,,,,,,,
{639}2,,,,,,,,,,,,,,,,,,,,3,,,,,,,,,,,,,,,,,,,,
{641}4,,,,,,,,,,,,,,,,,,,,5,,,,,,,,,,,,,,,,,,,,
{639}6,,,,,,,,,,,,,,,,,,,,7,,,,,,,,,,,,,,,,,,,,
{641}8,,,,,,,,,,,,,,,,,,,,1w5[4:3],,,,,,,,,,,,,,,,,,,,
{639}2,,,,,,,,,,,,,,,,,,,,3,,,,,,,,,,,,,,,,,,,,
{641}4,,,,,,,,,,,,,,,,,,,,5,,,,,,,,,,,,,,,,,,,,
{639}6,,,,,,,,,,,,,,,,,,,,7,,,,,,,,,,,,,,,,,,,,
{641}8,,,,,,,,,,,,,,,,,,,,
{1}1,
{16}6,5,6,,3,4,3,,4-1[8:1]/5-8[8:1],,4/5,,4b/5b,,,,
{16}7/8,,2,1,2,,4,3,4,,3/5,,2/6,,1/7q4[8:1],,
{16},,8,1,2h[4:1],,5,6,7,,1/2,,3/8,,7/4p7[8:1],,
{16},,7,6,5h[4:1],,8,1,2,,3/4,,2/5,,1/6p1[8:1],,
{16},,1,2,3h[8:1],,8,7,6,,4/5,,3/6,,2/7,,
{16}1/8,,7,8,7,,5,6,5,,4/6,,3/7,,8/2p5[8:1],,
{16},,1,8,7h[4:1],,4,3,2,,7/8,,1/6,,2/5q2[8:1],,
{16},,2,3,4h[4:1],,1,8,7,,5/6,,4/7,,8/3s7[8:3],,
{4},4,8,1b/8b,
{8}3,8-6[8:1],3,8-2[8:1],5,8-6[8:1],5,8,
{16}3,,8,1,2/5,,8,7,3/6,,4/5,,1b/8b,,,,
{8}6,1-3[8:1],6,1-7[8:1],4,1-3[8:1],4,1,
{16}6,,1b,8,4/7,,1b,2,3/6,,4b/5b,,1b/8b,,,,
{8}3,8-6[8:1],3,8-2[8:1],5,8-6[8:1],5,8,
{16}3,,8,1,2/5,,8,7,3/6,,4/5,,1b/8b,,,,
{8}6,1-3[8:1],6,1-7[8:1],4,1-3[8:1],4,1,
{8}5b,,1b/8b,,
{12}7b,
{995}5,,,,,,,,,,,,,,,,,,,,,,,,,,,,,,,,,,,,,,,,,,,,,,,,,,,,,,,,,,,,,,,,,,,,,,,,,,,,,,,,,,,
{12}7,2b,
{995}4,,,,,,,,,,,,,,,,,,,,,,,,,,,,,,,,,,,,,,,,,,,,,,,,,,,,,,,,,,,,,,,,,,,,,,,,,,,,,,,,,,,
{24}2,,
{8}8b-4[8:1],8,2-6[8:1],2,5-8[8:1],5,3-6[8:1],3,
{16}7-4[8:1],,7,,2,,2,,1/8-4[8:1],,,2,8b,,3,,
{8}1-5[8:1],1,7-3[8:1],7,4-1[8:1],4,6-3[8:1],6,
{16}2-5[8:1],,2,,7,,7,,1b/8b,,,5/7,,,2/4,,
{8}1b/8b,1/8,2/8,2/8,3/8,3/8,4/8,4/8,
{16}3/7,,3/7,,2/6,,2/6,,5/1-5[8:1],,,6,1b,,7,,
{16}4,8,4,8,3,7,3,7,2,6,2,6,1pp8[2:1],5pp4[16:7],1,5,
{4},,,2b/7b,
{8}6/2h[2:1],,5,6,7,5-2[8:1]/7-4[8:1],,5/7,
{8},3-7[8:1],7>3[4:1],3,5-1[8:1],,,,
{16}4,8,4,8,4,7,4,7,4,6,4,6,4,5,4,5h[16:13],
{8},7,8,1,2,3,4>5[4:7],,
{4}4b/8b,,,{1},,
E
