&title=Barbed Eye
&artist=柿チョコ×みきとP
&wholebpm=135
&demo_seek=53.3
&demo_len=23.2
&lv_1=2
&lv_2=5
&lv_3=7+
&lv_4=10+
&lv_5=13
&des_4=しろいろ
&des_5=rioN
&inote_1=(135.0){1},,,,,
{1}1,
{1}2,
{1}3,
{1}4,
{1}5,
{1}6,
{1}7,
{1}8,
{1}8,
{1}7,
{1}6,
{1}5,
{1}4,
{1}3,
{1}2,
{1}1,
{1}1-5[4:3],,
{1}8-4[4:3],,
{1}1-5[4:3],,
{1}8-4[4:3],,
{1}1/8,
{1}1b,
{2}1,1,
{1}1,
{2}2,2,
{1}2,
{2}3,3,
{1}3,
{2}4,4,
{1}4,
{2}5,5,
{1}5,
{1}4/5,,
{1}5,
{1}6,
{1}7,
{1}8,
{1}1,
{1}2,
{1}3,
{1}4/5,
{1}6h[1:1],,
{1}5h[1:1],,
{1}4h[1:1],,
{1}3h[1:1],,
{2}4,4,
{1}4,
{2}5,5,
{1}5,
{2}6,6,
{1}6,
{2}7,7,
{1}7,
{2}8,8,
{1}8,
{1}1/8,
{1}1/8,
{2}2,2,
{2}3,3,
{2}4,4,
{1}5,
{2}6,6,
{2}7,7,
{2}8,8,
{1}1b,
{1}1/8,
E
&inote_2=(135.0){1},
{2}1,1,
{2}2,2,
{2}3,3,
{2}4,4,
{4}5,5,5,,
{4}6,6,6,,
{4}7,7,7,,
{4}8,8,8b,,
{4}7,7,6,6,
{4}5,5,4/5,,
{4}2,2,3,3,
{1}4h[2:1],
{2}5/6,5/6,
{4}6,5,6,,
{2}3/4,3/4,
{4}3,4,3,,
{2}4/6,4/6,
{4}6,4,6,,
{2}3/5,3/5,
{4}3,5,3,,
{1}2-6[4:3],,
{1}7-3[4:3],,
{1}1-5[4:3],,
{1}8-4[4:3],,
{1}1h[2:1]/8h[2:1],
{4}1,1,8,8,
{1}1h[2:1],
{4}2,2,3,3,
{1}4h[2:1],
{4}5,5,6,6,
{4}7/8,7/8,7/8,,
{4}5/6,5/6,5/6,,
{4}4,4,3,3,
{4}1/2,1/2,1/2,,
{2}1/8,2/7,
{2}3/6,4/5,
{1}4h[2:1]/5h[2:1],
{4}4,5,4b,,
{4}5,5,5,,
{4}6,6,6,,
{4}7,7,7,,
{1}7h[2:1]/8h[2:1],
{4}1,1,1,,
{4}2,2,2,,
{4}3,3,3,,
{4}4,4,5,5,
{1}4h[2:1],
{2}3,2,
{1}1h[2:1],
{2}8,7,
{1}5h[2:1]/6h[2:1],
{1}7h[2:1]/8h[2:1],
{4}1,1,2,2,
{1}3h[2:1]/4h[2:1],
{1}4-1[4:3],
{2},8,
{1}8-5[4:3],
{2},4,
{4}3,3,3/4,,
{4}2,2,1/2,,
{4}8,8,7,7,
{4}6,6,5/6,,
{2}4/5,3/6,
{2}2/7,1/8,
{1}1h[2:1]/8h[2:1],
{4}1,8,1b,,
{4}8,8,7,7,
{4}6,6,5,5,
{4}4,4,3,3,
{4}2,2,1/8,1/8,
{4}2,2,3,3,
{4}4,4,5,5,
{4}6,6,7,7,
{4}8,8,1/8,1/8,
{8}2h[8:5]/7h[8:5],,,,,,
E
&inote_3=(135.0){1},
{2}3,2,
{1}1-5[4:1],
{2}6,7,
{1}8-4[4:1],
{2}4,3,
{1}2^5[4:1],
{2}5,6,
{2}7,1/8,
{4}3,4,3,,
{4}6,5,6,,
{4}1,8,2/7,,
{1}1^4[4:1]/8^5[4:1],
{4}2,3,4,5,
{4}6,7,1/8,,
{4}7,6,5,4,
{4}3,2,1/8,,
{4}3,2,1,8,
{4}7,6,4/5,,
{4}6,7,8,1,
{4}2,3,4/5,,
{4}6h[4:1],5,5/6,,
{4}3h[4:1],4,3/4,,
{4}7h[4:1],5,5/7,,
{4}2h[4:1],4,2/4,,
{4}6h[4:1],5,4/7,,
{4}3h[4:1],4,2/5,,
{4}6h[4:1],5,3h[4:1],4,
{4}7h[4:1],5,2h[4:1],4,
{1}7<2[2:1],
{1}2b/7b,
{4}3,3,3/4,3/4,
{4}6,6,5/6,5/6,
{4}3,2/4,6,5/7,
{4}1/8,2/7,3/6,,
{4}2,3,4,5/6,
{4}7,6,5,3/4,
{4}2,1/2,7,7/8,
{4}1/8,1-4[4:1]/8-5[4:1],,,
{4}4,3,2,1,
{4}8,7,6,5,
{1}3>6[2:1],
{4}4/5,4/5,2b/7b,,
{4}3,4,3h[4:1],4,
{4}6,5,6h[4:1],5,
{2}2h[4:1]/4h[4:1],5h[4:1]/7h[4:1],
{2}1h[4:1]/8h[4:1],2/7,
{4}2,3,4,5,
{4}7,6,5,4,
{4}1,2,3,4,
{4}5,6,7,8,
{1}1s5[2:1],
{1}7^4[4:1],
{1}2^5[4:1],
{1}8z4[2:1],
{4}2,2,3,3,
{4}4,4,5,5,
{4}6,6,7,7,
{4}1/8,1/8,2b/7b,,
{4}3,3/4,6,5/6,
{4}3,2/4,6,5/7,
{4}2,1/3,7,6/8,
{4}1/2,1/8,7/8,,
{4}6h[4:1],5,5/6,4/7,
{4}3h[4:1],4,3/4,2/5,
{4}5/6,4/7,3/4,2/5,
{4}1/8,1^4[4:1]/8^5[4:1],,,
{4}5,6,7,8,
{4}1,2,3,4,
{1}6<3[2:1],
{4}4/5,4/5,2b/7b,,
{4}3,4,3,2/4,
{4}6,5,6,5/7,
{4}1,8,2/7,2/7,
{1}1^4[4:1]/8^5[4:1],
{4}7,8,7,6/8,
{4}2,1,2,1/3,
{4}5,4,3/6,3/6,
{1}4^1[4:1]/5^8[4:1],
{4}2/7,3/6,4b/5b,
E
&inote_4=(135.0){1},
{16}3,,,,4/5,,,,6h[16:3],,,5h[16:3],,,4,,
{8}3,4,3,,,,,,
{16}6,,,,4/5,,,,3h[16:3],,,4h[16:3],,,5,,
{8}6,5,6,,1/8,,2/7,,
{16}3,,,,4/5,,,,6h[16:3],,,5h[16:3],,,4,,
{8}3,4,3,,,,,,
{16}5,,,,4/6,,,,3h[16:3],,,4h[16:3],,,5,,
{8}6,5,6pp2[8:3],,,,,,
{8}1,,2/8,,7,8,7,,
{8}8,,1/7,,2,1,2,,
{8}2,,1/3,,7,8,7,,
{1}1s5[2:1],
{8}2-5[8:1]/8-5[8:1],,,,,3,4,2/5,
{16}6,,5,,7h[16:3],,,8,,,1/2,,3/8,,,,
{8}1-4[8:1]/7-4[8:1],,,,,6,5,4/7,
{16}3,,4,,2h[16:3],,,1,,,7/8,,1/6,,,,
{8}2-5[8:1]/8-5[8:1],,,,,3,4,2/5,
{16}6,,5,,7h[16:3],,,8,,,1/2,,3/8,,,,
{8}1-4[8:1]/7-4[8:1],,,,,6,5,4/7,
{16}3,,4,,2h[16:3],,,1,,,7/8,,2/5,,,,
{16}5h[16:3],,,4h[16:3],,,3,,,,2,,2,,,,
{16}4h[16:3],,,5h[16:3],,,6,,,,7,,7,,,,
{16}5h[16:3],,,3h[16:3],,,1,,,,8,,8,,,,
{16}4h[16:3],,,6h[16:3],,,8,,,,1,,1,,,,
{16}5h[16:3],,,4h[16:3],,,3,,,,2,,1/3,,,,
{16}4h[16:3],,,5h[16:3],,,6,,,,7,,6/8,,,,
{2}1-5[8:1],7-4[8:1],
{2}2-5[8:1],7-3[8:1],
{1}2b/4bw8[2:1],
{4}1-5[8:1],7-4[8:1],2-5[8:1],7,
{2}1-5[8:1]/2-6[8:1],7-3[8:1]/8-4[8:1],
{16}2h[16:3],,,3h[16:3],,,4,,7h[16:3],,,6h[16:3],,,5,,
{2}7-3[8:1]/8-4[8:1],1-5[8:1]/2-6[8:1],
{16}7h[16:3],,,6h[16:3],,,5,,2h[16:3],,,3h[16:3],,,4,,
{16}4h[16:3],,,5h[16:3],,,6,,,,7,,6,,5,,
{16}5h[16:3],,,4h[16:3],,,3,,,,2,,3,,4,,
{16}3h[16:3],,,4h[16:3],,,2,,6h[16:3],,,5h[16:3],,,7,,
{16}2h[16:3],,,1h[16:3],,,3,,4/6,,,,,,,,
{4}2q6[8:1]/6q2[8:1],,4b/8b,2/6,
{4}3p7[8:1]/7p3[8:1],,1b/5b,3/7,
{4}5/6,3/4,5/7,2/4,
{2}1-4[8:1]/8-5[8:1],2/7,
{8}7/8,,1/6,,3,4,2/5,,
{8}1/2,,3/8,,6,5,4/7,,
{2}6-1[8:1],2-5[8:1],
{2}7/6-1[8:1],2/3-8[8:1],
{16}1h[16:3],,,8h[16:3],,,7,,8h[16:3],,,1h[16:3],,,2,,
{16}1h[16:3],,,8h[16:3],,,6,,8h[16:3],,,1h[16:3],,,3,,
{4}1-6[8:1],8-3[8:1],2-6[8:1],7-3[8:1],
{4}2,1/3,7,6/8,
{1}3/7>4[2:1],
{4}7,6/8,2,1/3,
{1}6/2<5[2:1],
{4}2,1/3,7,6/8,
{2}1v2[8:1],8v7[8:1],
{2}2v3[8:1],7v6[8:1],
{4}3v4[8:1],6,6v5[8:1],3,
{8}4,4,5,5,2/7,,1/8,,
{2}2-5[8:1]/6-1[8:1],3-8[8:1]/7-4[8:1],
{16}3h[16:3],,,1h[16:3],,,8,,6h[16:3],,,8h[16:3],,,1,,
{2}2-5[8:1]/6-1[8:1],3-8[8:1]/7-4[8:1],
{16}6h[16:3],,,8h[16:3],,,1,,3h[16:3],,,1h[16:3],,,8,,
{16}6h[16:3],,,4h[16:3],,,2,,,,1/2,,3/4,,2/5,,
{16}3h[16:3],,,5h[16:3],,,7,,,,7/8,,5/6,,4/7,,
{16}5h[16:3],,,3h[16:3],,,2,,4h[16:3],,,6h[16:3],,,7,,
{16}5h[16:3],,,3h[16:3],,,2,,4/7,,,,,,,,
{4}1q5[8:1]/5q1[8:1],,3b/7b,1/5,
{4}3p7[8:1]/7p3[8:1],,1b/5b,3/7,
{4}7/8,1/2,6/8,1/3,
{4}4-1[8:1]/5-8[8:1],,3/6,1/8,
{8}1,2,3,4,3/5,2/6,1/7,,
{8}8,7,6,5,4/6,3/7,2/8,,
{8}1,2,3,4,3/5,2/6,1/7,,
{2}2q6[8:1]/6q2[8:1],4bp8[8:1]/8bp4[8:1],
{8}6,5,4,3,2/4,1/5,6/8,,
{8}3,4,5,6,5/7,4/8,1/3,,
{8}6,5,4,3,2/4,1/5,
{4}8/6<5[4:3],{1},
{16}5,4,5,4,,4/5,,3/6,,,
{1}6b/3bq6[4:3],,
E
&inote_5=(135.0){1},
{2}2-5[8:1]/6-1[8:1],3-8[8:1]/7-4[8:1],
{2}1s5[4:1],6h[16:3],
{2}3-8[8:1]/7-4[8:1],2-5[8:1]/6-1[8:1],
{4}8w4[8:1],,2/7,4/5,
{2}3-8[8:1]/8-5[8:1],1-4[8:1]/6-1[8:1],
{2}8z4[4:1],3h[16:3],
{2}4-1[8:1]/7-4[8:1],2-5[8:1]/5-8[8:1],
{2}1w5[8:1],2b/7b,
{16}7,,6,,5,,2,2,,8,,4,,6,6,,
{16}2,,3,,4,,7,7,,1,,5,,3,3,,
{16}7,,6,,5,,2,2,,8,,4,,6,6,,
{16}3,3,,4/5,,2/7,,1h[16:3]/8h[16:3],,,,,2/7,2/7,,,
{16}1b-6[8:1]/2b-5[8:1],,,1/2,,,,,,,3/4,,5,5,,,
{16}1/2,,6/8,,4/5,4/5,,3h[16:3],,,1,,5/6,,7/8,,
{16}1b^6[8:1]/2b^5[8:1],,,1/2,,,,,,,7/8,,6,6,,,
{16}1/5,,4/7,,1/2,1/2,,7h[16:3],,,8,,4/6,,1/3,,
{16}7b-4[8:1]/8b-3[8:1],,,7/8,,,,,,,5/6,,4,4,,,
{16}7/8,,1/3,,4/5,4/5,,6h[16:3],,,8,,3/4,,1/2,,
{16}7b^4[8:1]/8b^3[8:1],,,7/8,,,,,,,1/2,,3,3,,,
{16}4/8,,2/5,,7/8,7/8,,2h[16:3],,,1,,3/5,,6/8,,
{16}3h[16:3],,,2h[16:3],,,1^4[8:1],,,,5,,6,,7/8,,
{16}6h[16:3],,,7h[16:3],,,8^5[8:1],,,,4,,3,,1/2,,
{16}4h[16:3],,,2h[16:3],,,8-4[8:1],,,,1,,1,,3/7,,
{16}5h[16:3],,,7h[16:3],,,1bw5[8:1],,,,,,,,,,
{16}8/7h[16:3],,,6h[16:3],,,5-1[8:1],,,,8,,2,,3/8,,
{16}1/2h[16:3],,,3h[16:3],,,4-8[8:1],,,,1,,7,,1/6,,
{16}7/5h[16:3],,,4,,,3/8,,2/4h[16:3],,,5,,,1/6,,
{16}3/8h[16:3],,,7,,,3/4,,6/1h[16:3],,,2,,,5/6,,
{16}2/4,,,5/7,,,3/6,,1/8,,2,7,3,6,4,5,
{4}6b/3b-8[8:1],7-3[8:1],2-5[8:1],6,
{16}1/8,,6,5,,3,4,,7,5,,2,4,,5/7,,
{16}4/2-5[8:1],,,2,,,8,,5/7-3[8:1],,,7,,,1,,
{16}4/5,,2,1,,7,8,,3,1,,6,8,,2/4,,
{16}5/7-4[8:1],,,7,,,1,,4/2-6[8:1],,,2,,,8,,
{16}3/1-4[8:1],,,1/8-5[8:1],,,6,,,,7,,4/5,,1/2,,
{16}6/8-5[8:1],,,8/1-4[8:1],,,3,,,,2,,4/5,,7/8,,
{16}1/3h[16:3],,,4,,,1/8,,8/6h[16:3],,,5,,,1/8,,
{16}1/3h[16:3],,,4,,,1/8,,2b/7b,,3,5,4,6,5,7,
{16}1-4[8:1]*-6[8:1],,,,,,,,3/5h[16:3],,,7,,,2/8,,
{16}6/4h[16:3],,,2,,,1/7,,6/8,,,1/3,,,4/5,,
{16}2b/7b,,,,5/6,,,,2,1,,4/7,,1/5,,3/7,
{4}3p7[8:1]/7p3[8:1],,1/8,5,
{16}2,1,2,1,2h[8:3],,1,1,,7,7,,5,4,5,4,
{16}7,8,7,8,7h[8:3],,8,8,,2,2,,4,5,4,5,
{16}2,1,3,8,4,5,3,6,8,7,1,6,4,5,2,7,
{2}1>7[4:1],8z4[8:1],
{16}3,3,4,3,3,5,2,2,6,6,5,6,6,4,7,7,
{16}2,2,4,2,2,6,1,1,7,7,5,7,7,3,8,8,
{12}4/8,
{995}7,,,,,,,,,,,,,,,,,,,,,,,,,,,,,,,,,,,,,,,,,,,,,,,,,,,,,,,,,,,,,,,,,,,,,,,,,,,,,,,,,,,
{12}6,1/5,
{995}2,,,,,,,,,,,,,,,,,,,,,,,,,,,,,,,,,,,,,,,,,,,,,,,,,,,,,,,,,,,,,,,,,,,,,,,,,,,,,,,,,,,
{12}3,4/8,
{995}7,,,,,,,,,,,,,,,,,,,,,,,,,,,,,,,,,,,,,,,,,,,,,,,,,,,,,,,,,,,,,,,,,,,,,,,,,,,,,,,,,,,
{12}6,1/5,
{995}2,,,,,,,,,,,,,,,,,,,,,,,,,,,,,,,,,,,,,,,,,,,,,,,,,,,,,,,,,,,,,,,,,,,,,,,,,,,,,,,,,,,
{12}3,
{4}4/8,1/5,2/6,3/7,
{1}4/8<1[2:1],
{16}2,,,3,,,4,,7,,,6,,,5,,
{1}1>8[2:1],
{16}3/1h[16:3],,,8h[16:3],,,6,,5/4w8[8:1],,,,,,,,
{4}5/6,3/4,5/7,2/4,
{4}6/8,1/3,7/8,1/2,
{8}7/8,6,1/2,3,1/7,5,2/8,4,
{16}4/5,,,1/3,,,6/8,,2-5[8:1]/7-4[8:1],,,,2b/7b,,,,
{16}7/8,,3,4,,7,8,,3,5,,2,1,,5/6,,
{16}1/3-8[8:1],,,3/4,,,7,,6/8-5[8:1],,,1/8,,,4,,
{16}1/2,,6,5,,2,1,,6,4,,7,8,,3/4,,
{16}8/6-1[8:1],,,5/6,,,2,,3/1-4[8:1],,,1/8,,,5,,
{16}7/1-6[8:1],,,1/2-5[8:1],,,4,,,,6,,4/6,,2/4,,
{16}2/8-3[8:1],,,8/7-4[8:1],,,5,,,,3,,3/5,,5/7,,
{16}3/1h[16:3],,,8,,,4/5,,6/8h[16:3],,,1,,,4/5,,
{16}3/1h[16:3],,,8,,,4/5,,2b/7b,,6,4,5,3,4,2,
{16}8-3[8:1]*-5[8:1],,,,,,,,6/4h[16:3],,,2,,,1/7,,
{16}3/5h[16:3],,,7,,,2/8,,1/3,,,6/8,,,4/5,,
{16}2b/7b,,,,3/4,,,,7,8,,2/5,,4/8,,2/6,
{4}2q6[8:1]/6q2[8:1],,1/8,4b,
{16}2,,3,,4,,6,6,,3/4,,2/5,3,4,3,4,
{16}2,,1,,8,,3,3,,1/2,,4/7,6,5,6,5,
{16}8,,1/2,,3/4,,6,6,,2/5,,4/7,2,1,2,1,
{16}3h[16:3],,,4,,,1/7,,6h[16:3],,,5,,,2/8,,
{16}7,,6,,5,,3,3,,5/6,,4/7,6,5,6,5,
{16}7,,8,,1,,6,6,,7/8,,2/5,3,4,3,4,
{16}1,,7/8,,5/6,,3,3,,4/7,,2/5,7,8,7,8,
{16}6,6,,2/4,,5/7,,1h[16:3]/8h[16:3],,,,,2/7,2/7,,,
{16}4,5,4,5,,1/8,,2-6[8:1]/7-3[8:1],,,2/7,,,,
E
