&title=洗脳
&artist=ゆりん・柿チョコ×Neru
&wholebpm=125
&demo_seek=45.4
&demo_len=16
&lv_1=1
&lv_2=4
&lv_3=7
&lv_4=10+
&lv_5=12
&lv_6=12+
&des_4=rioN
&des_5=Jack
&des_6=Jack
&inote_1=(125.0){1},,,,,,,
{1}7,
{1}7,
{1}8,
{1}8,
{1}1,
{1}1,
{1}2,
{1}2,
{1}3h[1:1],,
{1}4h[1:1],,
{1}5h[1:1],,
{1}6h[1:1],,,
{1}6,
{1}6,
{1}5,
{1}5,
{1}4,
{1}4,
{1}3,
{1}3,
{1}4,
{1}4/5,
{1}5-8[4:3],,
{1}1-4[4:3],,
{1}5,
{1}6,
{1}7,
{1}8,
{1}1/8,
{1}2-7[4:3],,
{1}6-3[4:3],,
{1}2h[1:1],,
{1}1h[1:1],,
{2}8,8,
{1}8,
{2}1,1,
{1}1,
{2}2,2,
{1}2,
{2}3,3,
{1}3,
{2}4,4,
{1}4b,
{1}3,
{1}2,
{1}1,
{1}8,
{1}7,
{1}6,
{1}5,
{1}4,
{1}5,
{1}4/5,
E
&inote_2=(125.0){1},
{2}1,1,
{4}2,2,2,,
{2}3,3,
{4}4,4,4/5,,
{1}4h[4:3]/5h[4:3],
{1}4b/5b,
{2}5,5,
{4}6,6,6,,
{2}7,7,
{4}8,8,1/8,,
{4}1,1,1,,
{4}2,2,2,,
{4}3,3,3,,
{4}4,5,4,,
{1}5-8[4:3],,
{1}4-1[4:3],,
{4}1,1,1/2,,
{4}8,8,7/8,,
{2}1/8,1/8,
{1}1-4[4:3]/8-5[4:3],,
{2}3/4,3/4,
{4}3,4,3,,
{2}5/6,5/6,
{4}6,5,6,,
{2}7/8,7/8,
{4}7,8,7,,
{2}1/2,1/2,
{1}1h[2:1]/2h[2:1],
{2}2/8,1/7,
{1}2h[2:1]/7h[2:1],
{1}1-4[4:3],,
{1}8-5[4:3],,
{4}4,4,3/5,,
{4}5,5,4/6,,
{4}4,4,5,5,
{1}4h[2:1]/5h[2:1],
{1}3h[2:1]/6h[2:1],
{2}4,4,
{2}5,5,
{2}3,3,
{1}6h[2:1],
{2}7,7,
{2}8,8,
{2}1,1,
{1}2h[2:1],
{4}1/2,1/2,1/8,1/8,
{4}1,8,1,,
{4}7/8,7/8,1/8,1/8,
{1}1h[2:1]/8h[2:1],
{4}2/8,2/8,1/7,1/7,
{4}1,8,1,,
{4}8,8,7,7,
{1}5h[2:1]/6h[2:1],
{2}3/4,5/6,
{1}3h[2:1]/6h[2:1],
{4}4,4,4,,
{4}3,3,3,,
{4}2,2,2,,
{4}1,8,1,,
{4}8,8,8,,
{4}7,7,7,,
{4}6,6,6,,
{4}5,4,5,,
{2}4h[4:3],5h[4:1],
{4}4,5,4,4b/5b,
E
&inote_3=(125.0){1},
{4}3,3,4,,
{4}6,6,5,,
{4}3,4,3,,
{4}6,5,6,,
{1}2>7[2:1],
{4}1/8,2/7,,,
{4}3,4,3,2/5,
{4}6,5,6,4/7,
{4}3,4,3/4,2/5,
{4}6,5,4/7,,
{4}2,1,1/2,3/8,
{4}7,8,7/8,1/6,
{4}2,1,3/8,4/7,
{4}8,1/7,2/6,,
{2}7h[2:1],6h[2:1],
{1}5-1[4:1],
{2}2h[2:1],3h[2:1],
{1}4-8[4:1],
{2}5/6,3/4,
{2}5/7,2/4,
{2}8-4[4:1],1-5[4:1],
{1}8z4[2:1],
{16}2h[4:1]/7h[4:1],,,,,,,2b/7b,,,,,,,,,
{4}3,2/4,6,5/7,
{4}3/4,2/5,1/6,,
{4}7,6/8,2,1/3,
{1}7/2z6[2:1],
{4}6,5/7,3,2/4,
{4}5/6,4/7,3/8,,
{4}2,1/3,7,6/8,
{1}2/7s3[2:1],
{2}3h[4:1]/4h[4:1],5h[4:1]/6h[4:1],
{1}4-1[4:1]/5-8[4:1],
{2}2h[2:1],3h[2:1],
{4}4h[2:1],,5,5,
{2}7h[2:1],6h[2:1],
{2}5h[2:1],4,
{4}3h[4:1],4,6h[4:1],5,
{4}2h[4:1],3,7h[4:1],6,
{4}2h[4:1],1,7h[4:1],8,
{1}1>8[2:1],
{1}1-4[4:1]/8-5[4:1],
{4}1,2,3,4,
{4}5,4,3/5,,
{4}7,6,5,4,
{1}3>6[2:1],
{4}8,7,6,5,
{4}4/5,3/6,2/7,,
{4}2,3,4,5,
{1}6<3[2:1],
{4}1,2/8,8,1/7,
{4}5/6,3/4,6/8,,
{4}2,3/8,7,1/6,
{1}5/2pp6[2:1],
{4}8,1/7,1,2/8,
{4}3/4,5/6,1/3,,
{4}7,1/6,2,3/8,
{1}4/7qq3[2:1],
{2}2h[4:1]/4h[4:1],5h[4:1]/7h[4:1],
{1}1^4[4:1]/8^5[4:1],
{4}2,3,4,5,
{4}6,7,1/8,,
{4}7,6,5,4,
{4}3,2,1/8,,
{4}3,3/4,6,5/6,
{4}2,1/2,7,7/8,
{4}1,2,3,4,
{4}5,6,7,8,
{2}1^4[4:1],8^5[4:1],
{4}1-5[4:1],,,2b/7b,
E
&inote_4=(125.0){1},
{4}2h[4:1],3h[4:1],4h[4:1],5,
{4}7h[4:1],6h[4:1],5h[4:1],4,
{4}1h[4:1],3h[4:1],5h[4:1],7,
{4}8h[4:1],6h[4:1],4h[4:1],2,
{1}1>8[2:1],
{4}4/5,2/7,,,
{8}3,3,5,5,4,,2/8,,
{8}6,6,4,4,5,,1/7,,
{8}2,2,4,4,3,,7/8,,
{8}7,7,5,5,6,,1/2,,
{8}3,3,4,4,3/5,,4/8,,
{8}6,6,5,5,4/6,,1/5,,
{8}2,2,3,4,5/6,,1/4,,
{8}7,7,6,5,3/4,,5/8,,
{8}6h[8:3],,,7,7h[8:3],,,8,
{1}8^3[4:1]*^5[4:1],
{8}3h[8:3],,,2,2h[8:3],,,1,
{1}1^4[4:1]*^6[4:1],
{8}5/6,5/6,,,3/4,3/4,,,
{8}6/8,6/8,,,1/3,1/3,,,
{2}8p4[4:1],1q5[4:1],
{1}6<3[2:1],
{16}3/6,,3/6,,4,5,,2b/7b,,,,,1q5[8:1],,,,
{8}7h[4:1],,6,5,4,3/5,4,6,
{8}5/7,4/6,3/5q1[8:1],,2,,2q6[8:1],,
{8}7,,8,4,6,2,5,3,
{4}7<2[4:1],,,8p4[8:1],
{8}2h[4:1],,3,4,5,4/6,5,3,
{8}2/4,3/5,6/4p8[8:1],,7,,7p3[8:1],,
{8}2,,1,5,3,7,4,6,
{8}2>7[4:1],,,,,,1,2/8,
{8}3/7,,8,1/7,2/6,,4/5,3/6,
{4}2b/7b,,2/4,5/7,
{8}8/1^4[8:1],,,7,7^4[8:1],,,1,
{1}1pp6[8:3],
{8}1/8^5[8:1],,,2,2^5[8:1],,,8,
{1}8qq3[8:3],
{8}1/8,7,6,5,4,,6/8,,
{8}1/8,2,3,4,5,,1/3,,
{16}1/8,,2,,7,,3,,6h[16:3],,,5h[16:3],,,4,,
{8}3>6[8:3],,,,,,,4/5,
{4}4p8[4:1]/5q1[4:1],,,3h[4:1],
{8}4,,6,5,6,,3,4,
{8}2,,5,4,4/5,,6h[4:1],,
{8}5,,3,4,3,,6,5,
{4}7^2[4:1],,,3h[4:1],
{8}4,,6,5,4/7,,3,4,
{8}2/5,,4/5,,4/7,,5,4/6,
{8}3/7,,4,3/5,2/6,1/8,2/7,3/6,
{8}4,4,5,5,2b/7b,,1p5[8:1]/2q6[8:1],,
{8},,7,8,1/7,2/6,3/5,4,
{8}8,1,2/5,3/6,4p8[8:1]/7p3[8:1],,,,
{8}5/2h[4:1],,3,4,4/7h[4:1],,6,5,
{4}3V15[4:1]/6V84[4:1],,,7p3[8:1]/8q4[8:1],
{8},,2,1,2/8,3/7,4/6,5,
{8}1,8,4/7,3/6,2q6[8:1]/5q1[8:1],,,,
{8}4/7h[4:1],,6,5,5/2h[4:1],,3,4,
{1}3qq8[2:1]/7qq4[2:1],
{2}2h[4:1]/5h[4:1],4h[4:1]/7h[4:1],
{1}2pp5[2:1]/6pp1[2:1],
{8}2,2,5,3,6h[4:1],,5,5,
{8}7,6,5,4,3,,1/6,,
{8}2,3,4,3/5,7,6,5,4/6,
{4}3-8[8:1],6-1[8:1],4,2/5,
{8}7,7,4,6,3h[4:1],,4,4,
{8}2,3,4,5,6,,3/8,,
{8}7,6,5,4/6,2,3,4,3/5,
{4}6-1[8:1],3-8[8:1],5,4/7,
{2}8w4[8:1],1w5[8:1],
{4}3<8[4:1]/6>1[4:1],,,2b/7b,
E
&inote_5=(125.0){1},
{16}4/5,,3,4,3qq5[4:1],,7,,7,,,,,,6,,
{8}4/5,3,2>7[4:1],1,8,,,2/7,
{8}1/8,7,6<3[4:1],5,4,,,3/6,
{16}4/5,,6,5,6pp4[4:1],,2,,2-5[8:1],,,,,,,,
{8}7h[4:3],,6,5,4,3,2,1/8,
{4}1pp4[2:1]/8qq5[2:1],1b/8b,,,
{8}4/3h[4:1],,5,4/6,7h[4:1],,8,,
{16}5/6h[4:1],,,,4,,3/5,,2h[4:1],,,,1,,3,4,
{8}3h[4:1],,5,4/6,7h[4:1],,8,,
{16}6/5h[16:3],,,4h[16:3],,,3,,3h[4:1],,4,,4,,6,5,
{8}6,7,8,1h[8:3],7,6,5,,
{8}7,5,2,4,6,3,4/5,,
{8}3,2,1,8h[8:3],2,3,4,,
{16}2/6,,1/5,,4v2[8:1]/8v6[8:1],4/8,,,,,,,,,1,,
{8}1^4[8:1],,,6h[4:1],5,2h[4:1],3,7h[4:1],
{16}8,,6>8[4:1],6,,,,,,,,,,,8,,
{8}8^5[8:1],,,3h[4:1],4,7h[4:1],6,2h[4:1],
{16}1,,3<1[4:1],3,,,,,,,,,,,1/2,,
{8}3,4/5,6>1[4:1],7,8,,,7/8,
{8}6,4/5,3<8[4:1],2,1,,,1/8,
{16}2h[8:1]/7h[8:1],,,2/7,,,1/8,,2h[8:1]/4h[8:1],,,5h[8:1]/7h[8:1],,,4,,
{4}4>5[8:3],,,4/5,
{16}1/8,1/8,2/7,,4/5,4/5,,2b/7b,,,,,1/8,1/8,,,
{16}2/7h[4:1],,4,,8,,1/6,,3/8,,2,1,2,,5/6,,
{16}4/7,,2/5,,7-3[8:1]/8-4[8:1],7/8,,,,,,,1/6,,,,
{8}7^4[8:1],4,3,2,1^4[8:1],8,7,6,
{16}5-1[8:1],,5,,3-7[8:1],,3,,8,,,,1/8,1/8,,,
{16}7/2h[4:1],,5,,1,,3/8,,1/6,,7,8,7,,3/4,,
{16}2/5,,4/7,,1-5[8:1]/2-6[8:1],1/2,,,,,,,3/8,,,,
{8}2^5[8:1],5,6,7,8^5[8:1],1,2,3,
{8}4-8[8:1],4,6-2[8:1],6,1-5[8:1],1,8,7,
{16}6h[4:1],,,,5,,6,,7/8,,6,5,6,,3/4,,
{8}1/2,7/8,5/6,3/4,1-6[8:1]/2-5[8:1],,1b/2b,,
{2}8qq8[4:1],1pp1[4:1],
{16}8-4[8:1],,,,1,,2,,3/4h[16:3],,,5h[16:3],,,6,,
{2}6pp4[4:1],3qq5[4:1],
{8}6h[8:1],5,3h[8:1],4,4/5,,1,8,
{16}2,,3,,4,,5,5h[16:3],,,4,,3,,2,,
{16}7,,6,,5,,4,4h[16:3],,,5,,6,,7,,
{16}6/8,,2,,1/3,,4/8,,5h[8:1]/7h[8:1],,,2h[8:1]/4h[8:1],,,5,,
{16}5<4[8:3],,,,,,,,,,,,,,1,8,
{16}1p8[4:1],,,,,,,,,,,,5,5h[16:3],,,
{16}4h[4:1],,,,5,,4,,7,,3,4,3,,2,,
{16}3,,4,,5,5h[16:3],,,4,,,,3^6[8:1],,,,
{8}7,,,6,6^3[8:1],,2,,
{16}3/4,,,,4/5,,,,5/6,,,,4,4h[16:3],,,
{16}5h[4:1],,,,4,,5,,2,,6,5,6,,7,,
{16}6,,5,,1,1h[16:3],,,8,,,,6^3[8:1],,,,
{8}2,,,3,3^6[8:1],,7,,
{16}5/6,,1/8,,3/4,,1/8,,6/5-1[8:1],,,,8,8,,,
{16}6/2h[4:1],,8,,4,,3/5,,4/6,,7,8,7,,1/2,,
{16}3/8,,1/6,,3-7[8:1]/4-8[8:1],3/4,,,,,,,2/5,,,,
{8}3^8[8:1],8,7,6,5^8[8:1],4,3,2,
{16}1-5[8:1],,1,,7-3[8:1],,7,,4,,,,1/8,1/8,,,
{16}3/7h[4:1],,1,,5,,4/6,,3/5,,2,1,2,,7/8,,
{16}1/6,,3/8,,5-1[8:1]/6-2[8:1],5/6,,,,,,,4/7,,,,
{8}6^1[8:1],1,2,3,4^1[8:1],5,6,7,
{8}8-4[8:1],8,2-6[8:1],2,5-1[8:1],5,4,3,
{16}2h[4:1],,,,1,,2,,3/4,,5,4,5,,2/7,,
{8}1/8,2/3,4/5,6/7,1-5[8:1]/8-4[8:1],,1b/8b,,
{16}3,,4,,2/5,,1,8,1,,7/8,,1/6h[4:1],,,,
{16}5,,6,,4/7,,8,1,8,,1/2,,3/8-4[8:1],,,,
{16}1,,2,,3/4,,6,5,6,,3/4,,2/5,,,,
{8}3-8[8:1],4,5,6,7-4[8:1],2,2,,
{8}3/4-8[8:1],2,1,,8/1-5[8:1],7,6,,
{8}6/5-1[8:1],7,8,,2/7,3/6,4^1[8:1]/5^8[8:1],,
{8},,7,6/8,5,4/6,3,2/4,
{16}1-5[8:1],,8,,7,,6,,4/7,,2/5,,4,5,4,5,
{4}3qq5[4:1],7,6pp4[4:1],2,
{8}3-7[8:1],3,5-1[8:1],5,8w4[8:1],,8b,,
E
&inote_6=(125.0){1},
{16}3,,4,,2/5,,6,5,6,,7,,1/8,,2/7,,
{16}6,,5,,4/7,,3,4,3,,2,,8/1-6[8:1],,,,
{8}1/6,7,8-3[8:1],,3/8,2,1-5[8:1],,
{8}1/8-4[8:1],,1/8,,4-1[8:1]/5-8[8:1],3/6,4/5,,
{8}2h[16:3]/7h[16:3],,2/7,2/7,3/6,3/6,4/5,4/5,
{8}1pp4[2:1]/8qq5[2:1],,1b/8b,,,,,2,
{16}1,,8,,7,7h[16:3],,,5>1[8:1],,,,6,,7,,
{16}8,,1,,2,2h[16:3],,,4<8[8:1],,,,3,,2,,
{16}1,,8,,7,7h[16:3],,,5p4[4:1],,,,6,,7,,
{8}8,1,2q7[8:1],,8^3[8:1]*^5[8:1],,,,
{16}4,,5,,6,6h[16:3],,,8>4[8:1],,,,7,,6,,
{16}5,,4,,3,3h[16:3],,,1<5[8:1],,,,2,,3,,
{16}4,,5,,6,6h[16:3],,,2,,,,1/5,,2/6,,
{16}3/7,,4/8,,1p3[8:1]/5p7[8:1],1/5,,,,,,,4/8,,,,
{8}2/6h[4:1],,5,4/7h[4:1],,8,1/6-1[8:1],,
{8}3h[4:1],,4,5/2h[4:1],,1,8/3-8[8:1],,
{8}6h[4:1],,5,7/4h[4:1],,3,5/2-6[8:1],,
{16}7h[4:1],,,,8,,6/1h[4:1],,,,2,,7/8,,1,8,
{16}1,,5/6,,3/4,,7,8,1/6,,3/8,,,,8,1,
{16}8,,3/4,,5/6,,2,1,3/8,,1/6,,4/5,,2,4,
{16}3,,7,5,6,,4/8<4[4:1],,3,,2,,1,,8,,
{16}1/5,,4/8,,2/7,,1,8,1,,2/4,,5/7,,3/6,,
{16}1/8,1/8,2/7,,4/5,4/5,,2b/7b,,,,,1/8,1/8,,,
{16}7/2h[4:1],,5,,1,,3/8,,1/6,,7,8,7,,3/4,,
{16}2/5,,4/7,,1^6[8:1]/2^5[8:1],1/2,,,1/2,,,,3/8,8/3h[16:3],,,
{16}4h[4:1],,,,5,,5/6,,7/8,,2,1,2,,3/8,,
{16}6,5,6,,2/7,,3,4,3,4,3,,1/8,1/8,,,
{16}2/7h[4:1],,4,,8,,1/6,,3/8,,2,1,2,,5/6,,
{16}4/7,,2/5,,7^4[8:1]/8^3[8:1],7/8,,,7/8,,,,1/6,,3/8,,
{16}2/7h[4:1],,,,8,,7,,1/6,,2,1,2,,3/8,,
{16}4h[4:1],,5,,5,,7,8,7,,1/6,,2,5,4,7,
{16}3h[4:1],,,,4,,3,,1/2,,3,4,3,,5/6,,
{8}7/8,1/2,3/4,5/6,7-4[8:1]/8-3[8:1],,7b/8b,,
{16}1h[16:3]/8h[16:3],,,,1/8,,2,,2h[16:3],,,3h[16:3],,,4,,
{16}4h[8:1],,5,4,,,,,7,,6,,4/5,4/5,,,
{16}1h[16:3]/8h[16:3],,,,1/8,,7,,7h[16:3],,,6h[16:3],,,5,,
{8}5h[4:1],2,4h[4:1],7,5-2[8:1]*-8[8:1],3/7,,,
{16}1,,2/8,,3/7,,6,5,6,,4/7,,2/5,,8,1,
{16}8,,1/7,,2/6,,3,4,3,,2/5,,4/7,,2,1,
{16}2,,7,8,7,,5/1>5[4:1],,6,,7,,8,,1,,
{16}4/8,,1/5,,3/6,,4,5,4,,1/3,,6/8,,2/7,,
{8}4/5p4[4:1],,,2^7[8:1],,4,5,6,
{8}7/2h[8:3],,,1,1-6[8:1],,2-5[8:1],,
{16}7h[8:3],,,,,,8,,1/6,,,,5,5h[16:3],,,
{16}4h[4:1],,,,5,,4,,6,,4,5,4,,3,,
{8}2h[2:1],4,5,6,7h[4:1],,8-3[8:1],,
{8}7-4[8:1],,2h[4:1],,6,3/7,4/8-4[8:1],,
{8}8/2-6[8:1],,2/5-1[8:1],,4/5,,2,3,
{16}4h[4:1],,,,5,,4,,2/7,,4,5,4,,5/6,,
{16}3/4,,1/8,,5/6,,1/8,,3/4-8[8:1],,,,1,1,,,
{16}6/2h[4:1],,8,,4,,3/5,,4/6,,7,8,7,,1/2,,
{16}3/8,,1/6,,3^8[8:1]/4^7[8:1],3/4,,,3/4,,,,1/6,1/6h[16:3],,,
{16}5h[4:1],,,,4,,2/4,,5/7,,4,5,4,,3/6,,
{16}7,8,7,,4/5,,2,1,2,1,2,,1/8,1/8,,,
{16}3/7h[4:1],,1,,5,,4/6,,3/5,,2,1,2,,7/8,,
{16}1/6,,3/8,,5^2[8:1]/6^1[8:1],5/6,,,5/6,,,,3/8,,1/6,,
{16}7/2h[4:1],,,,1,,2,,3/4,,6,5,6,,4/7,,
{16}3h[4:1],,1,,1,,6,8,6,,1/8,,4,5,3,6,
{16}2h[4:1],,,,1,,2,,3/4,,1,8,1,,2/7,,
{8}4/5,6/7,1/8,2/3,4-8[8:1]/5-1[8:1],,4b/5b,,
{8}6,5/7,3,2/4,6h[4:1],,5,7/4h[4:1],
{8},7,6/3h[4:1],,4,5h[4:1]/2^5[8:1],,,
{8}6h[8:1],7h[8:1],5h[8:1],8h[8:1],4h[8:1],1h[8:1],3h[8:1],2h[8:1],
{16}1h[4:1],,,,8,,2/7,,3,4,3,,1/8,,6,5,
{16}6,,2/4,,5/7,,3,1,3,,6,8,6,,2/7,,
{16}3,8,3,8,2,7,2,7,1,6,1,6,8h[4:1],,,,
{16}1,,3,4,2,5,1,6,2,7,3,8,4,,2/7,,
{8}3/4,1/8,5/6<3[4:1],4,3,,,4/5,
{16}1/2,,4/5,,7/8,,6,5,7,4,8,3,7,2,6,1,
{8}5-1[16:1],2,4-8[16:1],7,5w1[8:1],,5b,,
E
