&title=東京リアルワールド
&artist=out of service
&wholebpm=150
&demo_seek=42.3
&demo_len=27.7
&lv_1=2
&lv_2=5
&lv_3=7
&lv_4=9
&lv_5=10+
&des_4=Jack
&des_5=はっぴー
&inote_1=(150.0){1},,,
{1}4,
{1}4,
{1}5,
{1}5,
{1}6,
{1}6,
{1}7,
{1}7,
{1}8,
{1}7,
{1}6,
{1}5,
{1}4,
{1}3,
{1}2,
{1}1,
{1}1-4[4:3],,
{1}5-8[4:3],,
{1}8h[1:1],,
{1}1h[1:1],,
{2}8,8,
{1}8,
{2}7,7,
{1}7,
{2}6,6,
{1}6,
{2}5,5,
{1}5,
{2}4,4,
{1}4,
{2}3,3,
{1}3,
{2}2,2,
{1}2,
{2}1,1,
{1}1b,
{1}1-5[4:3],,
{1}8-4[4:3],,
{1}2-6[4:3],,
{1}4/5,
{1}4/5,
{2}4,4,
{1}4,
{2}5,5,
{1}5,
{1}4h[1:1],,
{1}5h[1:1],,
{1}4/5,
{1}3h[1:1],,
{1}4h[1:1],,
{1}5h[1:1],,
{1}6h[1:1],,
{2}7,7,
{1}7,
{2}8,8,
{1}8,
{2}1,1,
{1}1,
{2}2,2,
{1}2,
{2}2,2,
{1}2,
{2}1,1,
{1}1,
{2}8,8,
{1}8,
{2}7,7,
{1}7b,
{1}8-4[4:3],,
{1}1-5[4:3],,
E
&inote_2=(150.0){1},,,
{4}4,4,
{2}4,{1},
{4}5,5,
{2}5,{1},
{4}3/4,3/4,
{2}3/4,{1},
{4}5/6,5/6,
{2}5/6,{1},
{2}4,4,
{2}3,3,
{1}2-5[4:3],,
{2}5,5,
{2}6,6,
{1}7-4[4:3],,
{4}3,3,2,2,
{1}1h[2:1],
{4}8,8,7,7,
{1}6h[2:1],
{4}6,6,7,7,
{1}8h[2:1],
{4}1,8,1,8,
{1}2b/7b,
{4}1,1,8,8,
{4}7,7,7/8,,
{4}6,6,5,5,
{4}4,4,4/5,,
{4}3,3,2,2,
{4}1,1,1/8,,
{1}8h[2:1],
{4}1,1,1/8,,
{4}8,8,1,1,
{4}2,2,1/2,,
{4}3,3,4,4,
{4}5,5,4/5,,
{4}6,6,7,7,
{4}8,8,1/8,,
{1}1h[2:1],
{4}8,8,1b/8b,,
{1}1-5[4:3],,
{1}8-4[4:3],,
{1}2-5[4:3],,
{1}7-4[4:3],,
{1}1h[2:1],
{1}2h[2:1],
{2}3,3,
{1}4h[2:1]/5h[2:1],
{1}5h[2:1],
{1}6h[2:1],
{2}7,7,
{1}1h[2:1]/8h[2:1],
{1}2h[2:1]/7h[2:1],
{2}2,3,
{2}4,4/5,
{2}5,6,
{2}7,7/8,
{2}7,6,
{2}5,4/5,
{2}4,3,
{2}2,1b/2b,
{4}3,3,4,4,
{4}5,5,5/6,,
{4}6,6,7,7,
{4}8,8,1/8,,
{4}2,2,3,3,
{4}4,4,4/5,,
{1}5h[2:1],
{4}4,4,4/5,,
{4}6,6,5,5,
{4}4,4,3/4,,
{4}3,3,2,2,
{4}1,1,1/8,,
{4}7,7,6,6,
{4}5,5,4/5,,
{1}4h[2:1],
{4}5,5,4b/5b,,
{4}4,4,3,3,
{4}2,2,1/8,,
{4}8,8,7,7,
{4}6,6,4/5,4/5,
E
&inote_3=(150.0){1},
{4}3,4,5,,
{4}6,5,4,,
{4}2,3,4,5,
{4}5,4,3/6,,
{4}7,6,5,4,
{4}4,5,3/6,,
{4}3,4,5,6,
{4}6,5,4/7,,
{4}6,5,4,3,
{4}3,4,2/5,,
{4}3,4,3/4,,
{4}6,5,5/6,,
{4}4,5,4/5,4/5,
{1}4-1[4:1]/5-8[4:1],
{4}2,1,1/2,,
{4}7,8,7/8,,
{4}1,8,1/8,7/8,
{1}7-4[4:1]/8-3[4:1],
{4}3,4,2/5,,
{4}6,5,4/7,,
{4}2,2,8,8,
{1}1-5[4:1],
{4}6,5,4/7,,
{4}3,4,2/5,,
{4}3/4,3/4,5/6,5/6,
{1}2b/7b,
{4}1,2,3,4,
{4}5,6,7/8,,
{4}8,1/8,2,1/2,
{4}7,7/8,1b/6b,,
{4}8,7,6,5,
{4}4,3,1/2,,
{4}1,1/8,7,7/8,
{4}2,1/2,3/8,,
{4}8,7,6,5,
{4}4/5,3/6,2/7,,
{4}4,4/5,6,5/6,
{4}3,3/4,2b/5b,,
{4}1,2,3,4,
{4}4/5,3/6,2/7,,
{4}6,5/6,3,3/4,
{4}7,7/8,1b,1b,
{4}7,8,1/6,,
{4}2,1,3/8,,
{4}6,5,4/7,,
{4}3,4,2/5,,
{4}6,5,4/7,,
{4}2,1,3/8,,
{4}7,8,1/6,,
{4}2,8,1/7,,
{1}1-4[4:1]/8-5[4:1],
{1}4-1[4:1]/5-8[4:1],
{4}1,2,3,4,
{4}8,7,6,5,
{1}4-1[4:1]/5-8[4:1],
{1}1-4[4:1]/8-5[4:1],
{4}4,3,2,1,
{4}5,6,7,1/8,
{1}2b/7b,
{1}3h[2:1]/4h[2:1],
{1}7h[2:1]/8h[2:1],
{1}2h[2:1]/3h[2:1],
{1}6h[2:1]/7h[2:1],
{1}5h[2:1]/6h[2:1],
{1}1h[2:1]/2h[2:1],
{1}6h[2:1]/7h[2:1],
{1}2h[2:1]/3h[2:1],
{4}2,1,2,3/8,
{1}3-8[4:1],
{4}7,8,7,1/6,
{4}6,5/6,4/7,3b/8b,
{4}3/4,3/4,5/6,5/6,
{4}7/8,1/6,2/5,3/4,
{4}4,5,4,5,
{4}4,5,3/6,,
{4}7,8,7,1/6,
{1}6-1[4:1],
{4}2,1,2,3/8,
{4}3,3/4,2/5,1b/6b,
{4}5/6,5/6,3/4,3/4,
{4}1/2,3/8,4/7,,
{4}3/4,3/4,5/6,5/6,
{4}7/8,7/8,1/2,1/2,
{1}3qq7[4:3],,
{1}7pp3[4:3],
{4},,1/2,3b/8b,
E
&inote_4=(150.0){1},
{2}4h[2:1],5h[2:1],
{4}4,5,3/6,3/6,
{4}7,8,1/6,,
{4}2,1,3/8,,
{4}7,8,2/5,,
{4}2,1,4/7,,
{4}3,4,2/5,,
{4}6,5,4/7,,
{4}3,4,1/6,,
{4}6,5,3/8-4[8:1],,
{4}3,3/4,6,5/6,
{4}3,2/4,6,5/7,
{8}3/4,,2/5,2^4[8:1]/5^7[8:1],,,,,
{4}8,2/4,1,5/7,
{4}6,5/6,3,3/4,
{4}6,5/7,3,2/4,
{8}5/6,,4/7,4^2[8:1]/7^5[8:1],,,,,
{4}1,5/7,8,2/4,
{4}3h[4:1],4,5h[4:1],4,
{4}5,6,4/7,4/7,
{4}1,5/7,8,4/2>7[2:1],
{4},,,1/8,
{4}6h[4:1],5,4h[4:1],5,
{4}4,3,2/5,2/5,
{8}3,4,3,,6,5,6<3[2:1],,
{4},,,1b/8b,
{4}2,1/3,7,6/8,
{4}1,1/8-6[8:1],,1-5[8:1],
{4}8,7,5/6,3/4,
{4}1/2,7-4[8:1]/8-3[8:1],,1b,
{4}7,6/8,2,1/3,
{4}8,8/1-3[8:1],,8-4[8:1],
{4}1,2,3/4,5/6,
{8}2,4,3,,7,5,6,,
{4}2,1/3,7,6/8,
{4}3,2/4-7[8:1],,3-8[8:1],
{4}7,6,4/5,7/8,
{4}4/5,1-6[8:1]/2-5[8:1],,8b,
{4}7,6/8,2,1/3,
{4}6,7/5-2[8:1],,6-1[8:1],
{4}2,3,4/5,6/8,
{4}1/3,4/5,7b/8b,1b/2b,
{8}8,1,8,,2/7,,,,
{8}3,4,3,,2/5,,,,
{8}6,5,6,,4/7,,,,
{8}2,1,2,,3/8,,,,
{8}7,8,7,,1/6,,,,
{8}2,4,3,,1/6,,,,
{8}7,5,6,,3/8,,,,
{1}2h[2:1]/7h[2:1],
{4}1,2/8,7,5/6,
{4}8,1/7,2,3/4,
{4}5/6,4/7,2/5,3>6[2:1]/4p5[2:1],
{4},,,1/8,
{4}3/4,2/5,4/7,5/6,
{4}7h[4:1],6h[4:1],5h[4:1],4,
{4}2h[4:1],3h[4:1],4h[4:1],5pp4[2:1],
{4},,,3>6[2:1],
{4},,,3/6,
{4}5/4h[1:1],5,5,5,
{4}6h[1:1],5,5,5,
{4}3h[1:1],4,4,4,
{4}5,4-2[8:1]/5-7[8:1],,,
{4}1/8h[1:1],1,1,1,
{4}2h[1:1],1,1,1,
{4}7h[1:1],8,8,8,
{4}1,2/4,5/7,3/6,
{8}2,1,2,,7,8,7,,
{8}4,5,4-1[8:1],,,,5-8[8:1],,
{4}2,1/3,6,5/7,
{4}1/6,3-8[8:1]/4-7[8:1],,1b,
{8}7,8,7,,2,1,2,,
{8}5,4,5-8[8:1],,,,4-1[8:1],,
{4}7,6/8,3,2/4,
{8}5,4,5,4,5,,2/7,,
{8}6,8,6,,3,1,3,,
{8}6,5,6-1[8:1],,,,5-2[8:1],,
{4}8,1/7,6,5/7,
{4}2/4,5-2[8:1]/6-1[8:1],,8b,
{8}3,1,3,,6,8,6,,
{8}3,4,3-8[8:1],,,,4-7[8:1],,
{4}1,2/8,5/7,2/4,
{8}8,1,8,1,8b-5[8:1],,1b-4[8:1],,
{1}8b<1[2:1],
{8}1,8,1,8,1,,4/5,,
{4}2h[4:1],1,7h[4:1],8,
{8}4,5,4,5,4-8[8:1],,,,
E
&inote_5=(150.0){1},,
{16}6,,,,6,,,4,5,,5,,3/6,,,,
{4}5/2-5[8:1],4,4/7-4[8:1],5,
{4}5/2-5[8:1],4,4/7-4[8:1],5,
{4}5/1-5[8:1],4,4/8-4[8:1],5,
{4}5/1-5[8:1],4,3/8,1/6,
{4}4/7-4[8:1],5,5/2-5[8:1],4,
{4}4/7-4[8:1],5,5/2-5[8:1],4,
{4}4/8-4[8:1],5,5/1-5[8:1],4,
{4}4/8,4/5-8[8:1],1-4[8:1],5,
{4}5/6,3/6,5/6,3/6,
{4}3/4,3/6,3/4,6/1^4[8:1]*^6[8:1],
{8},,2/8,2/8,,4/5,4/5,,
{4}3/6-1[8:1],2,4/6-1[8:1],2,
{4}3/4,3/6,3/4,3/6,
{4}5/6,3/6,5/6,3/8pp2[8:1]*qq6[8:1],
{8},,1/7,1/7,,4/5,4/5,,
{4}6/3-8[8:1],7,5/3-8[8:1],7,
{8}6,6,5,4,3,4,5,6,
{8}6,5,4,3,2h[8:1]/8h[8:1],,1h[8:1]/7h[8:1],,
{8}3,3,4,5,6,5,4,3,
{8}3,5,7,4,2,3,5,4,
{8}6,6,5,4,3,4,5,6,
{8}6,5,4,4,3h[8:1]/6h[8:1],,3h[8:1]/6h[8:1],,
{8}5,5,4,4,5,7,4,2,
{4}1b/8b,,,4/5,
{2}3^8[8:1]/6^3[8:1],3^8[8:1]/6^3[8:1],
{8}3/5,5,6/4-2[8:1]*-8[8:1],,,,3/4-8[8:1],,
{8}1,1,3,2h[4:3],,6,7,8h[4:1],
{4},2/8,1/6,3b/8b,
{2}3^6[8:1]/6^1[8:1],3^6[8:1]/6^1[8:1],
{8}4/6,4,3/5-1[8:1]*-7[8:1],,,,6/5-1[8:1],,
{8}8h[8:3],,3h[8:1],,3/8,,4/6,5,
{8}3,4,5-1[8:1]/6-2[8:1],,,,3/5,,
{2}3^6[8:1]/6^1[8:1],3^6[8:1]/6^1[8:1],
{8}4/6,6,4/5-1[8:1]*-7[8:1],,,,6/5-1[8:1],,
{8}7,7,4,5h[8:9],,1,1,2v8[4:1],
{4},,1,2b/8b,
{2}3^8[8:1]/6^3[8:1],3^8[8:1]/6^3[8:1],
{8}3/5,3,5/4-2[8:1]*-8[8:1],,,,3/4-8[8:1],,
{8}2,2,3^6[8:1],,8h[4:1],,2,2h[4:1],
{8},4,4,,2b/6b,,3b/7b,,
{8}6,5,6,,4/7,,,3,
{8}3,4,3,,2/5,,,6,
{8}6,5,6,,4/6,,,3,
{8}3,4,3,,3/5,,,5,
{8}5,4,6,,5/6,,,4,
{8}4,5,3,,3/4,,,5,
{8}5,4,5,,4/5,,,,
{1}4,
{4}6/2^7[8:1],5,3/7^2[8:1],4,
{4}6/2^7[8:1],5,3/5,4/6,
{4}3/7^2[8:1],4,6/2^7[8:1],5,
{4}3/7^2[8:1],4-8[4:1],,,
{4}2/6^3[8:1],8,7/3^6[8:1],1,
{4}2/6^3[8:1],8,1/8,2/7,
{4}7/3^6[8:1],1,2/6^3[8:1],8,
{4}7/3^6[8:1],1,4/5,1/8,
{4}6/3-6[8:1],,,4/5,
{4}4/5-8[8:3],4,4,4,
{4}5/4-1[8:3],5,5,5,
{4}4/5-8[8:3],4,4,4,
{4}5/4qq1[2:1],5,5,5,
{4}4/5-8[8:3],4,3,3,
{4}5/4-1[8:3],5,6,6,
{4}4/5-8[8:3],3,2,1-5[8:1],
{4}8v6[8:1],2v4[8:1],8,2b/7b,
{4}5/3-8[8:1],6-1[8:1],3-8[8:1],6-1[8:1],
{8}3,3,3-8[8:1]/4-7[8:1],,,,5-2[8:1]/6-1[8:1],,
{8},,3/5,4,5,4,2<5[4:1]/3p4[4:1],,
{4},,4/5,2b/7b,
{4}4/6-1[8:1],3-8[8:1],6-1[8:1],3-8[8:1],
{8}6,6,5-2[8:1]/6-1[8:1],,,,3-8[8:1]/4-7[8:1],,
{4},4h[8:1]/6h[8:1],3h[8:1]/5h[8:1],4h[8:1]/6h[8:1],
{4}3h[8:1]/4h[8:1],5h[8:1]/6h[8:1],3h[8:1]/5h[8:1],4/5,
{2}2^7[8:1]/7^4[8:1],2^7[8:1]/7^4[8:1],
{8}1/8,2,2-7[8:1]/3-6[8:1],,,,6-3[8:1]/7-2[8:1],,
{8},,1,2,7,6,4qq1[8:3]/5pp8[8:3],,
{4},,4/5,2b/7b,
{2}2^5[8:1]/7^2[8:1],2^5[8:1]/7^2[8:1],
{8}1/8,7,6-3[8:1]/7-2[8:1],,,,1v4[8:1]*v6[8:1],,
{8},,8,8,1,1,6,7,
{8}3,2,5,5,2/6,,3/7,,
{4}6/5-1[8:1],7,6/5-1[8:1],8,
{4}3/4-8[8:1],2,3/4-8[8:1],1,
{4}6/5-1[8:1],7,6/5-1[8:1],8,
{4}3/4-8[8:1],2,4/5,4/5,
E
