&title=夏祭り
&artist=Jitterin' Jinn [covered by ろん]
&wholebpm=141
&demo_seek=59.4
&demo_len=19.12
&lv_1=2
&lv_2=4
&lv_3=6
&lv_4=7
&lv_5=11
&des_4=如月 ゆかり
&des_5=しろいろ
&inote_1=(141.0){1},,,,,,,,,
{1}3,,
{1}4,,
{1}5,,
{1}6,
{1}6,
{1}7,
{1}7,
{1}8,
{1}8,
{1}1,
{1}1,
{1}2h[1:1],,
{1}3h[1:1],,
{1}4,
{1}4,
{1}5,
{1}5,
{1}6h[1:1],,
{1}7h[1:1],,
{2}8,8,
{1}8,
{2}7,7,
{1}7,
{2}6,6,
{1}6,
{2}5,5,
{1}5-8[4:3],,
{1}1-4[4:3],,
{1}4,
{1}4,
{1}3,
{1}3,
{1}2h[1:1],,
{1}1h[1:1],,
{1}8,
{1}8,
{1}7,
{1}7,
{1}6h[1:1],,
{1}5h[1:1],,
{2}4,4,
{1}4,
{2}3,3,
{1}3,
{2}2,2,
{1}2,
{2}1,1,
{1}1b,
{1}1/8,
{1}1/8,
{1}1/8,
E
&inote_2=(141.0){1},4,
{1}4,
{1}3,
{1}3,
{1}2,
{1}2,
{1}1h[1:1],,
{1}8,
{1}8,
{1}7,
{1}7,
{1}6,
{1}6,
{2}4/5,4/5,
{2}4/5,4/5,
{2}4/6,4/6,
{2}3/5,3/5,
{2}4,4,
{4}3,3,3,,
{2}2,2,
{4}1,1,1,,
{1}1-5[4:3],,
{1}8-4[4:3],,
{2}5,5,
{4}6,6,6,,
{2}7,7,
{4}8,8,8,,
{1}8-4[4:3],,
{1}1-5[4:3],,
{4}4,4,4,,
{4}3,3,3,,
{4}2,2,2,,
{1}1h[2:1]/8h[2:1],
{4}8,8,8,,
{4}7,7,7,,
{4}6,6,6,,
{1}5-8[4:3],,
{1}4-1[4:3],,
{2}5,5,
{4}6,6,6,,
{2}7,7,
{4}8,8,8,,
{1}8-4[4:3],,
{1}1-5[4:3],,
{2}4,4,
{4}3,3,3,,
{2}2,2,
{4}1,1,1,,
{1}1-5[4:3],,
{1}8-4[4:3],,
{4}5,5,5,,
{4}6,6,6,,
{4}7,7,7,,
{1}1h[2:1]/8h[2:1],
{4}1,1,1,,
{4}2,2,2,,
{4}3,3,3,,
{4}4/5,4/5,4/5,,
{4}4/5,4/5,4/5,,
{4}4/6,4/6,4/6,,
{4}3/5,3/5,3b/5b,
E
&inote_3=(141.0){1},2h[1:1],
{1}3h[1:1],
{1}4h[1:1],
{1}5,
{1}7h[1:1],
{1}6h[1:1],
{1}5h[1:1],
{1}4,
{1}2h[1:1],
{1}3h[1:1],
{1}4h[1:1],
{1}5,
{2}1/8,1/8,
{1}2/7,
{4}3,4,3,2/5,
{4}6,5,4/7,,
{4}6,5,6,4/7,
{4}3,4,2/5,,
{4}2,1,2,1,
{4}3,4,2/5,,
{4}7,8,7,8,
{4}6,5,4/7,,
{4}3,4,3,2/5,
{1}3-8[4:1],
{4}7,8,7,1/6,
{1}7-4[4:1],
{4}3,4,3,4,
{4}2,1,3/8,,
{4}6,5,6,5,
{4}7,8,1/6,,
{4}2,1,2,3/8,
{1}2-5[4:1],
{4}6,5,6,4/7,
{1}6-1[4:1],
{4}7,8,7,1/6,
{4}6,5,4/7,,
{4}2,1,2,3/8,
{2}3h[4:1]/4h[4:1],2/5,
{4}6,7,8,1/8,
{4}3,2,1,1/8,
{4}1,8,2b/7b,,
{4}3,3,3/4,,
{4}6,6,5/6,,
{4}3,3,2/4,,
{4}6,6,5/7,,
{4}3,3/4,3,3/4,
{4}6,5/6,4/7,,
{4}6,5/6,6,5/6,
{4}3,3/4,2/5,,
{4}3,4,5,6,
{4}7,8,1/6,,
{4}6,5,4,3,
{4}2,1,3/8,,
{4}2,1/2,2,1/2,
{4}7,7/8,1/6,,
{4}7,7/8,7,7/8,
{4}2,1/2,3/8,,
{4}2,1,8,7,
{4}6,5,4/7,,
{4}7,8,1,2,
{4}3,4,2/5,,
{4}2,1,2,3/8,
{4}3,4,2/5,,
{4}7,8,7,1/6,
{2}5h[4:1]/6h[4:1],4/7,
{4}3,2,1,1/8,
{4}6,7,8,1/8,
{4}8,1,2b/7b,2b/7b,
{4}8,7,6,5/6,
{4}1,2,3,3/4,
{4}5,4,3/6,2/7,
{4}1,8,2b/7b,
E
&inote_4=(141.0){1},
{2}4,5,
{2}3,6,
{2}1/8,2/7,
{2}3/6,4/5,
{2}2,7,
{2}3,6,
{1}4h[2:3],
{1}5h[2:1],
{2}1,8,
{2}2,7,
{2}4/5,3/6,
{2}2/7,1/8,
{1}4b-1[1:1]/5b-8[1:1],
{2},1b/8b,
{4}7,7/8,7,7/8,
{4}2,1/2,2,1/2,
{4}3,3/4,3,3/4,
{8}6,,5/6,,5b/6b,,3,3,
{8}4,,3/4,,3/4,,6,6,
{8}5,,5/6,,5/6,,7,7,
{8}8,,7/8,,7/8,,2,2,
{8}1,,1/2,,1/2,,8,1,
{4}8,1/7,2/8,2/7,
{8}1^4[16:3]/8^5[16:3],,,,,,4,5,
{4}4,3/5,4/6,3/6,
{8}4^1[16:3]/5^8[16:3],,,,,,6,6,
{8}5,,5/6,,4/7,,3,3,
{8}4,,3/4,,2/5,,2,2,
{8}1,,1/2,,3/8,,7,7,
{8}8,,7/8,,1/6,,1,8,
{4}1,2/8,1/7,2/7,
{8}1-5[4:1]/8-4[4:1],,,,,,5,4,
{4}5,4/6,3/5,3/6,
{4}4-8[4:1]/5-1[4:1],,,2b/7b,
{8}3/4,,4/5,,5/6,,7,7,
{8}7/8,,1/8,,1/2,,8,1,
{4}8h[4:1],7,1h[4:1],2,
{2}1-5[8:1],8-4[8:1],
{8}3/4,,4/5,,5/6,,7,7,
{8}5/6,,4/5,,3/4,,5,4,
{4}4-1[4:1]/5-8[4:1],,,1b/8b,
{4}5/6,4/7,5/6,4/7,
{4}7/8,1/6,7/8,1/6,
{4}1/2,3/8,1/2,3/8,
{8}3/4,,2/5,,3b/4b,,6,6,
{8}5,,4/7,,4/7,,3,3,
{8}4,,2/5,,2/5,,2,2,
{8}1,,3/8,,3/8,,7,7,
{8}8,,1/6,,1/6,,6,6,
{4}5,4/7,3/8,1/2,
{8}1^6[16:3]/2^5[16:3],,,,,,3,3,
{4}4,2/5,1/6,7/8,
{8}7^4[16:3]/8^3[16:3],,,,,,3,3,
{8}4,,2/5,,1/6,,6,6,
{8}5,,4/7,,3/8,,7,7,
{8}8,,1/6,,2/5,,2,2,
{8}1,,3/8,,4/7,,3,3,
{4}4,2/5,1/6,7/8,
{8}7-3[4:1]/8-4[4:1],,,,,,6,6,
{4}5,4/7,3/8,1/2,
{4}1-5[4:1]/2-6[4:1],,,4b/5b,
{8}5/6,,4/7,,3/8,,1,1,
{8}7/8,,1/6,,2/5,,5,4,
{4}5h[4:1],6,4h[4:1],3,
{2}4-8[8:1],5-1[8:1],
{8}3/4,,2/5,,1/6,,8,8,
{8}1/2,,3/8,,4/7,,4,5,
{4}4-1[4:1]/5-8[4:1],,,1b/8b,
{4}3/4,5/6,1/8,2b/7b,
{4}5/6,3/4,1/8,2b/7b,
{4}2/4,5/7,3/6,1b/8b,
{8}6/8,,1/3,,2b/7b,2b/7b,
E
&inote_5=(141.0){1},
{2}3h[2:1],4,
{4}2/5,,7,8,
{2}6h[2:1],5,
{4}4/7,,2,1,
{2}3/8,4/5,
{4}1/6,,1,8,
{1}2>6[4:3],
{1}7<3[2:1],
{2}4,3,
{4}2/5,,4,5,
{2}6h[2:1],5,
{4}4/7,,6,5,
{2}3h[2:1],4h[2:1],
{4}5h[2:1],,6b-1[8:1],1b,
{16}3,4,3,,6,5,6,,3,4,3,,6,5,6,,
{16}3,4,2,,6,5,7,,3,4,2,,6,5,7,,
{16}2,1,2,,7,8,7,,2,1,2,,7,8,7,,
{16}2,1,3,,7,8,6,,1,8,1,8,1b,,,,
{16}3h[16:3],,,4,3,,6,,6h[16:3],,,5,6,,3,,
{16}2h[16:3],,,3,2,,5,,4/6,,,,6,,5,,
{16}6h[16:3],,,5,6,,3,,3h[16:3],,,4,3,,6,,
{16}7h[16:3],,,6,7,,4,,3/5,,,,3,,4,,
{4}3^6[4:1],6^1[4:1],1-5[8:1],6,
{16}5/6,,,8,1,,3/4,,3/4,,,1,8,,5/6,,
{4}6^3[4:1],3^8[4:1],8-4[8:1],3,
{16}3/4,,,1,8,,5/6,,5/6,,,8,1,,3/4,,
{16}2h[16:3],,,1,3,,4/8,,7h[16:3],,,8,6,,1/5,,
{16}2h[16:3],,,1,3,,4/8,,2/6,,,,7,,8,,
{16}7h[16:3],,,8,6,,1/5,,2h[16:3],,,1,3,,4/8,,
{16}7h[16:3],,,8,6,,1/5,,3/7,,,,2,,1,,
{4}2^7[4:1],7^4[4:1],4-8[8:1],7,
{16}7/8,,,5,4,,1/2,,1/2,,,4,5,,7/8,,
{4}7^2[4:1],2^5[4:1],5-1[8:1],2,
{16}1/2,,,4,5,,1/7,,1/7,,4,,5,,4,,
{8}7qq5[8:1]/8pp2[8:1],,,,3/7,,8/7-3[8:1],1,
{8}2-6[8:1],,8-3[8:1]*-5[8:1],,,,1/2-6[8:1],8,
{8}7-3[8:1],,1-4[8:1]*-6[8:1],,,,6,4,
{2}5-2[8:1]/6-1[8:1],3-8[8:1]/4-7[8:1],
{8}7^2[8:1],,3p6[8:1],,,,5/6-2[8:1],4,
{8}3-7[8:1],,5-1[8:1],,4,,4,5,
{8}3b-8[8:1]/4b-7[8:1],,,,7/8,,1b/7b,2b/8b,
{16}3,4,3,,6,5,6,,2,1,2,,7,8,7,,
{16}3,4,2,,6,5,7,,2,1,3,,7,8,6,,
{16}3,1,3,,6,8,6,,2,4,2,,7,5,7,,
{16}2,8,4,,7,1,5,,1,8,1,8,1b,,,,
{16}6h[16:3],,,5,7,,1/8,,3h[16:3],,,4,2,,1/8,,
{16}6h[16:3],,,5,7,,1/8,,3,4,2,,6,5,7,,
{16}7h[16:3],,,8,6,,4/5,,2h[16:3],,,1,3,,4/5,,
{16}7h[16:3],,,8,6,,4/5,,2,1,3,,7,8,6,,
{8}5/6,2,3/4,7,5/6,2,3/4,7,
{16}6/8,,,3,4,,5/6,,1/3,,,6,5,,3/4,,
{8}3/4,8,5/6,1,3/4,8,5/6,1,
{16}1/3,,,6,5,,3/4,,6/8,,,3,4,,5/6,,
{16}7h[16:3],,,8,5,,1/4,,2h[16:3],,,1,4,,5/8,,
{16}7h[16:3],,,8,5,,1/4,,2,1,3,,7,8,6,,
{16}6h[16:3],,,5,8,,1/4,,3h[16:3],,,4,1,,5/8,,
{16}6h[16:3],,,5,8,,1/4,,3,4,1,,6,5,8,,
{8}3/4,8,5/6,1,3/4,8,5/6,1,
{16}5/7,,,2,1,,7/8,,2/4,,,7,8,,1/2,,
{8}3/4,8,5/6,1,3/4,8,5/6,1,
{16}2/4,,,7,8,,1/2,,5/7,,1,8,1,8,1b,,
{8}3qq1[8:1]/4pp6[8:1],,,,3/7,,4/3-7[8:1],5,
{8}5-2[8:1],,8-3[8:1]*-5[8:1],,,,5/6-2[8:1],4,
{8}4-7[8:1],,1-4[8:1]*-6[8:1],,,,4,5,
{2}3-8[8:1]/4-7[8:1],5-2[8:1]/6-1[8:1],
{8}3-7[8:1],,6<2[8:1]*q3[8:1],,,,4/3-7[8:1],5,
{8}6-2[8:1],,3^6[8:1]*^8[8:1],,,,5,4,
{8}5b-2[8:1]/6b-1[8:1],,,,1/2,,3b/7b,1b/5b,
{16}2,1,2,,7,8,7,,3,4,3,,6,5,6,,
{16}3,1,3,,6,8,6,,2,4,2,,7,5,7,,
{16}2,1,4,,7,8,5,,3,4,1,,6,5,8,,
{16}2,8,4,,7,1,5,,1b,8b,1b,
E
