&title=儚きもの人間
&artist=豚乙女
&wholebpm=180
&demo_seek=43.7
&demo_len=19.3
&lv_1=3
&lv_2=5
&lv_3=8
&lv_4=10+
&lv_5=13+
&des_4=某S氏
&des_5=Jack
&inote_1=(180.0){1},,,,,
{1}4,
{1}4,
{1}5,
{1}5,
{1}4,
{1}4,
{1}3,
{1}3,
{1}2,
{1}2,
{1}1,
{1}1,
{1}8h[1:1],,
{1}7h[1:1],,
{1}6h[1:1],,
{1}5h[1:1],,
{1}4-1[4:3],,
{1}8-5[4:3],,
{1}4h[1:1],,
{1}3h[1:1],,
{2}2,2,
{1}2,
{2}3,3,
{1}3,
{2}4,4,
{1}4,
{2}5,5,
{1}5,
{1}6-3[4:3],,
{1}2-7[4:3],,
{1}8b,,
{1}1h[1:1],,
{1}2,
{1}3,
{1}4,
{1}5,
{1}6,
{1}7,
{1}1/8,
{1}1b,
{4}8,8,8,,
{2}7,7,
{4}6,6,6,,
{2}5,5,
{4}4,4,4,,
{2}3,3,
{4}2,2,2,,
{2}1,1,
{2}8,8,
{2}7,7,
{2}6,6,
{2}5,5,
{4}4,4,4,,
{2}3,3,
{4}2,2,2,,
{2}1,1,
{4}8,8,8,,
{2}7,7,
{4}6,6,6,,
{2}5,4/5,
{1}3-6[4:3],,
{1}7-2[4:3],,
{1}1-4[4:3],,
{1}5-8[4:3],,
{1}1b,
E
&inote_2=(180.0){1},1h[2:3],,
{1}8h[2:3],,
{1}2h[2:3],,
{1}7h[2:3],,
{2}1,1,
{4}2,2,2,,
{2}3,3,
{4}4,4,4,,
{2}5,5,
{4}6,6,6,,
{2}7,7,
{4}8,8,8,,
{2}8,8,
{2}7/8,7/8,
{1}8-4[4:3],,
{2}1,1,
{2}1/2,1/2,
{1}1-5[4:3],,
{2}8,8,
{2}7,7,
{2}6,6,
{2}5,5,
{1}3h[2:1]/4h[2:1],
{1}5h[2:1]/6h[2:1],
{1}4-1[4:3]/5-8[4:3],,
{4}1,1,1,1,
{4}2,2,2,,
{4}3,3,3,3,
{4}4,4,4,,
{4}5,5,5,5,
{4}6,6,6,,
{4}7,7,7,7,
{1}1h[2:1]/8h[2:1],
{1}1-6[4:3],,
{1}8-3[4:3],,
{1}2h[1:2]/7h[1:2],,,,
{1}1/8,
{1}2/7,
{1}1/2,
{1}2/8,
{1}7/8,
{1}1/7,
{2}1,8,
{1}2b/7b,
{4}2,2,3,3,
{4}4,4,4/5,,
{4}5,5,6,6,
{4}7,7,7/8,,
{4}1,1,2,2,
{4}3,3,3/4,,
{2}3/5,4/6,
{1}3h[2:1]/6h[2:1],
{1}4-7[4:3],,
{1}5-2[4:3],,
{2}1,1,
{2}2,2,
{2}3,3,
{4}4,4,4,,
{2}5,5,
{2}6,6,
{2}7,7,
{4}8,8,8,,
{1}1-5[4:3],,
{1}8-4[4:3],,
{1}2-6[4:3],,
{1}7-3[4:3],,
{1}1/8,
E
&inote_3=(180.0){1},
{8}3h[4:1]/4h[4:1],,,3/4,,,3h[4:1]/4h[4:1],,
{8},3/4,,,3/4,,3/4,,
{8}5h[4:1]/6h[4:1],,,5/6,,,5h[4:1]/6h[4:1],,
{8},5/6,,,5/6,,5/6,,
{8}3h[4:1]/4h[4:1],,,3/4,,,3h[4:1]/4h[4:1],,
{8},3/4,,,2/4,,2/4,,
{8}5h[4:1]/6h[4:1],,,5/6,,,5h[4:1]/6h[4:1],,
{8},5/6,,,5/7,,5/7,,
{4}3,3,4,4,
{4}3,4,2/5,,
{4}6,6,5,5,
{4}6,5,4/7,,
{4}2,2,1,1,
{4}2,1,3/8,,
{4}6h[4:1],5,3h[4:1],4,
{4}5/6,4/7,3/8,,
{4}2h[2:1],,1,1/2,
{4}7h[2:1],,8,7/8,
{4}2h[2:1],,1,1/3,
{4}7h[2:1],,8,6/8,
{4}3h[2:1],,1,1/2,
{4}6h[2:1],,8,7/8,
{1}3>6[4:3],,
{4}6h[4:3],5,5,5,
{4}3h[4:3],4,4,4,
{4}6h[4:3],5,5,5,
{4}3h[4:3],4,4,4,
{4}7h[4:3],5,5,5,
{4}2h[4:3],4,4,4,
{1}7<2[4:3],,
{4}2,1,2,1,
{4}3/8,4/7,5/6,,
{4}7,8,7,8,
{4}1/6,2/5,3/4,,
{4}6,5,6,5,
{4}4/7,3/8,1/2,,
{4}7h[4:1],8,2h[4:1],1,
{4}1/8,1/8,2b/7b,,
{8}2h[4:1]/4h[4:1],,,2/4,,,2h[4:1]/4h[4:1],,
{8},2/4,,,4/5,,4/5,,
{8}5h[4:1]/7h[4:1],,,5/7,,,5h[4:1]/7h[4:1],,
{8},5/7,,,4/5,,4/5,,
{1}1-5[2:1],
{1}8-4[2:1],
{1}1s5[4:3],,
{8}1/8,1/8,,,,,,,
{4}7,6,5,,
{8}1/8,1/8,,,,,,,
{4}2,3,4,,
{8}1/8,1/8,,,,,,,
{4}2/7,3/6,4/5,,
{8}1/8,1/8,,,,,,,
{4}4/5,3/6,2/7,,
{4}3,3/4,6,5/6,
{4}3,3/4,1/6,,
{4}6,5/6,3,3/4,
{4}6,5/6,3/8,,
{4}3,3/4,6,5/6,
{4}3,3/4,1/6,,
{4}7,6/8,2,1/3,
{1}2b/7b,
{8}1h[4:1]/3h[4:1],,,1/3,,,1h[4:1]/3h[4:1],,
{8},1/3,,,1/2,,1/2,,
{8}6h[4:1]/8h[4:1],,,6/8,,,6h[4:1]/8h[4:1],,
{8},6/8,,,7/8,,7/8,,
{1}1>8[4:5],,
{4}2,3,4,5,
{4}6,7,1/8,,
{4}7,6,5,4,
{4}3,2,1/8,,
{4}1/8,1/8,2/7,2/7,
{4}3/6,3/6,4/5,,
{8}3h[4:1]/4h[4:1],,,3/4,,,5h[4:1]/6h[4:1],,
{8},5/6,,,1/8,,1/8,,
{8}1h[4:1]/2h[4:1],,,1/2,,,7h[4:1]/8h[4:1],,
{8},7/8,,,2/7,,2/7,,
{8}2h[4:1]/4h[4:1],,,2/4,,,5h[4:1]/7h[4:1],,
{8},5/7,,,1/8,,1/8,,
{8}1h[4:1]/3h[4:1],,,1/3,,,6h[4:1]/8h[4:1],,
{8},6/8,,,2/7,,2/7,,
{1}1pp4[4:7]/8qq5[4:7],,,
E
&inote_4=(180.0){1},
{8}2h[8:3],,,3h[8:3],,,4h[8:3],,
{8},5h[8:3],,,6,,5/7,,
{8}7h[8:3],,,6h[8:3],,,5h[8:3],,
{8},4h[8:3],,,3,,2/4,,
{8}3h[8:3],,,5h[8:3],,,6h[8:3],,
{8},8h[8:3],,,1,,2/7,,
{8}6h[8:3],,,4h[8:3],,,3h[8:3],,
{8},1h[8:3],,,8,,2b/7b,,
{4}8,1/7,7,6/8,
{8}6,5,6,5,6,,4/7,,
{4}1,2/8,2,1/3,
{8}3,4,3,4,3,,2/5,,
{8}7,8,1/7,,2,1,2/8,,
{8}3,6,4,5,3,,1/8,,
{4}1/2h[4:1],3,6/5h[4:1],4,
{4}1/8,2/7,3/6,4b,
{8}6,5,6,5,6,,4/7,,
{8}2,1,3,8,4,7,5,6,
{8}5^2[8:1],,,8,8pp4[2:1],,,,
{4},,,1/8,
{8}3,4,3,4,3,,2/5,,
{8}7,8,6,1,5,2,4,3,
{1}4qq6[2:1],
{8}3,,4,,5,4,3/6,,
{8}2,1,2,1,2,,3/8,,
{8}5,4,6,2,8,1,7,3,
{8}5^8[8:1],,,1,1qq5[2:1],,,,
{4},,8,1/7,
{16}2h[16:3],,,3h[16:3],,,4,,4,,,,1/8,,,,
{16}7h[16:3],,,6h[16:3],,,5,,5,,,,1/8,,,,
{1}3bq6[2:1],
{1}1bpp4[2:1]/8bqq5[2:1],
{8}1/2,1/2,3/8,,7/8,7/8,1/6,,
{4}2-6[8:1],7-3[8:1],1-5[8:1],8,
{8}7/8,7/8,1/6,,1/2,1/2,3/8,,
{4}7-3[8:1],2-6[8:1],8-4[8:1],1,
{8}5/6,5/6,4/7,,3/4,3/4,2/5,,
{4}6-2[8:1],3-7[8:1],5-1[8:1],4,
{4}2h[4:1],4h[4:1],6h[4:1],8h[4:1],
{1}1<5[4:1]*>5[4:1],
{8}3,4,3,6,5,6,3,4,
{8}3,6,5,6,1b/8b,,2b/7b,,
{8}2,1,2,7,8,7,2,1,
{8}2,7,8,7,4/5,,3/6,,
{8}1/2h[8:3],,,4h[8:3],,,5,,
{8}8/7h[8:3],,,5h[8:3],,,4,,
{8}8/1h[8:3],,,3h[8:3],,,4,,
{8}1/8h[8:3],,,6h[8:3],,,5,,
{1}4b/7b,
{8}2/5,,,,3,4,3,,
{8}2/5,2/5,,,,,,,
{8}4/7,,,,6,5,6,,
{8}3/8,3/8,,,,,,,
{8}1/6,,,,7,8,7,,
{4}7h[4:1],5h[4:1],3h[4:1],1h[4:1],
{1}8b<4[4:1]*>4[4:1],
{8}2,1,2,1,4,5,4,5,
{4}8-3[8:1],6-2[8:1],4-1[8:1],7,
{8}7,8,7,8,5,4,5,4,
{4}1-6[8:1],3-7[8:1],5-8[8:1],1,
{8}1,6,2,7,3,8,4,1,
{4}5-1[8:1],7-3[8:1],2-6[8:1],8,
{4}8p4[8:1],1,1q5[8:1],8,
{1}8pp4[2:1]*qq4[2:1],
{8}1,1,1,3,3,3,5,5,
{8}5,7,7,7,1b-5[8:1],,8b,,
{8}8,8,8,6,6,6,4,4,
{8}4,2,2,2,8-4[8:1],,1,,
{8}2,1,2/8,,6,5,4/7,,
{8}7,8,1/7,,3,4,2/5,,
{8}2,1,3,7,5,6,4,8,
{8}1/2,1/2,3/8,3/8,4/7,4/7,5/6,,
{8}7,8,1/7,,3,4,2/5,,
{8}2,1,2/8,,6,5,4/7,,
{8}7,8,6,2,4,3,5,1,
{8}7/8,7/8,1/6,1/6,2/5,2/5,3/4,,
{8}3,5,4,6,4,5,3,5,
{8}4,6,4,5,1-5[8:1],,8,,
{8}7,4,5,2,5,4,7,4,
{8}5,2,5,4,8-4[8:1],,1,,
{8}2,6,4,7,3,5,2,6,
{8}4,7,3,5,1-5[8:1],,8,,
{8}8,3,5,1,6,4,8,3,
{8}5,1,6,4,8-4[8:1],,1,,
{1}1b>8[4:11],,,
{8},,,,,,4,5,
E
&inote_5=(180.0){1},
{8}2/4,3,4,6/8,7,6,1/3,2,
{8}3,5/7,6,5,3-8[8:1]/4-7[8:1],,3/4,,
{8}5/7,6,5,1/3,2,3,6/8,7,
{8}6,2/4,3,4,5-2[8:1]/6-1[8:1],,5/6,,
{8}3/4,2,5,5/6,4,7,7/8,6,
{8}1,1/2,8,3,3-8[8:1]/4-7[8:1],,3/4,,
{8}5/6,7,4,3/4,5,2,1/2,3,
{8}8,7/8,1,6,5/6,4,3,2,
{8}1h[2:1],8,7,6,5h[2:1],4,3,2,
{8}1,2/8,3/7,4/6,5p1[8:1]*^2[8:1],,,,
{8}8h[2:1],1,2,3,4h[2:1],5,6,7,
{8}8,1/7,2/6,3/5,4^7[8:1]*q8[8:1],,,,
{8}1h[2:1],2,3,4,5h[2:1],6,7,8,
{8}1pp3[8:1],1,5pp7[8:1],5,1,,3/6,2/7,
{16}1^4[8:1]/8^5[8:1],,,,1/8,,,,2/3,,,6/7,,,1/8,,
{16}1^3[8:1]/8q4[8:1],,,,1p5[8:1]/8^6[8:1],,,,1/8,,,,4,5,4,,
{8}2^5[8:1],7,2,7,5-1[8:1],6,5,6,
{8}1v6[8:1],8,1,8,6^3[8:1],7,6,7,
{8}3v8[8:1],4,3,4,8-4[8:1],7,8,7,
{16}4qq1[8:3],,5,,4,,5,,6,,7,,8,1,8,,
{8}7^4[8:1],2,7,2,4-8[8:1],3,4,3,
{8}8v3[8:1],1,8,1,3^6[8:1],2,3,2,
{8}6v1[8:1],5,6,5,1-5[8:1],2,1,2,
{16}5pp8[8:3],,4,,5,,4,,3,,2,,1,8,1,,
{8}3^8[8:1],6,3,6,8-4[8:1],7,8,7,
{8}4v7[8:1],5,4,5,7^2[8:1],6,7,6,
{8}2v5[8:1],1,2,1,5-1[8:1],6,5,6,
{8}1^4[8:1]*^6[8:1],5,1,,5,2/5,4,4/7,
{16}3h[16:3],,,2h[16:3],,,1,,3^1[8:1]/8^6[8:1],,,,,,,,
{16}6h[16:3],,,7h[16:3],,,8,,1^3[8:1]/6^8[8:1],,,,
{4}1pp4[8:5]*qq6[8:5],{1},
{16}1/8,,2/7,,3/6,,4,5,4,,2/7,,1,8,1,8,
{8}1-4[8:1],5,1-6[8:1],5,1^4[8:1],5,1^6[8:1],5,
{8}1-5[8:1],5,1^4[8:1]*^6[8:1],7,1,,1/5,,
{8}8-5[8:1],4,8-3[8:1],4,8^5[8:1],4,8^3[8:1],4,
{8}8-4[8:1],4,8^3[8:1]*^5[8:1],2,8,,4/8,,
{8}1-4[8:1],5,1-6[8:1],5,1^4[8:1],5,1^6[8:1],5,
{8}1,5,4w8[8:1],3/5,4,,2-5[8:1],6,
{8}2,,7-4[8:1],3,7/2-5[8:1],,2/6<3[8:3],,
{16}3/6,,,,,,,,1/8,,3/6,,4,5,4,,
{8}1/2,3/8,4/7,1/8,2/7,3/6,7/8,1/6,
{8}2/5,1/8,2/7,3/6,4b-1[8:1]/5b-8[8:1],,4b/5b,,
{8}1/8,2/7,3/6,1/2,3/8,4/7,1/8,2/7,
{8}3/6,7/8,1/6,2/5,3b/4-1[16:1],,4b/5-8[16:1],,
{16}5b/6h[16:3],,,1,,,4/3h[16:3],,,8,,,5/6,,4/5,,
{16}4/3h[16:3],,,1,,,5/6h[16:3],,,8,,,2/4,,3/6,,
{16}5/7h[16:3],,,1,,,4/2h[16:3],,,8,,,5/7,,4/5,,
{16}4/2h[16:3],,,1,,,5/7h[16:3],,,8,,,2/4,,5/7,,
{8}1/8,1/8,,,,,3qq3[8:3]/4pp4[8:3],,
{16}3/4,,,,,,,,7,8,7,,1/6,,,,
{8}2/7,2/7,,,,,5qq5[8:3]/6pp6[8:3],,
{8}5/6,,,,1/2,,7/8,4/5,
{8}3/6,3/6,,,,,4qq4[8:3]/5pp5[8:3],,
{16}4/5,,,,,,,,7,8,,2,1,,3/8,,
{8}4/5,4h[4:3]/5h[4:3],,,,,,,
{16}4,5,4,5,4,5,4,5,4,5,4,5,4,5,4,5,
{8}2^5[16:1],1,7^4[16:1],8,2-6[16:1],1,7-3[16:1],8,
{8}2q6[16:1],1,7p3[16:1],8,1w5[8:1],,,,
{8}7^4[16:1],8,2^5[16:1],1,7-3[16:1],8,2-6[16:1],1,
{8}7p3[16:1],8,2q6[16:1],1,8w4[8:1],,,,
{8}3-8[16:1],5,6-1[16:1],4,3-7[16:1],5,6-2[16:1],4,
{8}3^8[16:1],5,6^1[16:1],4,3,,4-8[8:1],5,
{8}4,,5-1[8:1],4,5/3-7[8:1],,3/8<1[8:3],,
{16}1/8,,,,,,,,3/8,,1/6,,4,5,4,,
{8}7/8,1/6,2/5,1/8,2/7,3/6,1/2,3/8,
{8}4/7,1/8,2/7,3/6,4b^1[8:1]/5b^8[8:1],,4b/5b,,
{8}1/8,2/7,3/6,7/8,1/6,2/5,1/8,2/7,
{8}3/6,1/2,3/8,4/7,6b/5b-1[8:1],,5b/4b>5[4:3],,
{1}3b/4b,
{16}2,,1/3,,8,,1/7,,6,,5/7,,4,5,4,,
{8}7,6/8,1,2/8,3,4/5,6,5/7h[4:1],
{16},,8,,2,1,2,,3,,2/4,,6,,5/7,,
{16}3,,4/5,,3,,4/2h[4:1],,,,1,,7,8,7,,
{16}2,,1/3,,7,,6/8,,3h[16:3],,,4,,,1/8,,
{16}6h[16:3],,,5,,,1/8,,2h[16:3],,,3,,,1/8,,
{16}7h[16:3],,,6,,,1/8,,1^4[8:1]/8^5[8:1],,,,,,,,
{16}2,4,2,4,2,4,3,5,3,5,3,5,4,6,4,6,
{16}4,6,5,7,5,7,5,7,6-2[8:1],,,,,,,,
{16}2,8,2,8,2,8,1,6,1,6,1,6,3,7,3,7,
{16}3,7,1,5,1,5,1,5,2v4[8:1]/6v8[8:1],,,,,,,,
{16}3,5,3,5,3,5,4,7,4,7,4,7,2,6,2,6,
{16}2,6,4,8,4,8,4,8,3qq1[8:1]/7qq5[8:1],,,,,,,,
{16}2,6,2,6,2,6,1,5,1,5,1,5,8,4,8,4,
{16}8,4,7,3,7,3,7,3,6<3[4:1],,,,,,,,
{1}4>5[4:9]*q5[4:9],,,
{8},,,,,,1b-4[16:1]/8b-5[16:1],
{16}1b/8b,,,,
E
