&title=キミノヨゾラ哨戒班
&artist=Orangestar
&wholebpm=185
&demo_seek=35.4
&demo_len=23.6
&lv_1=2
&lv_2=5
&lv_3=7+
&lv_4=10+
&lv_5=12+
&des_4=ぴちネコ
&des_5=Revo@LC
&inote_1=(185.0){1},,,,,,,,,,
{1}8,
{1}8,
{1}7,
{1}7,
{1}6,
{1}6,
{1}5,
{1}5,
{1}4h[1:1],,
{1}3h[1:1],,
{1}2,
{1}2,
{1}1,
{1}1,
{1}8-4[1:1],,
{2},4,
{2},4,
{2},3,
{2},3,
{2},2,
{2},2,
{2},1,
{2},1b,
{2},8,
{2},8,
{2},7,
{2},7,
{2},6,
{2},6,
{2},5,
{2},4/5,
{2},4,
{2},4,
{2},5,
{2},5,
{2},4,
{2},4,
{2},3,
{2},3,
{2},2,
{2},2,
{2},1,
{2},1,
{2},8,
{2},8,
{2},1,{1},
{2}8,8,
{1}8,
{2}1,1,
{1}1,
{2}2,2,
{1}2,
{2}3,3,
{1}3,
{2}4,4,
{1}4,
{2}5,5,
{1}5,
{2}6,6,
{1}6,
{2}5,5,
{1}5,
{1}4/5,
{1}4,
{1}3,
{1}2,
{1}1,
{1}8,
{1}7,
{1}6,
{1}5b,
{1}6,
{1}7,
{1}8,
{1}1,
{1}2,
{1}3,
{4}4-8[1:1],{1},,
E
&inote_2=(185.0){1},,
{1}1,
{1}1,
{1}8,
{1}8,
{1}1,
{1}1/2,
{1}8,
{1}7/8,
{2}1,1,
{1}2,
{2}8,8,
{1}7,
{2}1,1,
{1}1/2,
{2}8,8,
{1}7/8,
{1}1-4[4:3],,
{1}5-8[4:3],,
{2}1,1,
{2}2,2,
{2}3,3,
{1}4/5,
{1}3h[1:1]/6h[1:1],,
{4}7,7,7,,
{4}6,6,6,,
{4}5,5,5,,
{4}4,5,4,,
{4}2,2,2,,
{4}3,3,3,,
{4}4,4,4,,
{4}5,4,5b,,
{4}6,6,6,,
{4}7,7,7,,
{4}8,8,8,,
{4}1,8,1,,
{4}3,3,3,,
{4}2,2,2,,
{4}1,1,1,,
{4}8,1,8b,,
{1}8-4[4:3],,
{1}1-5[4:3],,
{2}8,8,
{2}7,7,
{2}6,6,
{2}5,5,
{1}4h[1:1],,
{1}5h[1:1],,
{1}5h[1:1]/6h[1:1],,
{1}3h[1:1]/4h[1:1],,
{4}1,1,2,,
{4}2,2,1/2,,
{4}3,3,4,,
{4}4,5,4b,,
{4}5,5,6,,
{4}6,6,5/6,,
{4}7,7,8,,
{4}1/8,1/8,1/8,,
{4}8,8,7,,
{4}7,7,7/8,,
{4}6,6,5,,
{4}5,4,5b,,
{4}4,4,3,,
{4}3,3,3/4,,
{4}2,2,1,,
{4}1/8,1/8,1/8,,
{1}1-4[4:3]/8-5[4:3],,
{1}4-1[4:3]/5-8[4:3],,
{2}1,1,
{2}2,2,
{2}3,3,
{1}4h[2:1]/5h[2:1],
{2}5,5,
{2}6,6,
{2}7,7,
{2}8,1/8,
{2}7,7,
{2}6,6,
{2}5,5,
{8}3h[8:7]/6h[8:7],,,,,,,,
E
&inote_3=(185.0){1},,
{2}1,1,
{2}2,2,
{2}3,3,
{2}3/4,3/4,
{2}8,8,
{2}7,7,
{2}6,6,
{2}5/6,5/6,
{4}6,5,5/6,,
{4}3,4,3/4,,
{4}6,5,5/6,,
{4}3,4,3/4,,
{4}6,6,7,7,
{4}2/8,2/8,2/8,,
{4}3,3,2,2,
{4}1/7,1/7,1/7,,
{1}6<3[4:5],,
{1}3q6[4:5],,
{4}5,4,3/6,,
{4}4,5,3/6,,
{4}6,5,4/7,4/7,
{4}3,4,2/5,2/5,
{4}4,5,3/6,3/6,
{4}2/7,2/7,1^3[2:1]/8^6[2:1],,
{2},4/5,
{4}4,5,3/6,,
{4}3/4,4/5,5,4,
{1}3b-8[2:1],
{4}6,5,4/7,,
{4}3,4,2/5,,
{1}4-1[2:1]/5-8[2:1],
{2}1/8,2/7,
{4}1,1,2/8,,
{4}8,8,1/7,,
{4}1/2,1/2,3/8,,
{4}7/8,7/8,1/6,,
{4}2,1,3/8,,
{4}7,8,1/6,,
{4}2,1,3/8,,
{4}7,8,1/6,6/1^4[8:5],{1},
{4}5,6,7,8^5[8:5],{1},
{4}4,4,3,3^6[8:5],{1},
{4}7,7,6,6^3[8:5],{1},
{4}4,5,3/6,,
{2}6/3h[2:1],4h[2:1],
{2}5h[2:1],6,
{2}6h[2:1],5h[2:1],
{2}4h[2:1],3,
{4}3h[2:1],4,4,,
{4}6h[2:1],5,5,,
{4}5,4/6,4,3/5,
{4}4/5,4/5,3/6,,
{4}7,8,1/6,,
{4}1,8,2/7,,
{4}2,1,3/8,,
{4}1,8,2/7,,
{4}1h[2:1],8,8,,
{4}8h[2:1],1,1,,
{4}2h[2:1],1,1,,
{4}7h[2:1],8,8,,
{4}1,8,2/7,,
{4}8,1,2/7,,
{4}2,1,3/8,,
{4}7,8,1/6,,
{4}1h[2:1],8,8,,
{4}8h[2:1],1,1,,
{4}2h[2:1],1,1,,
{4}7h[2:1],8,8,,
{4}1,2,3,3/4,
{4}8,7,6,5/6,
{4}2,3,4,4/5,
{4}7,6,5,4/5,
{4}4,3,2,1/2,
{4}5,6,7,7/8,
{4}3,2,1,1/8,
{4}6,7,8,1/8,
{4}7,8,1/6,1/6,
{4}2,1,3/8,3/8,
{4}6,5,4/7,4/7,
{4}3,4,2/5,2/5,
{4}2,1,3/8,3/8,
{4}8,1,2/7,2/7,
{4}3,4,2/5,2/5,
{4}6,7,8,1,
{1}2/7,
E
&inote_4=(185.0){1},,
{4}3,2,1,,
{4}6,7,8,,
{4}3,2,1,,
{4}6,7,8,,
{4}3h[1:1],1,8,7,
{4}6h[1:1],8,1,2,
{4}3h[1:1],1,8,7,
{4}6h[1:1],8,1,2,
{8}3b,,7,7,,7/8,,8/7-4[8:1],
{8},,,,1/2,,1/2,1/2-5[8:1],
{8},,,,7/8,,7/8,8/7-4[8:1],
{8},,,2h[4:1],,1h[4:1],,8h[4:1],
{8},7,7,,2,,1/8,1/8,
{8},2/7,,3/6,,4h[4:1],,8,
{8},5h[4:1],,1,,4,,4,
{8}5,4,5,4,,2/7,2/7,,
{2}1h[1:1],7,
{2}7h[1:1],3,
{2}3h[1:1],5,
{2}5h[2:1],1,
{8}1b/8b,,1,7,1,7,1,,
{8}1/8,,8,2,8,2,8,,
{8}3/8,3/8,,3/7,3/7,,3/6,3/6,
{8},3/5,3/5,,3-8[8:1]/4-7[8:1],,,,
{8}1/6,1/6,,2/6,2/6,,3/6,3/6,
{8},4,4,,1/8,,,2b/7b,
{8},,5-1[8:1]/6-8[8:1],,,,,3,
{8},1/2,1/2,,7-5[8:1]/8-4[8:1],,,,
{8}3/7,3/7,,2/6,,1/5,,4^7[8:3]/8^3[8:3],
{8},,,,,,4/8,4b-1[8:1]/8b-5[8:1],
{8},,,,2,,6,6,
{8},3,3,,7/8,,3/4,,
{8}6,5,6,5,,1^6[4:1]/2p5[4:1],,,
{8},,,,4,4,,2b/7b,
{8},,3-1[8:1]/4-8[8:1],,,,,6,
{8},7/8,7/8,,1-5[8:1]/2-4[8:1],,,,
{8}2/6,2/6,,3/7,,4/8,,1^6[8:3]/5^2[8:3],
{8},,,,,1/5,,1b-4[8:1]/5b-8[8:1],
{8},,,,3,,7,7,
{8},2,2,,5/6,,1/2,,
{8}7,8,7,8,,3q8[4:1]/4^7[4:1],,,
{8},,,1/2,1/2,,7/8,7bqq5[8:3]/8b>4[8:3],
{8},,,,,,1/2,1<5[8:3]/2pp4[8:3],
{8},,,,,,7/8,7qq5[8:3]/8>4[8:3],
{8},,,,,,1/2,1<5[8:3]/2pp4[8:3],
{8},,,,,,7/8,7b/8b,
{8},2,1,2,1h[8:3],,2,2,
{8},6,5,6,5h[8:3],,6,6,
{8},3,4,3,4h[8:3],,3,3,
{8},7,8,7,8,,2/7,2b/7b,
{4},1,2,3,
{4}4h[1:1],5,6,7,
{4}8h[1:1],1,2,3,
{4}4h[1:1],5,6,7,
{4}8^5[2:1],1,2,3,
{4}4^1[2:1],5,6,7,
{4}8^5[2:1],1,2,3,
{2}4-8[8:1],1/7,
{8}2b/7b,,3,4,3,,1/7,1/7,
{8},6,5,6,5,,2/8,2/8,
{8},3,4,3,4,,1/7,1/7-4[8:1],
{8},,3,3-8[8:1],,,,7b,
{8},1/2,1/2,,3,3,,2/8,
{8},7/8,7/8,,6,6,,4/3V17[4:1],
{8},,,,6,,5/6,5/6V82[4:1],
{8},,,,3,3,,2b/7b,
{8},3,4,3,4,,1/7,2/6,
{8},6,5,6,5,,2/8,3/7,
{8},3,4,3,4,,1/7,6/2-5[8:1],
{8},,6,6-1[8:1],,,,2b,
{8},3/7,3/7,,1,8,,1/7,
{8},2/6,2/6,,5,4,,5/6V82[4:1],
{8},,,,3,,3/4,4/3V17[4:1],
{8},,,,6,,2/7,3b/6b,
{8},3h[8:5]/6p8[8:3],,,,,,,
{1}6h[4:3]/2p4[2:1],
{1}2h[4:3]/8q6[2:1],
{1}7h[4:3]/4q2[2:1],
{8}1/3h[1:1],,8,,7,7,7,,
{8}6h[1:1],,1,,2,2,2,,
{4}3,1/8,2/7,3/6,
{8}4,5,4,5,4/5,4/5,,2b/7b,
{4},1/8,3h[2:1],1,
{4}6h[2:1],8,3h[2:1],1,
{4}6h[4:1],7h[4:1],8h[4:1],1h[4:1],
{8}2h[4:1],,3h[4:1],,4,4,,3/5,
{8},2,1,2,1,2,,4/6,
{8},7,8,7,8,7,,3/4,
{8},2,1,3,8,4,,5/6,
{8},7,8,6,1,5,,3b>6[8:5]/4bp5[8:5],,,,,,,,
E
&inote_5=(185.0){1},,
{8}4/5,,4,5,4,5,4,5,
{8}3/5,,3,5,3,5,3,5,
{8}4/5,,4,5,4,5,4,5,
{8}4/6,,4,6,4/6,,2,8,
{8}1/8,,1,8,1,8,1,8,
{8}2/8,,2,8,2,8,2,8,
{8}1/8,,1,8,1,8,1,8,
{8}1/7,,1,7,1/8,,2/7,,
{8}2-4[8:1],5,5,,2-5[8:1],6,6,,
{8}2-6[8:1],7,7,,2-7[8:1],8,8,,
{8}2-6[8:1],7,7,,2-5[8:1],6,6,,
{8}2-4[8:1],5,5,,3/6,2/7,1/8,,
{8}7-5[8:1],4,4,,7-4[8:1],3,3,,
{8}7-3[8:1],2,2,,7-2[8:1],1,1,,
{8}7-3[8:1],2,2,,7-4[8:1],3,3,,
{8}7-5[8:1],4,4,,1/8,2/7,3/6,4/5,
{1}3bq5[1:1],
{1}5q7[1:1],
{1}7q1[1:1],
{2}1^4[2:1],4qq2[8:1],
{8}7,8,7,8,6,5,6,5,
{8}1,2,1,2,4,3,4,3,
{8}5/6,5/6,,3/4,3/4,,5/6,5/7,
{8},3/4,2/4,,7/8,,1/2,,
{4}2^7[4:1],7^4[4:1],4^1[4:1],1^4[4:1]*^6[4:1],
{8},,,,3b/6b,,,8/2-5[8:1],
{8},2,1^6[8:1],,3,2,1,8^3[8:1],
{8},7,6,5,6h[4:1],,,6,
{8}5,7,3,4,2,7,1,8-4[8:1],
{8},8,2v5[8:1],,1,8,7,1/6-3[8:1],
{8},6,8^3[8:1],,6,7,8,1^6[8:1],
{8},2,3h[4:1],,,7,3,6,
{8}4,5pp7[8:1],,5qq3[8:1],,5w1[8:3],,5,
{8},,,,4,3/5,2/6,1/7b-4[8:1],
{8},7,8^3[8:1],,6,7,8,1^6[8:1],
{8},2,3,4,3h[4:1],,,3,
{8}4,2,8,6,7,4,5,1-5[8:1],
{8},1,6v3[8:1],,7,8,1,2-7[8:1]/3-6[8:1],
{8},,,5,5v8[8:1],,4,4v1[8:1],
{8},6,6h[4:1],,,6,5,7,
{8}1,3,2,5,4,8qq6[16:3],,1pp3[16:3],
{8},,,5,4/6,3/7,2/8,1h[8:7],
{8},8,7,6,5,6,7,7h[8:7],
{8},1,2,3,4,3,2,2h[8:7],
{8},1,8,7,6,7,8,8h[8:5],
{8},5,4,3,2,1w5[8:1],,1b,
{8},3,2,1,8,1,2,2h[8:7],
{8},4,5,6,7,6,5,5h[8:7],
{8},4,3,2,1,2,3,3h[8:5],
{8},4,5,6,7,8w4[8:1],,8,
{8},,6,6,,2,2,,
{8}8,7,6,5,,1,1,,
{8}7,6,5,4,,8,8,,
{8}3,4,3,,1/2,,2/3,,
{8}5,6,7,8,,4,4,,
{8}6,7,8,1,,5,5,,
{8}4,5,4,,5/6,,6/7,,
{2}7-3[8:1]/8-2[8:1],1b/8b,
{8}7/2-5[8:1],,1^6[8:1],,2,3,4,7-4[8:1],
{8},7,8^3[8:1],,7,6,5,3-8[8:1],
{8},3,4^7[8:1],,8,1,2,3h[4:1],
{8},,4,3/5,2/6,1/7,,8/7^4[8:1],
{8},2-6[8:1],2,8-3[8:1],8,5-1[8:1],5,8,
{8},7-3[8:1],7,1-6[8:1],1,4-8[8:1],4,1,
{8},2-6[8:1],2,8-3[8:1],8,5-1[8:1],5,7^4[8:1],
{8},2,1,8,1/7,2/6,3/5,4/6b^1[8:1],
{8},6,5v2[8:1],,1,8,7,3b^8[8:1],
{8},3,4v7[8:1],,8,1,2,6b-1[8:1],
{8},6,5^2[8:1],,1,8,7,6h[4:1],
{8},,5,4/6,3/7,2/8,,1/2^5[8:1],
{8},7-3[8:1],7,1-6[8:1],1,4-8[8:1],4,1,
{8},2-6[8:1],2,8-3[8:1],8,5-1[8:1],5,8,
{8},7-3[8:1],7,1-6[8:1],1,4-8[8:1],4,2^5[8:1],
{8},7,8,1,2/8,3/7,4/6,4h[4:1]/6h[4:1],
{8},,4/5,6,4/5,3,4/5,6,
{8}4/5,2,4/5,7,4/5,2,4/5,,
{8}3/4,2,5/6,7,3/4,2,5/6,7,
{8}3/4,1,5/6,8,3/4,1,5/6,5h[4:1]/6h[4:1],
{8},,1b/8b,,3/4,1,5/6,8,
{8}3/4,1,5/6,8,3/4,1,5/6,8,
{8}3/4,3/4,5/6,5/6,2/4,2/4,5/7,5/7,
{983}8,,,,,,,,,,,,,,,,,,,,,,,,,,,,,,,,,,,,,,,,,
{625}7,,,,,,,,,,,,,,,,,,,,,,,,,,
{983}6,,,,,,,,,,,,,,,,,,,,,,,,,,,,,,,,,,,,,,,,,
{8}5,
{983}1,,,,,,,,,,,,,,,,,,,,,,,,,,,,,,,,,,,,,,,,,
{625}2,,,,,,,,,,,,,,,,,,,,,,,,,,
{983}3,,,,,,,,,,,,,,,,,,,,,,,,,,,,,,,,,,,,,,,,,
{8}4,
{983}7,,,,,,,,,,,,,,,,,,,,,,,,,,,,,,,,,,,,,,,,,
{625}6,,,,,,,,,,,,,,,,,,,,,,,,,,
{983}5,,,,,,,,,,,,,,,,,,,,,,,,,,,,,,,,,,,,,,,,,
{8}4,2,7h[4:1]/8h[4:1],
{8},,4/5,1h[4:1]/2h[4:1],,,6h[4:1]/7h[4:1],,
{8},2h[4:1]/3h[4:1],,,1,2,3,4,
{8}8-6[8:1],8,1-3[8:1],1,8-5[8:1],8,1-5[8:1],1,
{8}8-4[8:1],8,1-4[8:1],1,8-5[8:1],8,2,3b^8[8:1],
{8},3,6,,5/6,4/7,,6^1[8:1],
{8},6,3,,3/4,2/5,,3^8[8:1],
{8},3,6,,5/6,4/7,3/8,1h[4:1]/2h[4:1],
{8},,1/2,,3/7,4-1[8:1]/8-5[8:1],1/5,4b/8b,,
E
