&title=エテルニタス・ルドロジー
&artist=IRON ATTACK!
&wholebpm=178
&demo_seek=56.4
&demo_len=11.9
&lv_1=2
&lv_2=5
&lv_3=7+
&lv_4=11
&lv_5=13+
&des_4=Jack
&des_5=某S氏
&inote_1=(178.0){1},,,,,
{1}1,
{1}2,
{1}3,
{1}4,
{1}5,
{1}6,
{1}7,
{1}8,
{1}8,
{1}7,
{1}6,
{1}5,
{1}4,
{1}3,
{1}2,
{1}1,
{1}1,
{1}2,
{1}3,
{1}4,
{1}4/5,
{1}5h[1:1],,
{1}6h[1:1],,
{1}7h[1:1],,
{1}8h[1:1],,
{1}8,
{1}8,
{1}1,
{1}1,
{1}2,
{1}3,
{1}4,
{1}5,
{1}6,
{1}7,
{1}8,
{1}8,
{1}7,
{1}6,
{1}5,
{1}4/5,
{1}4h[1:1],,
{1}3h[1:1],,
{1}2h[1:1],,
{1}1h[1:1],,
{1}8-4[4:3],,
{1}1-5[4:3],,
{1}8-4[4:3],,
{1}1-5[4:3],,
{1}7-3[4:3],,
{1}2-6[4:3],,
{1}7-3[4:3],,
{1}2-6[4:3],,
{2}8,8,
{1}8,
{2}7,7,
{1}7,
{2}6,6,
{1}6,
{2}5,5,
{1}5b,
{2}4,4,
{1}4,
{2}3,3,
{1}3,
{2}2,2,
{1}2,
{2}1,1,
{1}1b,
{1}8h[1:1],,
{1}1h[1:1],,
{1}8-4[4:3],,
{1}1-5[4:3],,
{1}5,
{1}4,
{1}3,
{1}2,
{1}1/8,
E
&inote_2=(178.0){1},1,
{1}1,
{1}8-4[4:3],,
{2}5,5,
{1}5/6,
{2}4,4,
{1}3/4,
{2}2,2,
{2}1,1,
{2}8,8,
{1}7h[2:1],
{2}7,7,
{2}8,8,
{1}1/8,
{1}1-4[4:3]/8-5[4:3],,
{2}1,1,
{4}2,2,2,,
{2}3,3,
{4}4,4,4,,
{2}5,5,
{4}6,6,6,,
{2}7,7,
{1}1/8,
{1}8-4[4:3],,
{1}1-5[4:3],,
{2}5,5,
{2}6,6,
{2}7,7,
{1}1b/8b,
{4}1,1,1,,
{4}2,2,2,,
{4}3,3,3,,
{4}4,4,4/5,,
{4}5,5,5,,
{4}6,6,6,,
{4}7,7,7,,
{1}1h[2:1]/8h[2:1],
{2}8,8,
{4}7,7,7,,
{2}6,6,
{4}5,4,5,,
{2}4,4,
{4}3,3,3,,
{2}2,2,
{2}1/8,1/8,
{1}7-4[4:3],,
{1}2-5[4:3],,
{4}5,5,5,,
{4}6,6,6,,
{4}7,7,7,,
{1}1b/8b,
{2}1,1,
{2}1/2,1/2,
{2}3,3,
{2}3/4,3/4,
{2}5,5,
{2}5/6,5/6,
{2}7,7,
{2}7/8,7/8,
{4}8,8,8,,
{4}7,7,7,,
{4}6,6,5,5,
{4}4,4,4/5,,
{4}3,3,3,,
{4}2,2,2,,
{4}1,8,1,,
{1}1b/8b,
{1}1-5[4:3],,
{1}8-4[4:3],,
{4}1,1,1,,
{4}2,2,2,,
{4}3,3,4,4,
{4}5,5,4/5,,
{4}5,5,5,,
{4}6,6,6,,
{4}7,7,7,,
{1}1h[2:1]/8h[2:1],
{2}8,8,
{2}7,7,
{4}6,6,5,5,
{4}4,4,4/5,,
{1}5/6,
{1}3/4,
{1}4h[2:1]/5h[2:1],
{1}3/6,
{1}7-3[4:3],,
{2}1,1,
{2}8,8,
{2}1/2,1/2,
{2}7/8,7/8,
{4}2,1,2,,
{4}7,8,7,,
{4}2h[4:3]/7h[4:3],,,,
E
&inote_3=(178.0){1},
{4}1,2,3/4,,
{4}8,7,5/6,,
{4}1,2,
{2}4/3p6[4:3],{1},
{4}8,7,5/6,,
{4}1,2,3/4,,
{4}8,7,
{2}5/6q3[4:3],{1},
{4}2,2,1,1,
{4}2,2,1/2,,
{4}7,7,8,8,
{4}7,7,7/8,,
{4}3,3,4,4,
{4}3,3,3/4,,
{1}4-1[2:1]/5-8[2:1],
{1}1pp4[4:5]/8qq5[4:5],,
{4}1,1,2,2,
{4}3,3,4,4,
{4}5,5,6,6,
{4}7,7,1/8,,
{4}8,8,7,7,
{4}6,6,5,5,
{4}4,4,3,3,
{4}2,2,1/8,,
{2}3h[2:1],4,
{2}6h[2:1],5,
{2}2h[2:1],3,
{2}7h[2:1],6,
{2}2h[2:1],1,
{2}7h[2:1],8,
{2}3h[2:1],2,
{2}6h[2:1],7,
{4}4,3,1/2,,
{4}5,6,7/8,,
{4}4,3,
{2}1/2q7[4:3],{1},
{4}5,6,7/8,,
{4}4,3,1/2,,
{4}5,6,
{2}8/7p2[4:3],{1},
{4}1,1,2,2,
{4}3,3,3/4,,
{4}8,8,7,7,
{4}6,6,5/6,,
{4}1,1,2,2,
{4}3,3,3/4,,
{4}8,8,7,7,
{4}5/6,5/6,4/7,,
{2}2h[2:1],1,
{2}7h[2:1],8,
{2}3h[2:1],2,
{2}6h[2:1],7,
{2}3h[2:1],4,
{2}6h[2:1],5,
{2}2h[2:1],3,
{2}7h[2:1],6,
{4}1,2,3,4,
{4}5,6,5/7,,
{4}8,7,6,5,
{4}4,3,2/4,,
{4}4,3,2,1,
{4}8,7,6/8,,
{4}5,6,7,8,
{4}1,2,1/3,,
{4}3,3/4,6,5/6,
{4}3,3/4,2/5,,
{4}6,5/6,3,3/4,
{4}6,5/6,4/7,,
{4}2,1/2,7,7/8,
{4}2,1/2,3/8,,
{4}7,7/8,2,1/2,
{4}7,7/8,1b/6b,,
{2}3h[2:1],5h[2:1],
{4}4,4,4,,
{2}6h[2:1],4h[2:1],
{4}5,5,5,,
{2}2h[2:1],4h[2:1],
{4}3,3,3,,
{2}7h[2:1],5h[2:1],
{4}6,6,6,,
{4}8,8,7,7,
{4}7/8,1/6,2/5,3/4,
{4}1,1,2,2,
{4}1/2,3/8,4/7,5/6,
{4}5,5,6,6,
{4}5/6,4/7,3/8,1/2,
{4}4,4,3,3,
{4}3/4,2/5,1/6,,
{4}2/5,4,5,6,
{4}4/7,5,4,3,
{4}2/5,3,4,5-2[2:1]/6-1[2:1],{1},
{4}2/7,1,8,1/8,
{4}2/7,2/7,,,
{4}1,2,3,4,
{4}5,6,7,8,
{4}8,7,6,5,
{4}4,3,2,1,
{4}1/8,1/8,2/7,2/7,
{4}3/6,3/6,4/5,4/5,
{4}4,5,4/5,2b/7b,
E
&inote_4=(178.0){1},3h[8:7]/4h[8:7],
{1}4h[8:7]/5h[8:7],
{1}5h[8:7]/6h[8:7],
{4}4^1[4:1]/5^8[4:1],,,2b/7b,
{8}3,3,4,,3/5,,2/6,,
{8}6,6,5,,4/6,,3/7,,
{8}4,4,5,,3/6,,
{4}7/2qq5[4:3],{1},
{8}5/6,,4/7,,6,6,5,,
{8}3/4,,2/5,,3,3,4,,
{4}6h[4:1],5h[4:1],4h[4:1],3>6[2:1],
{4},,,1/8,
{8}3/4,,2/5,,3,3,4,,
{8}5/6,,4/7,,6,6,5,,
{1}1h[8:7]/8h[8:7],
{2}8/1-5[8:1],7-3[8:1],
{1}2<5[2:1],
{4}3h[4:1],4,6h[4:1],5,
{4}7,6,5,3/4,
{4}2,1/2,7,7/8,
{4}1,2-5[4:1]/8-5[4:1],,,
{4}3,2/4,6,5/7,
{4}4^1[4:1]*^7[4:1],,,7/8,
{4}1h[4:1],2h[4:1],3h[4:1],4>5[2:1],
{4},,,1/8,
{8}2/4,,7/8,,5,4,5,,
{8}5/7,,1/2,,4,5,4,,
{8}2/4,,7/8,,5,4,5,,
{8}5/7,,1/2,1-6[16:3]/2-5[16:3],,,,,
{8}1/8,,3/4,3/4,,2/6,2/6,,
{8}1/8,,5/6,5/6,,3/7,3/7,,
{4}1/8,4qq2[4:1]/5pp7[4:1],,,
{4}1/8,2/7,3/6,4/5,
{8}3,3,4,,5/7,,2/4,,
{8}6,6,5,,2/4,,5/7,,
{8}4,4,5,,2/4,,
{4}5/7pp4[4:3],{1},
{8}6,6,5,,2/4,,5/7,,
{8}3,3,4,,5/7,,2/4,,
{8}5,5,4,,5/7,,
{4}4/2qq5[4:3],{1},
{4}6h[4:1],5,2h[4:1],3,
{4}7,6,5,3/4,
{4}7,7/8,2,1/2,
{4}8,1-4[4:1]/7-4[4:1],,,
{4}6,5/7,3,2/4,
{4}5^2[4:1]*^8[4:1],,,1/2,
{4}8h[4:1],7h[4:1],6h[4:1],5<4[2:1],
{4},,,1/8,
{8}5/7,,1/2,,4,5,4,,
{8}2/4,,7/8,,5,4,5,,
{8}5/7,,1/2,,4,5,4,,
{8}2/4,,7/8,7-4[16:3]/8-3[16:3],,,,,
{8}1/8,,5/6,5/6,,3/7,3/7,,
{8}1/8,,3/4,3/4,,2/6,2/6,,
{4}1/8,1^4[4:1]/8^5[4:1],,,
{16}1/8,,,1/8,,,1b/8b,,,,,,,,,,
{4}2h[4:1],1,7h[4:1],6,
{4}3h[4:1],4-8[4:1],,,
{8}2,2,8,,7,7,1-5[4:1],,
{8},,,7,7,,3/4,,
{4}7h[4:1],8,2h[4:1],3,
{4}6h[4:1],5-1[4:1],,,
{8}7,7,1,,2,2,8-4[4:1],,
{8},,,2,2,,5/6,,
{8}2,,1/3,,6,6,5,,
{8}7,,6/8,,3,3,4,,
{8}7,7,8,,2,2,1,,
{4}3/7,1^4[4:1]/5^8[4:1],,,
{8}3/4,,2/5,,7,7,8,,
{8}5/6,,4/7,,2,2,1,,
{8}4/7,,2/5,,8,8,
{4}1s5[2:1],{1},
{2}7h[2:1],5h[2:1],
{2}4h[2:1],2,
{2}2h[2:1],4h[2:1],
{2}5h[2:1],7,
{2}7h[2:1],8h[2:1],
{2}1h[2:1],2h[2:1],
{4}3,2,1,8,
{4}7,6,4/5,,
{8}2,2,1,,7,7,8,,
{4}1/2,3/4,5/6,7/8,
{8}1,1,6,,8,8,3,,
{4}1/2,7/8,5/6,3/4,
{8}2,2,4,,7,7,5,,
{4}4/5,3/6,2/7,1/8,
{8}3,3,1,,6,6,8,,
{8}3,3,1-4[4:1]*-6[4:1],,,,,,
{1}7h[8:7]/8h[8:7],
{1}1h[8:7]/8h[8:7],
{1}1h[8:7]/2h[8:7],
{4}1^4[4:1]/8^5[4:1],,,2b/7b,
{8}1h[4:3]/8h[4:3],,,,,,,1pp4[8:5]/8qq5[8:5],{1},
{8}2h[8:3],,,4h[4:1],,3,2/5,,
{8}7h[8:3],,,5h[4:1],,6,4/7,,
{8}3h[8:3],,,1h[4:1],,2,3/8,,
{8}6h[8:3],,,8h[4:1],,7,1/6,,
{8}8h[8:3],,,1h[4:1],,8,2/7,,
{4}3/6,2/4,5/7,1/8,
{8}3h[4:1]/4h[4:1],,,5h[4:1]/6h[4:1],,,1b/8b,
E
&inote_5=(178.0){1},
{8}3h[4:3]/4h[4:3],,,,,,,5/6,
{1}4h[4:3]/7h[4:3],
{1}7qq4[2:1]/8pp3[2:1],
{16}2h[8:5]/7h[8:5],,,,,,,,,,,,4,5,4,5,
{8}3,4,2/5,3,4,3,2/5,3,
{8}6,5,4/7,6,5,6,4/7,6,
{8}1,8,2/7,1,8,1,2/7,1/8,
{16}3h[4:1]/6h[4:1],,,,,,,,4,5,4,,6,,3,,
{4}7^4[4:1],4^1[4:1],1^6[4:1],6pp4[2:1],
{8}2h[2:1],,,,,1,8,7,
{4}2^5[4:1],5^8[4:1],8^3[4:1],3qq5[2:1],
{4}7h[2:1],,,1/8,
{4}2-5[8:1],7-3[8:1],1-5[8:1],1/8,
{4}7-4[8:1],2-6[8:1],8-4[8:1],1/8,
{12}2,
{995}1,,,,,,,,,,,,,,,,,,,,,,,,,,,,,,,,,,,,,,,,,,,,,,,,,,,,,,,,,,,,,,,,,,,,,,,,,,,,,,,,,,,
{12}2,7,
{995}8,,,,,,,,,,,,,,,,,,,,,,,,,,,,,,,,,,,,,,,,,,,,,,,,,,,,,,,,,,,,,,,,,,,,,,,,,,,,,,,,,,,
{12}7,3,
{995}4,,,,,,,,,,,,,,,,,,,,,,,,,,,,,,,,,,,,,,,,,,,,,,,,,,,,,,,,,,,,,,,,,,,,,,,,,,,,,,,,,,,
{12}3,6,
{995}5,,,,,,,,,,,,,,,,,,,,,,,,,,,,,,,,,,,,,,,,,,,,,,,,,,,,,,,,,,,,,,,,,,,,,,,,,,,,,,,,,,,
{48}6,,,,
{16}1/5,,,3/7,,,1/5,,4/8,,,2/6,,,4/8,,
{1}1h[8:7]/5h[8:7],
{8}1,4,3,7,5/6,4/7,,3h[4:1],
{8},8,2-5[8:1],1-6[8:1],2,1,,,
{8}2,4,3,7,5,6h[4:1],,8h[4:1],
{8},1,2,7,1/8,2/7,3/6,,
{8}6,8,7,3,1,2h[4:1],,4h[4:1],
{8},5,6,7^2[8:1],,4,4,,
{8}3,5,4,6,2h[4:1]/8-4[8:1],,,,
{16}6h[4:1]/1-5[8:1],,,,,,7,,,,4,5,4,5,4,5,
{8}4^1[8:1],5,6,7,7^4[8:1],8,1,2,
{8}2^7[8:1],3,4,5,5^2[8:1],6,7,8,
{8}8^3[8:1],7,6,5,5^8[8:1],4,3,2,
{8}2^5[8:1],1,8,7,7^2[8:1],6,5,4,
{8}4,5,3,7h[4:1],,6,7,6,
{8}8,1,7,3h[4:1],,2,3,2,
{8}1,5,3,7h[8:3],2h[4:1],,,,
{1}1V36[2:1]/5V72[2:1],
{16}3,,4,,2/5,,3,,4,,3,,5,4,5,4,
{16}6,,5,,4/7,,6,,5,,6,,4,5,4,5,
{16}2,,1,,3/8,,2,,1,,2,,8,1,8,1,
{8}7,8,1/6,7,7/8,1/6,2b/5b,,
{8}6,5,4/7,6,5,6,4/7,6^1[8:1],
{8},5,4,3^8[8:1],,,5h[8:3],,
{8},4w8[8:3],3/6,4,,,,,
{1}1pp8[2:1]/5pp4[2:1],
{16}4,5,4,,7,,2,,5,4,5,,2,,7,,
{16}3,4,3,,8,,1,,6,5,6,,1,,8,,
{16}3,5,4,,7,,1,,6,4,5,,2,,8,,
{16}4,5,4,,8,,1,,2/7,,3/6,,4/5,,,,
{16}2,1,2,,5,,4,,7,8,7,,4,,5pp8[8:3],,
{8},1,2,3,,,4/5,,
{16}6,5,6,,5/6,,4/7,,3,4,3,,3/4,,2/5,,
{16}1q4[4:1],,,,,,6,,6,,5,4,5,4,5,4,
{8}5^8[8:1],4,3,2,2^5[8:1],1,8,7,
{8}7^2[8:1],6,5,4,4^7[8:1],3,2,1,
{8}1^6[8:1],2,3,4,4^1[8:1],5,6,7,
{8}7^4[8:1],8,1,2,2^7[8:1],3,4,5,
{8}5,1,7,3h[4:1],,2,3,2,
{8}4,8,2,6h[4:1],,7,6,7,
{8},1h[4:1]/8h[4:1],,,1-5[8:1]/8-4[8:1],,,,
{16}2b/6b,,,3b/7b,,,1b/5b,,,,,,,,,,
{16}2,,5,,3,4,3,,7,,4,,6,5,6,,
{16}1,,5,,2,4,2,,8,,4,,7,5,7,,
{8}3-7[8:1],,5,5-1[8:1],,2,2,,
{1}4qq1[2:1]/8qq5[2:1],
{16}7,,4,,6,5,6,,2,,5,,3,4,3,,
{16}8,,4,,7,5,7,,1,,5,,2,4,2,,
{8}6-2[8:1],,4,4-8[8:1],,7,7,,
{1}1pp4[2:1]/5pp8[2:1],
{16}4,,6,,2,4,3,,5,,3,,7,5,6,,
{8}3V15[4:1],,,8,8,,1/7,,
{16}8,,2,,6,8,7,,1,,7,,3,1,2,,
{8}7V51[4:1],,,4,4,,3/5,,
{16}4,,5,,3,4,2,,5,,4,,6,5,7,,
{16}4,,5,,2,1,3,,5,,4,,7,8,6,,
{16}5h[4:1]/6h[4:1],,,,,,,,4/5,,3/5,,,2/5,,,
{8}1v4[8:1]/5v8[8:1],,,,3b/7b,,2/6,1/7,
{4}8-4[8:1],8,1s5[4:1],1,
{4}8w4[4:1],,,2>6[4:1],
{4}6<2[4:1],2>6[4:1],6<2[4:1],2q4[16:5],
{8}7h[4:1],,,,5,4,3/6,,
{4}8/7-4[8:1],1,1/2-5[8:1],8,
{2}3^8[8:1]/7^4[8:1],3h[4:1]/7h[4:1],
{8}4^1[8:1],5,6,7^4[8:1],8,1,2,3,
{8}4^1[8:1],5,6,7,8,,2/7,,
{16}1/8,,3,4,3,4,3,,1/8,,6,5,6,5,6,,
{16}4/5,,2,1,2,1,2,,4/5,,7,8,7<3[4:1],8,7,,
{4}3>7[4:1],7<3[4:1],3>7[4:1],7p5[16:5],
{16}2h[4:1],,,,,,,,4,5,4,,3/6,,,,
{8}7-3[8:1]/8-4[8:1],1/6,7/8,,1-5[8:1]/2-6[8:1],3/8,1/2,,
{8}1-6[8:1]/8-3[8:1],2/7,1/8,,4/5,,2/7,,
{8}8^5[8:1],1,2,3,4^1[8:1],5,6,7,
{8}8p5[4:1],1,2,3,4,,4/5,,
{8}5h[4:3]/6h[4:3],,,,,,,3/4,
{1}2h[4:3]/5h[4:3],
{1}1qq6[2:1]/2pp5[2:1],
{16}2h[8:5]/7h[8:5],,,,,,,,,,,,4,5,4,5,
{8}3h[4:3]/6h[4:3],,,,,,,4/8w4[4:1],
{16},,,,,,,,,,1,8,2/7,,,,
{8}8/2-5[8:1],,2,6-1[8:1],,6,4,,
{8}1/7-4[8:1],,7,3-8[8:1],,3,5,6,
{8}2-6[8:1],1,2,1<5[8:1],,1,2,3,
{8}7-3[8:1],8,7,8>4[8:1],,8,7,6,
{8}1-5[8:1],8-6[8:1],1-4[8:1],8-5[8:1],1-3[8:1],8-4[8:1],1-6[8:1],8-3[8:1],
{8}1-5[8:1],8<1[8:3],1,8,,,,,
{8}3b/7b,,4/8,2b/6b,,1/5,3b/7b,
E
