&title=イチズレシピ
&artist=アイドルカレッジ「俺がお嬢様学校に「庶民サンプル」としてゲッツされた件」
&wholebpm=170.0
&lv_1=2
&lv_2=4
&lv_3=7
&lv_4=8
&lv_5=10+
&des_4=はっぴー
&des_5=某S氏
&inote_1=(170.0){1},,
{1}1,
{1}2,
{1}3,
{1}4,
{1}5,
{1}6,
{1}7,
{1}8,
{1}8,
{1}7,
{1}6,
{1}5,
{1}4,
{1}3,
{1}2,
{1}1b,
{1}1-5[4:3],,
{1}8-4[4:3],,
{1}1,
{1}2,
{1}3,
{1}4/5,
{1}5,
{1}6,
{1}7,
{1}1/8,
{1}7h[1:1],,
{1}8h[1:1],,
{1}1h[1:1],,
{1}2h[1:1],,
{1}1,
{1}1/8,
{2}8,8,
{1}8,
{2}7,7,
{1}7,
{2}6,6,
{1}6,
{2}5,5,
{1}5,
{2}4,4,
{1}4,
{2}3,3,
{1}3,
{2}2,2,
{1}2,
{2}1,1,
{1}1b,
{1}1,
{1}2,
{1}3,
{1}4,
{1}5,
{1}6,
{1}7,
{1}8,
{1}1b,
E
&inote_2=(170.0){1},,
{2}4/5,4/5,
{4}4,5,4,,
{2}4/5,4/5,
{4}5,4,5,,
{2}3/4,3/4,
{4}3,4,3,,
{4}6,6,6,,
{4}7,7,7,,
{2}1/8,1/8,
{4}1,8,1,,
{2}1/8,1/8,
{4}8,1,8,,
{4}1,1,1,,
{4}8,8,8b,,
{1}1-4[4:3],,
{1}5h[1:1],,
{1}4h[1:1]/5h[1:1],,
{2}3,3,
{2}2,2,
{1}1-5[4:3],,
{2}6,6,
{2}7,7,
{1}8-4[4:3],,
{1}3h[1:1]/5h[1:1],,
{1}4h[1:1]/6h[1:1],,
{1}2h[1:1]/7h[1:1],,
{2}1,1,
{2}2,2,
{4}3,3,3,,
{1}4b/5b,
{2}5/6,5/6,
{4}6,5,6,,
{2}3/4,3/4,
{4}3,4,3,,
{2}3/6,3/6,
{4}4,5,4,,
{4}7,7,7,,
{4}2,2,2,,
{2}1/2,1/2,
{4}2,1,2,,
{2}7/8,7/8,
{4}7,8,7,,
{4}1,1,1,,
{4}8,8,8b,,
{1}1-4[4:3],,
{2}6,6,
{4}7,7,7,,
{2}8,8,
{4}1,8,1,,
{2}2,2,
{4}3,3,3,,
{2}4,4,
{4}5,4,5,,
{1}4b/5b,
E
&inote_3=(170.0){1},,
{4}3,3,4,4,
{4}3,4,3/4,,
{4}6,6,5,5,
{4}6,5,5/6,,
{4}2,2,1,1,
{4}2,1,1/2,,
{4}7,7,8,8,
{4}7,8,7/8,,
{4}1,2,3,4,
{4}5,6,7/8,,
{4}8,7,6,5,
{4}4,3,1/2,,
{4}3/4,3/4,5/6,5/6,
{4}1/8,2/7,1b/7b,,
{4}2,2,1/2,,
{4}7,7,7/8,,
{1}6^3[2:1],
{1}2>6[2:1],
{1}7<2[8:5],,
{4}3h[4:3],,4,4,
{4}6h[4:3],,5,5,
{4}2h[4:3],,1,1,
{4}7h[4:3],,8,8,
{4}2h[4:3],,3,3,
{4}7h[4:3],,6,6,
{4}3h[4:3],,2,2,
{4}6h[4:3],,7,7,
{2}3h[4:1]/4h[4:1],2/5,
{4}2,3,4,5,
{2}5h[4:1]/6h[4:1],4/7,
{4}6,7,8,7/8,
{4}2,1,1-6[4:1]/2-5[4:1],,
{2},3/6,
{4}7,8,7-4[4:1]/8-3[4:1],,
{2},2/7,
{4}1/8,1^4[2:1]/8^5[2:1],,,{1},
{4}3,4,3,4,
{4}3/4,3/4,2/5,,
{4}6,5,6,5,
{4}5/6,5/6,4/7,,
{4}2,1,2,1,
{4}1/2,1/2,3/8,,
{4}7,8,7,8,
{4}7/8,7/8,1/6,,
{4}2,1/3,7,6/8,
{4}2/8,1/7,6/8,,
{4}3,2/4,6,5/7,
{4}3/5,4/6,5/7,,
{4}3/6,3/6,2/7,2/7,
{4}1/8,2/7,2b/8b,,
{4}1,2/8,3/7,4/6,
{4}8,1/7,2b/6b,,
{4}3,2,1,3/8,
{4}6,7,8,1/6,
{4}7,8,7,1/5,
{4}2,3,4/8,,
{4}2h[4:3],,3,3,
{4}7h[4:3],,6,6,
{4}7,6,5,3/4,
{4}2,3,4,5,
{1}5b/6b,
E
&inote_4=(170.0){1},
{8},,,,,,,5,
{8}5h[2:1],,,4,4h[2:1],,,5,
{8}5,,7/8,,1/6,,,4,
{8}4h[2:1],,,5,5,,4/5q7[2:1],,
{8},,,,,,,3,
{8}3h[2:1],,,4,4h[2:1],,,5,
{4}5,7/8,1/6,3qq8[2:1]/4pp7[2:1],
{4},,,5qq2[2:1]/6pp1[2:1],
{4},,,2b/7b,
{4}3h[4:1],4,7h[4:1],8,
{4}1/2,5-2[4:1]/6-1[4:1],,,
{4}6h[4:1],5,2h[4:1],1,
{4}7/8,3/4,2/5,1/2,
{8}4/7,,3/4,,5/6,5/6,,3/8,
{8},7/8,7/8,,2b/5b,,7,,
{4}8,1,2h[4:1],3,
{1}3q5[2:1],
{2}5-7[4:1],4-2[4:1],
{4}5-8[4:1],,4,3/5,
{2}4-2[4:1],5-7[4:1],
{4}4,4,3/5,,
{4}7h[4:3],5,4,3,
{4}2h[4:3],4,5,6,
{4}4/5,4/5,2/4,2/3,
{4}5/7,6/7,1/8,2/7,
{4}3h[4:3],1,8,7,
{4}6h[4:3],8,1,2,
{4}7/8,1/6,1/2,3/8,
{4}5/6,4/7,3/4,2/5,
{8}6h[2:1],,,5,5,,2/8,,
{8}3h[2:1],,,4,4,,1/7,,
{8}6h[2:1],,,5,5,,2/8,,
{8}3h[2:1],,,4,4,,1/7,,
{8}2h[2:1],,,1,1,,4/5,,
{8}7h[2:1],,,8,8,,4/5,,
{4}2b/7b,,6h[2:1],5,
{4}3h[2:1],4,7h[2:1],6,
{8}2,,1/8,1/8,,4/5,,7/2qq7[2:1],
{8},,,,,,,1/7,
{8}1h[4:1]/7h[4:1],,,2/8,2h[4:1]/8h[4:1],,,1/7,
{8}1/7,,7-4[8:1]/8-3[8:1],,,,,2/8,
{8}2h[4:1]/8h[4:1],,,1/7,1h[4:1]/7h[4:1],,,1^4[4:1]/7^4[4:1],
{8},,,,2/6,,,3/5,
{8}3h[4:1]/5h[4:1],,,4/6,4h[4:1]/6h[4:1],,,3/5,
{4}3/5,1/2,3/8,3qq8[2:1]/4pp7[2:1],
{4},,,5/6,
{4}4/7,3/8,3/4,1/6,
{8}3h[4:1]/8h[4:1],,,1/6,1h[4:1]/6h[4:1],,,7/8,
{8}7/8,,1/2,,3/7,,,4/7,
{8}4h[4:1]/7h[4:1],,,2/5,2h[4:1]/5h[4:1],,,2^5[4:1]/5^8[4:1],
{4},,1/2,7/8,
{8}2/5,,5/6,,3/4,3/4,,1/6,
{8},1/2,1/2,,4b/7b,,2,,
{4}1/3,7,6/8,5,
{1}5p3[2:1],
{4}3h[4:1],4,6h[4:1],5,
{8}7,8,1/6,,2,1,3/8,,
{4}6h[4:1],5,3h[4:1],4,
{4}7/8,3/4,1/6,4/5,
{4}2,1/3,7,6/8,
{4}3,2/4,6,5/7,
{4}1h[4:1],2h[4:1],3h[4:1],4h[4:1],
{4}5h[4:1],6h[4:1],7h[4:1],8h[4:1],
{1}1b,
E
&inote_5=
(170.0){1},,
{2}1-6[8:1]/2-5[8:1],7-4[8:1]/8-3[8:1],
{4}1/2,3/8,4h[4:1]/7h[4:1],,
{2}7^4[8:1]/8^3[8:1],1^6[8:1]/2^5[8:1],
{4}7/8,1/6,2h[4:1]/5h[4:1],,
{2}1-5[8:1]/2-6[8:1],7-3[8:1]/8-4[8:1],
{4}1/2,3/8,4/7,6^1[4:1],
{4}1^4[4:1],4^7[4:1],7,1p8[4:1],
{8}8<3[4:1],,,,,,2b/8b,2-5[8:1],
{8}1-6[8:1],,,2^5[8:1],1^6[8:1],,,2,
{8}1/2,3/8,4/7,5/6,5h[4:1]/6h[4:1],,,7-4[8:1],
{8}8-3[8:1],,,7^4[8:1],8^3[8:1],,,7,
{8}7/8,1/6,2/5,3/4,3/4,,1-3[8:1]/8-4[8:1],,
{8}1-5[8:1]/8-6[8:1],,1/8,,1/8,2/7,,6/3^6[8:1],
{8},8,8,,2b/7b,,1,8-4[8:1],
{8},3,2,1,8,,2/7,4/5,
{8},3qq5[8:3]/6pp4[8:3],,3/6,,,,,
{2}4^1[8:1],5^8[8:1],
{2}3q8[5000:781],6p1[5000:781],
{2}2V48[16:3],7V51[16:3],
{8},8,8,1,8,,2b/7b,,
{4}1/2-5[8:1],8,8/7-4[8:1],1,
{4}1/2^5[8:1],8,8/7^4[8:1],1,
{8}2,2pp5[8:3],,5,,8,8,,
{8}7,7qq4[8:3],,4,,1,1,,
{4}4/3-8[8:1],5,5/6-1[8:1],4,
{4}4/3^8[8:1],5,5/6^1[8:1],4,
{8}3,3qq8[8:3],,8,,5,5,,
{8}6,6pp1[8:3],,1,,4,4,,
{8}3h[4:1]/7h[4:1],,,4h[4:1]/8h[4:1],,,2pp3[8:3]/6pp7[8:3],,
{8},,,,,1,1,,
{8}2h[4:1]/6h[4:1],,,1h[4:1]/5h[4:1],,,3qq2[8:3]/7qq6[8:3],,
{8},,,,,8,8,,
{8}1/3h[4:1],,4,4h[4:1],,5,4/6,,
{8}8/6h[4:1],,5,5h[4:1],,4,3/5,,
{8}2,1,3/8,,6,5,4/7,,
{8}7,8,1/6,,3,4,2/5,,
{8}1/3,,4/5,3/6,,6/8,,3bqq4[8:3]/7bqq8[8:3],
{8},,,,,,,2-5[8:1],
{8}1-6[8:1],,,3-8[8:1],4-7[8:1],,,2,
{8}1/2,3/8,4/7,5/6,5/6h[4:1],,8b,7-4[8:1],
{8}8-3[8:1],,,6-1[8:1],5-2[8:1],,,7,
{8}7/8,1/6,2/5,3/4,4/3h[4:1],,1b,2-6[8:1],
{8}1-5[8:1],,,3-7[8:1],4-8[8:1],,,2,
{8}1/2,3/8,4/7,5/6,5/6h[4:1],,8b,7h[8:3],
{8},8,8,,2/5,,8b,2h[8:3],
{8},1,1,,4/7,,1b,2-5[8:1],
{8}6-1[8:1],,,3-8[8:1],7-4[8:1],,,2,
{8}1/2,3/8,4/7,5/6,5/6h[4:1],,8b,7-4[8:1],
{8}3-8[8:1],,,6-1[8:1],2-5[8:1],,,7,
{8}7/8,1/6,2/5,3/4,3/4,,1b-5[8:1]/8b-6[8:1],,
{8}1b-3[8:1]/8b-4[8:1],,1b/8b,,1b/8b,2b/7b,,3b/6b^3[8:1],
{8},1b,1b,,2b/7b,,8,1-5[8:1],
{8},6,7,8,1,,2/7,4/5,
{8},3qq5[8:3]/6pp4[8:3],,3/6,,,,,
{16}3,4,3,,5,,4,,6,5,6,,4,,5,,
{16}2,1,2,1,3/8,,,,6,5,6,5,4/7,,,,
{16}2,1,2,,8,,1,,7,8,7,,1,,8,,
{16}4,5,4,5,4,5,4,5,3/6,,,,2b/7b,,,,
{16}1/8,,,,4/5,,6,5,6,,5,,4,,3,,
{4}2^5[8:1],8,6^1[8:1],4,
{8}4qq2[8:1],5,6,7,8qq6[8:1],1,2,3,
{16}4,5,4,5,3,6,3,6,2,7,2,7,1-5[16:1],8,1,8,,,
E
