&title=やめろ!聴くな!
&artist=SLAVE.V-V-R
&wholebpm=160
&demo_seek=40.46
&demo_len=12.59
&lv_1=3
&lv_2=6
&lv_3=7+
&lv_4=10
&lv_5=13
&des_4=しろいろ
&des_5=はっぴー
&inote_1=(160.0){1},,,
{2},1,
{2},1,
{2},2,
{2},2,
{2},3,
{2},3,
{2},4,
{2},4h[1:1],{1},,
{2}5,5,
{2},6,
{1}6,
{2}7,7,
{2},8,
{1}8,
{1}8-5[4:3],,
{1}4-1[4:3],,
{1}2-6[4:3],,
{1}7-3[4:3],,
{2}1,1,
{1}1,
{2}2,2,
{1}2,
{2}3,3,
{1}3,
{2}4,4,
{1}4,
{2}5,5,
{1}5,
{2}6,6,
{1}6,
{2}7,7,
{1}7,
{2}8,8,
{1}8,
{2}1,1,
{2}8,8,
{1}1h[1:1],,
{2},8,
{2},8,
{2},7,
{2},7,
{2},6,
{2},6,
{2},5,
{2},5,
{2},4-8[4:3],{1},,,
{2},8,
{2}8,8,
{2},7,
{2}7,7,
{2},6,
{2}6,6,
{2},5,
{2}5,5,
{2},4,
{2}4,4,
{2},3,
{2}3,3,
{2},2,
{2}2,2,
{2},1,
{2}1,8,
{2}8,1/8,{1},
{2},8,
{2},7,
{2},6,
{2}6,5,
{2}5,4,
{2},3,
{2}3,4,
{2}4,5,
{2}5,4b,
{4},,,5-8[4:3],{1},,
{4},
{1}1-4[4:3],,
E
&inote_2=(160.0){1},
{2},1,
{2}1,2,
{2}2,8,
{2}8,7,
{2}7,1h[2:1]/8h[2:1],
{2},1,
{4}1,,2,2,
{2}2,8,
{4}8,,7,7,
{2}7,5h[2:1]/6h[2:1],
{4},,,3h[2:1]/4h[2:1],{1},
{2}4,4,
{2}4/5,5,
{2}5,4/5,
{2}3,3,
{2}3/4,6,
{2}6,5/6,
{1}7-3[4:3],,
{1}2-6[4:3],,
{2}7,7,
{2}8,8,
{2}1,1,
{4}2,2,2b,,
{4}3,3,3,,
{4}4,5,4,,
{4}6,6,6,,
{4}5,4,5,4,
{4}5,5,5,,
{4}6,5,6,,
{4}4,4,4,,
{4}3,3,4,4,
{4}3,3,3/4,,
{4}2,2,1/2,,
{4}1,1,1/8,,
{4}8,8,1,1,
{4}8,8,1/8,,
{4}7,7,7,,
{4}6,5,6,,
{4}4,4,5,5,
{4}4,4,5,5,
{4}4,5,4,5,
{1}3h[2:1]/6h[2:1],
{4},1h[2:1]/2h[2:1],,,
{2},1b,
{2},1-6[4:3],{1},
{2},7-4[4:3],{1},
{2},2-5[4:3],{1},
{2},8-3[4:3],{1},,,,
{4},,2,2,
{4}1/2,,3,4,
{4}3,,5,4,
{4}4/5,,6,5,
{4}6,5,7,7,
{4}7/8,,6,5,
{4}6,,4,5,
{4}4/5,,3/4,3/4,
{4}5/6,5b/6b,7,7,
{4}7/8,,6,5,
{4}6,,4,5,
{4}4/5,,3,4,
{4}3,4,2,2,
{4}1/2,,3,4,
{4}3,,5,4,
{4}4/5,,5/6,5/6,
{4}3/4,3/4,
{2}2h[1:1]/5h[1:1],{1},
{4},,1,1,
{4}1/8,,8,1,
{4}8,1,2,2,
{4}1/2,,3,4,
{4}3,,5,4,
{4}4/5,,6,6,
{4}5/6,5b/6b,3,3,
{4}3/4,3/4,5,4,
{4}4/5,4/5,3b/6b,,
{4},,,2,
{4}2,1/2,1/2,,
{4}7,7,7/8,7/8,
{4},6,6,5/6,
{4}5/6,5h[2:1]/6h[2:1],,,
E
&inote_3=(160.0){1},
{2},3h[2:1],
{4}4,,3,3,
{2}4,6h[2:1],
{4}5,,6,6,
{2}5,3h[2:1],
{2}4h[2:1],5h[2:1],
{4}6,,6,5,
{2}6,3h[2:1],
{4}4,,3,4,
{2}3,6-1[4:1],
{4},,3,3-8[4:1],
{4},,,6,
{4}6,6,5,5,
{4},5/6,3,3,
{4}4,4,,3/4,
{4}6,6,5,5,
{4},5/7,3,3,
{4}4,4,,2/4,
{4}3h[4:1],4,2/5,,
{4}6h[4:1],5,4/7,,
{4}3h[4:1],4,2/5,,
{4}5/6,4/7,3/8,,
{4}2h[4:1],1,3/8,,
{4}7h[4:1],8,1/6,,
{4}4,4,5,5,
{4}4/5,4/5,2/7,2/7,
{4}3,3,3/4,3/4,
{4}3,4,2/5,,
{4}6,6,5/6,5/6,
{4}6,5,4/7,4/7,
{4}3,3,3/4,3/4,
{4}3,4,2/5,2/5,
{4}1,1,8,8,
{4}7/8,7/8,1/6,,
{4}6,6,5/7,5/7,
{4}6,5/6,4/7,,
{4}3,3,2/4,2/4,
{4}3,3/4,2/5,2/5,
{4}6,6,5/7,5/7,
{4}6,5/6,4/7,4/7,
{4}8,8,1,1,
{4}1/2,1/2,3/8,,
{4}1/8,1/8,1/2,1/2,
{4}1/8,1/8,7/8,7/8,
{1}1b-4[4:1]/8b-5[4:1],
{4}4/5,4-1[4:1]/5-8[4:1],,,
{4},1/8,2/7,3/6,
{4}4/5,,3,3/4,
{4}3,3/4,6,5/6,
{4}6,5/6,5/6,4/7,
{4}3/8,1/2,1-6[4:1]/2-5[4:1],,
{4},,6,5/6,
{4}6,5/6,3,3/4,
{4}3,3/4,3/4,2/5,
{4}1/6,7/8,
{2}1>8[1:1],{1},
{4},2h[1:1]/7h[1:1],,,{1},
{4},,2,1/2,
{4}7,7/8,2,1/2,
{4}4/7,5/6,7,7/8,
{4}2,1/2,1/2,3/8,
{4}4/7,5/6,7,7/8,
{4}2,1/2,7,7/8,
{4}2/5,2/5,3,3/4,
{4}6,5/6,4/7,4/7,
{4}1/2,,7,7/8,
{4}2,1/2,7,7/8,
{4}2/5,3/4,2,1/2,
{4}7,7/8,7/8,1/6,
{4}2/5,3/4,2,1/2,
{4}7,7/8,2,1/2,
{4}4/7,4/7,6,5/6,
{4}3,3/4,2/5,2/5,
{4}7/8,,6h[4:1],5,
{4}3h[4:1],4,6h[4:1],5,
{4}4/7,4/7,3h[4:1],4,
{4}6h[4:1],5,4/7,4/7,
{4}1/8,1/8,3h[4:1],4,
{4}6h[4:1],5,3h[4:1],4,
{4}2/5,2/5,6h[4:1],5,
{4}3h[4:1],4,2/5,2/5,
{4}1/8,,1/8,1/8,
{4}7/8,7/8,1/8,1/8,
{4}1/2,1/2,1b-4[4:1]/8b-5[4:1],,
{4},,3/4,3-8[4:1]/4-7[4:1],
{4},,,5/6,
{1}5-2[4:1]/6-1[4:1],
{4}4/5,4^1[4:1]/5^8[4:1],,,
{4},2b/7b,
E
&inote_4=(160.0){1},
{4},,5/3h[2:1],4,
{4}2,,4/6h[2:1],5,
{4}7,,4/2h[2:1],3,
{4}1,,5/7h[2:1],6,
{4}8,1/6,5/3h[4:1],4,
{4}4/6h[4:1],5,8/2h[2:1],1,
{4}3,,1/7h[2:1],8,
{4}6,1b/8b,1/3h[2:1],2,
{4}4,,8/6h[2:1],7,
{4}5,1b/8b,1/2,1q6[4:1]/2^5[4:1],
{4},,1/8,7/8,
{4}7^4[4:1]/8p3[4:1],,,1/8,
{4}5,3,1/2,8/7h[2:1],
{8},5,5,,4,,6,,
{8}7/8,,1/2h[2:1],,,4,4,,
{4}5/6,4/7,3/4,2/5h[2:1],
{8},7,7,,3/4,,2^7[4:1]/3p6[4:1],,
{8},,,,,1,8,,
{4}2^5[4:1]/6^1[4:1],,,3/7,
{4}3^8[4:1]/7^4[4:1],,,2/6,
{4}2-5[4:1]/6-1[4:1],,,3/8,
{4}1/6,5/6,3/4,1/8,
{4}1q6[4:1]/5q2[4:1],,,4/5,
{4}4p7[4:1]/8p3[4:1],,,4/5,
{2}2-5[8:1],7-4[8:1],
{4}1/2,7/8,4/5,2/7,
{16}3/4,,,,1/6,,,,7h[16:3],,,6h[16:3],,,5,,
{16},,3,,4,,2,,2h[16:3],,,3h[16:3],,,4,,
{16},,4,,5,,4,,3/6,,,1/8,,,2/7,,
{2}2/7b-4[8:1],7/2b-5[8:1],
{16}5/6,,,,3/8,,,,2h[16:3],,,3h[16:3],,,4,,
{16},,6,,5,,7,,7h[16:3],,,6h[16:3],,,5,,
{8},3,4,3,6,5,4/7,,
{2}7-3[8:1],2-6[8:1],
{16}5/6,,,,3/8,,,,2h[16:3],,,3h[16:3],,,4,,
{16},,6,,5,,7,,7h[16:3],,,6h[16:3],,,5,,
{16},,5,,4,,5,,3/6,,,1/8,,,2/7,,
{2}7/2b-5[8:1],2/7b-4[8:1],
{16}3/4,,,,1/6,,,,7h[16:3],,,6h[16:3],,,5,,
{16},,3,,4,,2,,2h[16:3],,,3h[16:3],,,4,,
{8},6,5,6,3,4,2/5,,
{4}7/8,1/2,4/5,2/7,
{4}1/2,7/8,3/4,5/6,
{4}1/2,7/8,1/2,4/5,
{1}7b/2b>7[2:1],
{4}1b,7<2[2:1],,,
{4},8b,4h[4:1],5,
{4}5h[4:1],4,3h[4:1],4,
{4}6h[4:1],5,2h[4:1],4,
{4}7h[4:1],5,4b-8[8:1]/5b-7[8:1],,
{4}4b-2[8:1]/5b-1[8:1],,8h[4:1],1,
{4}1h[4:1],8,7h[4:1],8,
{4}2h[4:1],1,6h[4:1],8,
{4}3h[4:1],1,5b-1[8:1]/6b-1[8:1],,
{4}3b-8[8:1]/4b-8[8:1],,2h[4:1],1h[4:1],
{4}8h[4:1],7h[4:1],6h[4:1],5h[4:1],
{4}4h[4:1],3h[1:2],2,2,
{4}1,8,7h[4:3],,
{4},,7/8,2/5,
{16}3h[16:3],,,2h[16:3],,,1,,,,7,,8,,6,,
{16}6h[16:3],,,7h[16:3],,,8,,,,8,,1,,8,,
{16}2/7,,,4/5,,,3/6,,3b-8[8:1]/6b-8[8:1],,,,,,,,
{4}3b-1[8:1]/6b-1[8:1],,1/2,4/7,
{16}6h[16:3],,,7h[16:3],,,8,,,,2,,1,,3,,
{16}3h[16:3],,,2h[16:3],,,1,,,,7,,8,,7,,
{8}2,1,3/8,,3-8[8:1],,,,
{4}6-1[8:1],,1/2,4/7,
{16}6h[16:3],,,7h[16:3],,,8,,,,2,,1,,3,,
{16}3h[16:3],,,2h[16:3],,,1,,,,1,,8,,1,,
{16}2/7,,,4/5,,,3/6,,3b-1[8:1]/6b-1[8:1],,,,,,,,
{4}3b-8[8:1]/6b-8[8:1],,7/8,2/5,
{16}3h[16:3],,,2h[16:3],,,1,,,,7,,8,,6,,
{16}6h[16:3],,,7h[16:3],,,8,,,,2,,1,,2,,
{8}7,8,1/6,,5/7,,2/4,,
{4}5/7,4/5,2b/7b,5/6,
{4}2/7,3/4,2/7,5/6,
{8}7,8,7,8,,3/4,3/4,,
{8}2,1,2,1,4/5,,2b/8b,,
{4}4/5,1b/7b,7/8,2/5,
{16}1h[16:3],,,7h[16:3],,,5,,,,6,,5,,8,,
{16}8h[16:3],,,2h[16:3],,,4,,,,3,,4,,3,,
{8}6,5,4/7,,1/3,,6/8,,
{4}1/8,3/6,5/7,2/4,
{4}6/8,1/3,5/7,2/4,
{4}5/7,1/8,6b/3b>6[2:1],,
{4},,4b,6<3[2:1],
{4},,,5b,
{1}3>6[2:1]/4p5[2:1],
{4}4b,5q2[4:1]/6^1[4:1],,,
{2}5bw1[4:1],,
E
&inote_5=(160.0){1},
{2},3-1[8:1]/4-6[8:1],
{2}5/6,5-3[8:1]/6-8[8:1],
{2}2/5,3-1[8:1]/4-6[8:1],
{2}5/6,5-3[8:1]/6-8[8:1],
{2}2/5,3-1[8:1]/4-6[8:1],
{2}3-1[8:1]/4-6[8:1],3-1[8:1]/4-6[8:1],
{4}5/6,5-3[8:1]/6-8[8:1],,3/4,
{2}4-1[8:1]/5-8[8:1],5-3[8:1]/6-8[8:1],
{4}3/4,3-1[8:1]/4-6[8:1],,5/6,
{2}4-1[8:1]/5-8[8:1],7/6^3[8:1],
{16}1/2,,,5/6,,,3/8,,1/6,,,,2/3^6[8:1],,,,
{16},,,,7/8,,,3/4,,,1/6,,3/8,,,,
{8}5h[8:1],4,5h[8:1],8,5h[8:1],3,5h[8:1],6,
{8}5h[8:1],4,3/6,,4h[8:1],5,4h[8:1],1,
{8}4h[8:1],6,4h[8:1],3,4h[8:1],5,3/6,,
{8}5h[8:1],4,5h[8:1],8,5h[8:1],6,5h[8:1],2,
{8}5h[8:1],4,2/6,,4h[8:1],5,4h[8:1],1,
{8}4h[8:1],3,4h[8:1],7,4h[8:1],5,3/7,,
{16}7h[16:3],,,1h[16:3],,,3h[16:3],,,5h[16:3],,,6,5,6,,
{16}2h[16:3],,,8h[16:3],,,6h[16:3],,,4h[16:3],,,3,4,3,,
{16}7h[16:3],,,1h[16:3],,,3h[16:3],,,5h[16:3],,,6,5,6,,
{4}4/3-8[8:1],6-1[8:1],4-8[8:1],5,
{16}7h[16:3],,,5h[16:3],,,4h[16:3],,,2h[16:3],,,4,3,4,,
{16}2h[16:3],,,4h[16:3],,,5h[16:3],,,7h[16:3],,,5,6,5,,
{8}4/7,6,2/5,3,1/6,7,3-7[8:1]/8-4[8:1],,
{4},1-5[8:1]/6-2[8:1],,3b/7b,
{16}1-4[8:1]/2-5[8:1],,,,1/2,,,,6h[16:3],,,7h[16:3],,,8p2[4:1],,
{16},,1,,1,,,,3h[16:3],,,2h[16:3],,,1q7[4:1],,
{16},,8,,8,,,,6h[16:3],,,7h[16:3],,,8,,
{8}4-2[8:1],4,6-8[8:1],6,5-1[8:1],5,6,,
{16}7-4[8:1]/8-5[8:1],,,,7/8,,,,3h[16:3],,,2h[16:3],,,1q7[4:1],,
{16},,8,,8,,,,6h[16:3],,,7h[16:3],,,8p2[4:1],,
{16},,1,,1,,,,3h[16:3],,,1h[16:3],,,8,,
{4}2-5[8:1]/7-4[8:1],2/7,1-5[8:1]/8-4[8:1],1/8,
{16}7-4[8:1]/8-5[8:1],,,,7/8,,,,3h[16:3],,,2h[16:3],,,1q7[4:1],,
{16},,8,,8,,,,6h[16:3],,,7h[16:3],,,8p2[4:1],,
{16},,1,,1,,,,3h[16:3],,,2h[16:3],,,1,,
{8}5-7[8:1],5,3-1[8:1],3,4-8[8:1],4,3,,
{16}1-4[8:1]/2-5[8:1],,,,1/2,,,,6h[16:3],,,7h[16:3],,,8p2[4:1],,
{16},,1,,1,,,,3h[16:3],,,2h[16:3],,,1q7[4:1],,
{8},8,8,,5,4,2-5[8:1]/6-4[8:1],,
{4}2/6,3-5[8:1]/7-4[8:1],3/7,1b-6[8:1]/7b-3[8:1],
{4}1/7,2-6[8:1]/8-3[8:1],2/8,1-6[8:1]/7-3[8:1],
{4}1/7,2-6[8:1]/8-3[8:1],2/8,1pp1[8:3]/7qq7[8:3],
{16}1b/7b,,,,,,,,4/6,,,3/5,,,4/5,,
{16}7/2qq7[8:3],,,,,,,,,,,,3/5,,,4/6,
{16},,4/5,,7/2h[4:1],,,,4,,,,,,,6,
{16},6,5,,3/8,,,,1/6,,3,4,3,,6,5,
{16}6,,3,4,3,,6,5,7,,3,4,2,,6,5,
{16}7,,3,4,2^7[8:1],,2,,6q2[8:1],,6,,3^6[8:1],,3,,
{8}7^2[8:1],7,3,3,3-8[8:1]/4-7[8:1],,3/4,,
{8}5-2[8:1]/6-1[8:1],,5/6,,3-1[8:1],3,5-7[8:1],5,
{8}4-8[8:1],4,5,5,5-2[8:1]/6-1[8:1],,5/6,,
{8}3/4,3,7^2[8:1],7,3p7[8:1],3,6^3[8:1],6,
{8}2^7[8:1],2,5s1[2:3],5,,,,,{1},
{4},2/7,
{983}1,,,,,,,,,,,,,,,,,,,,,,,,,,,,,,,,,,,,,,,,,
{625}8,,,,,,,,,,,,,,,,,,,,,,,,,,
{983}1,,,,,,,,,,,,,,,,,,,,,,,,,,,,,,,,,,,,,,,,,8,,,,,,,,,,,,,,,,,,,,,,,,,,,,,,,,,,,,,,,,,
{625}1,,,,,,,,,,,,,,,,,,,,,,,,,,
{983}8,,,,,,,,,,,,,,,,,,,,,,,,,,,,,,,,,,,,,,,,,1,,,,,,,,,,,,,,,,,,,,,,,,,,,,,,,,,,,,,,,,,
{625}8,,,,,,,,,,,,,,,,,,,,,,,,,,
{983}1,,,,,,,,,,,,,,,,,,,,,,,,,,,,,,,,,,,,,,,,,8,,,,,,,,,,,,,,,,,,,,,,,,,,,,,,,,,,,,,,,,,
{625}1,,,,,,,,,,,,,,,,,,,,,,,,,,
{983}8,,,,,,,,,,,,,,,,,,,,,,,,,,,,,,,,,,,,,,,,,
{983}1w5[4:1],,,,,,,,,,,,,,,,,,,,,,,,,,,,,,,,,,,,,,,,,
{625}8,,,,,,,,,,,,,,,,,,,,,,,,,,
{983}1,,,,,,,,,,,,,,,,,,,,,,,,,,,,,,,,,,,,,,,,,8,,,,,,,,,,,,,,,,,,,,,,,,,,,,,,,,,,,,,,,,,
{625}1,,,,,,,,,,,,,,,,,,,,,,,,,,
{983}8,,,,,,,,,,,,,,,,,,,,,,,,,,,,,,,,,,,,,,,,,
{4}1,,8b,
{4},,2^7[8:1]/8-4[8:1],2/8,
{16}5h[16:3],,,4h[16:3],,,3q1[4:1],,,,1,,2,,3,,
{16}3h[16:3],,,5h[16:3],,,6p8[4:1],,,,8,,7,,6,,
{16}6h[16:3],,,4h[16:3],,,3,,4-8[8:1],,4,,5-7[8:1],,5,,
{8}3-1[8:1],3,4,,1-5[8:1]/7^2[8:1],,1/7,,
{16}4h[16:3],,,5h[16:3],,,6p8[4:1],,,,8,,7,,6,,
{16}6h[16:3],,,4h[16:3],,,3q1[4:1],,,,1,,2,,3,,
{16}5h[16:3],,,4h[16:3],,,5,,3-8[8:1]/6-1[8:1],,,,3/6,,,,
{4}4-8[8:1]/5-1[8:1],4/5,7^2[8:1]/8-4[8:1],7/8,
{16}4h[16:3],,,5h[16:3],,,6p1[4:1],,,,1,,8,,7,,
{16}7h[16:3],,,5h[16:3],,,3q8[4:1],,,,8,,1,,2,,
{16}2h[16:3],,,5h[16:3],,,6,,5-1[8:1],,5,,4-2[8:1],,4,,
{8}6-8[8:1],6,5,,1-5[8:1]/2^7[8:1],,1/2,,
{16}5h[16:3],,,4h[16:3],,,3q8[4:1],,,,8,,1,,2,,
{16}2h[16:3],,,4h[16:3],,,6p1[4:1],,,,1,,8,,7,,
{16}4h[16:3],,,5h[16:3],,,4,,3-8[8:1]/6-1[8:1],,,,3/6,,,,
{4}4-8[8:1]/5-1[8:1],4/5,2b/6b-1[8:1],5,
{4}1/6-1[8:1],5,1/6-1[8:1],5,
{4}5/2-5[8:1],1,1/6,4/8,
{12}3/6,
{995}3/6,,,,,,,,,,,,,,,,,,,,,,,,,,,,,,,,,,,,,,,,,,,,,,,,,,,,,,,,,,,,,,,,,,,,,,,,,,,,,,,,,,,
{12}3/6,3/6-8[8:1],,,4-2[8:1],,,5-1[8:1],,,
{4}4-8[8:1],5,7-1[8:1],5-3[8:1],
{4}6-2[8:1],1v4[8:1]*v6[8:1],,3v1[8:1]/7v5[8:1],
{8},,8v3[8:1]*v5[8:1],,,,5,4,
{4}2/6,3-5[8:1]/7-4[8:1],3/7,2-5[8:1]/6-4[8:1],
{4}2/6,2b-6[8:1]/8b-3[8:1],2/8,1-6[8:1]/7-3[8:1],
{4}1/7,2-6[8:1]/8-3[8:1],2/8,1-6[8:1]/7-3[8:1],
{4}1/7,2pp2[8:3]/8qq8[8:3],2b/8b,,
{16}4/5,,,2/4,,,1/3,,1/7p5[8:3],,,,,,,,
{16},,,,4/5,,,5/7,,,6/8,,8/2q4[8:3],,,,
{16},,,,,,,,5/6,,,2/5,,,1/3,,
{16}1/7p5[8:3],,,,,,,,,,,,3/4,,,5/6,
{4}5-2[8:1]/6-1[8:1],
{8}5b/6b,,
E
