&title=Revive The Rave
&artist=void(Mournfinale)
&wholebpm=165
&demo_seek=59.2
&demo_len=12.1
&lv_1=4
&lv_2=6
&lv_3=8+
&lv_4=12+
&lv_5=13+
&lv_6=14
&des_4=Jack
&des_5=Techno Kitchen
&des_6=ぴちネコ
&inote_1=(165.0){1},,,,,
{2}8,8,
{1}8,
{2}7,7,
{1}7,
{1}6h[1:1],,
{1}5h[1:1],,
{1}4h[1:1],,
{1}3h[1:1],,
{2}2,2,
{1}2,
{2}1,1,
{1}1,
{2}8,8,
{1}8,
{2}7,7,
{1}7b,
{4}6,6,6,,
{1}6,
{4}5,5,5,,
{1}5,
{4}4,4,4,,
{1}4,
{4}3,3,3,,
{1}3,
{1}2-6[4:3],,
{1}7-3[4:3],,
{2}4,4,
{2}5,5,
{2}4,4,
{2}5,4/5,
{4}6,6,6,,
{4}7,7,7,,
{4}8,8,8,,
{4}1,1,1,,
{4}2,2,2,,
{4}3,3,3,,
{4}4,4,4,,
{1}5b,
{1}4h[1:1],,
{1}5h[1:1],,
{1}4h[1:1],,
{1}5h[1:1],,
{4}4,4,4,,
{4}3,3,3,,
{4}2,2,2,,
{4}1,1,1,,
{4}8,8,8,,
{4}7,7,7,,
{4}6,6,6,,
{1}4/5,
{1}6-2[4:3],,
{1}3-7[4:3],,
{1}8-4[4:3],,
{1}1-5[4:3],,
{4}6,6,6,,
{4}7,7,7,,
{4}8,8,8,,
{4}1,1,1,,
{4}2,2,2,,
{4}3,3,3,,
{4}4,4,4,,
{1}4/5,
{2}3,2,
{2}1,8,
{2}7,6,
{2}5,4,
{1}5b,
E
&inote_2=(165.0){1},
{4}1,1,2,,
{4}3,3,4,,
{4}5,5,6,,
{4}7,7,1/8,,
{4}8,8,7,,
{4}6,6,5,,
{4}4,4,3,,
{4}2,2,1/8,,
{4}1,1,1/2,,
{4}2,2,1/2,,
{4}3,3,3/4,,
{4}4,4,3/4,,
{4}5,5,5/6,,
{4}6,6,5/6,,
{4}7,7,7/8,,
{4}8,8,7/8,,
{4}8,8,7,7,
{4}8,8,7/8,,
{4}6,6,5,5,
{4}6,6,5/6,,
{4}4,4,3,3,
{4}4,4,3/4,,
{4}2,2,1,1,
{4}2,2,1/2,,
{4}1,1,2,2,
{4}1,1,1/2,,
{4}3,3,4,4,
{4}3,3,3/4,,
{4}5,5,6,6,
{4}5,5,5/6,,
{4}7,7,8,8,
{4}7,7,7/8,,
{1}1h[2:1]/8h[2:1],
{1}2h[2:1]/7h[2:1],
{1}3h[2:1]/6h[2:1],
{1}4h[2:1]/5h[2:1],
{1}4-1[4:3],,
{1}5-8[4:3],,
{4}1,1,2,2,
{4}3,3,3/4,,
{4}3,3,4,4,
{4}5,5,5/6,,
{4}5,5,6,6,
{4}7,7,7/8,,
{4}7,7,8,8,
{4}1,1,1/8,,
{1}1h[1:3]/8h[1:3],,,,
{4}7/8,7/8,7/8,,
{4}5/6,5/6,5/6,,
{4}3/4,3/4,3/4,,
{4}1/2,1/2,1/2,,
{4}8,8,7,7,
{4}6,6,5/6,,
{4}6,6,5,5,
{4}4,4,3/4,,
{4}4,4,3,3,
{4}2,2,1/2,,
{4}2,2,1,1,
{4}8,8,1/8,,
{4}8,8,7,7,
{4}8,7,7/8,,
{4}6,6,5,5,
{4}6,5,5/6,,
{4}4,4,3,3,
{4}4,3,3/4,,
{4}2,2,1,1,
{4}1/8,1/8,1b/8b,,
{4}1,1,2,2,
{4}3,3,4,4,
{4}5,5,6,6,
{4}7,7,1/8,,
{4}8,8,7,7,
{4}6,6,5,5,
{4}4,4,3,3,
{4}2,2,1/8,,
{4}2,3,4,5,
{4}6,7,1/8,,
{4}7,6,5,4,
{4}3,2,1/8,1/8,
{1}2h[1:1]/7h[1:1],,
E
&inote_3=(165.0){1},
{4}1h[8:3]/8h[8:3],,,1/8,
{4}1h[8:3]/2h[8:3],,,1/2,
{4}7h[8:3]/8h[8:3],,,7/8,
{4}2h[8:3]/7h[8:3],,,2/7,
{8}1/3,,,1/3,,,1/2,,
{8}6/8,,,6/8,,,7/8,,
{8}2/4,,,2/4,,,3/4,,
{4}5/7,5/6,2/4,3/4,
{4}8,7,6,5,
{4}4,3,2,1,
{4}1,2,3,4,
{4}5,6,7,8,
{2}1-3[8:1],8-6[8:1],
{2}1-4[8:1],8-5[8:1],
{2}1-5[8:1],8-4[8:1],
{4}1,2/7,3/6,4b/5b,
{4}3,4,2,3/4,
{4}6,5,7,5/6,
{4}3,4,2,4/5,
{4}6,5,7,4/5,
{4}2,1,3,1/2,
{4}7,8,6,7/8,
{4}2,1,3,1/8,
{4}7,8,6,1b/8b,
{4}3h[4:1],4,6h[4:1],5,
{4}2h[4:1],3,7h[4:1],6,
{4}4h[4:3],5,5,5,
{4}5h[4:3],4,4,4,
{4}2h[4:1],1,7h[4:1],8,
{4}2h[4:1],3,7h[4:1],6,
{4}2h[4:1],1,7h[4:1],8,
{4}3h[4:1],1,6h[4:1],8,
{2}2-5[8:1],7-4[8:1],
{2}3-8[8:1],6-1[8:1],
{2}3h[2:1],4h[2:1],
{4}5h[2:1],,6,1b,
{4}3/4,3/4,2/4,3/4,
{4}5/6,5/6,5/7,5/6,
{4}4/5,4/5,2/3,4/5,
{4}4/5,4/5,6/7,4b/5b,
{8}3,4,3,,6,5,6,,
{8}3,4,3,,6,5,6,,
{8}4,5,4,5,3h[4:1],,1b,,
{8}5,4,5,4,6h[4:1],,8b,,
{8}2,1,2,,7,8,7,,
{8}2,1,2,,7,8,7,,
{8}1,8,1,8,2h[4:1],,4b,,
{8}8,1,8,1,7h[4:1],,5b,,
{1}1pp4[4:5],,
{1}8qq5[4:5],,
{1}2qq7[4:5],,
{1}6qq3[4:5],
{4},,,1b,
{4}3,4,3h[4:1],1b,
{4}6,5,6h[4:1],8b,
{4}3,4,2h[4:1],1b,
{4}6,5,7h[4:1],8b,
{4}3/4,4/5,5/6,1b,
{4}5/6,4/5,3/4,8b,
{4}1/8,2/7,3/6,1b/8b,
{1}7^2[2:1],
{4}4,4,4,4,
{4}5,5,5,5,
{4}3,3,3,3,
{4}6,6,6,6,
{4}8,8,7,7,
{4}6,6,5,5,
{4}4,4,3,3,
{4}2,2,1/8,2b/7b,
{8}2,1,2,,7,8,7,,
{8}3,4,3,,6,5,6,,
{8}1,8,1,8,1,8,2/7,,
{8}5,4,5,4,5,4,3/6,,
{4}5/4-1[8:1],,7,1/8,
{4}1/8-5[8:1],,3,4/5,
{8}1,8,1,8,1,8,1,8,
{1}2h[4:3]/7h[4:3],
{8}3/4,,,3/4,,,2/5,,
{8}5/6,,,5/6,,,4/7,,
{8}1/2,,,1/2,,,3/8,,
{4}7/8,1/6,2/5,3^8[1:1]/4^7[1:1],{1},,
E
&inote_4=(165.0){1},
{8}4/5,,1,2/8,,7,6,5,
{8}3/4,,8,1/7,,2,3,4,
{8}5/6,,1,2/8,,7,6,5,
{16}3/4,,,,8,,7,,1/6,,,3/8,,,2/7,,
{8}2/7,,3/4,2/5,,6,7,8,
{8}1/2,,5/6,4/7,,3,2,1,
{8}7/8,,3/4,2/5,,6,7,8,
{16}1,,1,,8,,8,,1,8,1,8,1,,,,
{8}2b/7b,,,,,3,4,5h[8:3],
{4},6h[2:1],,7V53[4:1],
{8}2h[8:3],,,1h[8:3],,,2V46[4:1],,
{8}7h[8:3],,,8h[8:3],,,1,,
{16}2,,3,,4/5,,,,7/8,,,3/4,,,1/6,,
{16}7,,6,,4/5,,,,1/2,,,5/6,,,3/8,,
{16}2,,3,,4/5,,,,1/8,,,4/5,,,2/7,,
{8}1-5[8:1],,,8^3[16:3]*^6[16:3],,,,,
{16}3,,2,,1/8,,,,5/6,,,1/2,,,4/7,,
{16}6,,7,,1/8,,,,3/4,,,7/8,,,2/5,,
{16}3,,2,,1/8,,,,4/5,,,1/8,,,2V41[4:1]/7V58[4:1],,
{16},,,,,,,,2,1,,7,8,,1,8,
{16}1,,2,,3/4,,,,7/8,,,2/5,,,4/7,,
{16}8,,7,,5/6,,,,1/2,,,4/7,,,2/5,,
{16}3,,2,,1/8,,,,5/6,,,3/4,,,2/7,,
{16}1,,1,,8,,8,,2,1,,7,8,,1,8,
{8}1,2,3,4,5,6,7,6/8,
{8}7,6,5,4,3,2,1,2/8,
{16}7,,7/8,,,,3/4,,3/4,,,6/8,,,1/3,,
{16},6,5,,3,4,,7,5,,2,4,,8,1,,
{8}7,6,5,4,3,2,1/3,2,
{8}3,4,5,6,7,6/8,6/8,7,
{8}6,5,2/4,3,3,4,5/7,6,
{16}6,,4/5,,3,,1/2,,7/8,,,4/5,,,1/8,,
{4}2h[8:1],3h[8:1],4h[8:1],3h[4:1]/5h[4:1],
{8},6h[8:1],,5h[8:1],,4,4h[4:1],,
{4}7h[8:1],6h[8:1],5h[8:1],4h[8:1],
{16}3,,4,,5,,6,,4,5,4,5,4b,,,,
{16}4qq2[8:1]*pp6[8:1],,,,,,,,4,,,5,,,6h[4:1],,
{16},,8,,8,,,,7,,,6,,,5,,
{16}5qq3[8:1]*pp7[8:1],,,,,,,,5,,,4,,,3h[4:1],,
{8},1<5[8:3]*>5[8:3],1,,,,,,
{8}5bv2[8:1]*v8[8:1],,,,1,2/8,7,6/8,
{16}7,,5,,4,,2,,1/3,,,4/5,,,6/8,,
{8}7,8,1/6,2,1,3/8,4,5/6,
{8}7,6,5,3/4,2,3,4,5/6,
{8}7,8,1/6,2,1,3/8,4,4/5,
{16}2,,4,,5,,7,,6/8,,,4/5,,,1/3,,
{8}2,1,3/8,7,8,1/6,5,4,
{16}3/6,,,4/8,,,5/1w5[4:1],,,,,,,,,,
{1}3b/7b,
{1}6h[1:1],
{2}5h[2:1],4h[2:1],
{1}3h[1:1],
{4}4h[1:1],3,,2,
{4}5h[1:1],6,,7,
{4}1^3[8:1],4,8^6[8:1],5,
{4}4^2[8:1],5^7[8:1],1-5[8:1],8b,
{8}7,6,5,4,3-8[8:1],,1b,,
{8}2,3,4,5,6-1[8:1],8b,8b,,
{8}7,6,5/8b,,3,2,1b/4,,
{16}5/7,,5/7,,,,2/4,,2/4,,,3/6,,,1b/8b,,
{8}2,3,4,5,6-1[8:1],,8b,,
{8}7,6,5,4,3-8[8:1],1b,1b,,
{8}2,3,1b/4,,6,7,5/8b,,
{1}2qq7[2:1],
{8}3b/6b,,,,,2,1,8h[8:3],
{4},7h[2:1],,6V82[4:1],
{8}3h[8:3],,,4h[8:3],,,3V17[4:1],,
{8}6h[8:3],,,5h[8:3],,,4,,
{8}6/7,,2/3,,1/8,7,6,5h[8:3],
{4},4h[4:1],3h[4:1],2V46[4:1],
{8}7h[8:3],,,8h[8:3],,,7V53[4:1],,
{8}2h[8:3],,,1h[8:3],,,8b,,
{16}3/4,,,1/8,,,5/6^1[16:3],,,,2,,3,,4,,
{16}5/6,,,1/8,,,4/3^8[16:3],,,,7,,6,,5,,
{16}3/4,,4/3h[16:3],,,1h[16:3],,,7h[16:3],,,5h[16:3],,,1h[4:1],,
{8},8,1,2/7,3,4,5,6,
{12}1/8,
{995}1/8,,,,,,,,,,,,,,,,,,,,,,,,,,,,,,,,,,,,,,,,,,,,,,,,,,,,,,,,,,,,,,,,,,,,,,,,,,,,,,,,,,,
{12}1/8,2b/7b,,,
{8}3,3/4,6,5/6,
{16}2,,1/2,,7,,7/8,,1,8,1,8,1,8,1,8,
{1}1pp5[2:1]*qq5[2:1],
{8}8-4[8:1],,,1^3[16:3]*^6[16:3],,,,,
{8}4/3V51[4:1],,8,8,,2,3,4,
{8}5/6V48[4:1],,1,1,,7,6,5,
{8}3/4-8[8:1],,1,1,,1/8,2/7,3/6,
{16}4h[4:1]/5h[4:1],,,,,,1,8,1,,,2/7,,,4qq1[8:7]/5pp8[8:7],,
{1}4/5,,
E
&inote_5=(165.0){1},
{8}6/8-3[8:1],,8b,6,,2/4,3/5,4/6,
{8}5/7,,3,2/4,,6/8,1/7,2/8,
{8}3/1-6[8:1],,1b,3,,5/7,4/6,3/5,
{16}2/4,,,,6,,1,8,1,,,6/8,,,2/4,,
{8}6/8-3[8:1],,8b,6,,6/8,1/7,2/8,
{8}3/1-6[8:1],,1b,3,,1/3,2/8,1/7,
{8}6/8-3[8:1],,8b,6,,6/8,1/7,2/8,
{8}1/3,2/8,1/7,6/8,
{641}1/7,,,,,,,,,,,,,,,,,,,,
{639}2,,,,,,,,,,,,,,,,,,,,3,,,,,,,,,,,,,,,,,,,,
{641}4,,,,,,,,,,,,,,,,,,,,5,,,,,,,,,,,,,,,,,,,,
{639}6,,,,,,,,,,,,,,,,,,,,7,,,,,,,,,,,,,,,,,,,,
{641}8,,,,,,,,,,,,,,,,,,,,
{8}1b,,
{16}6h[8:7],,1,,1,,,,7,,,5,,,3h[1:1],,
{16},,8,,8,,,,2,,,4,,,7h[1:1],,
{16},,4,,4,,,,6,,,8,,,2h[1:1],,
{16},,5,,5,,,,3,,,1,,,8,,
{16}5-2[8:1]/6-1[8:1],,5/6,,,,,,3/8,,2,1,,7,8,,
{16}3-8[8:1]/4-7[8:1],,3/4,,,,,,1/6,,7,8,,2,1,,
{8}6-1[8:1],6,3-8[8:1],3,7-4[8:1],7,2-5[8:1],2,
{16}6,,6,,3,3,,8,1,7,2,6,3b,,,,
{16}1/6,,2/7,,3/8,,,,2,,2,1,,1,4,,
{16}3/8,,2/7,,1/6,,,,7,,7,8,,8,5,,
{16}1/6,,2/7,,3/8,,,,2,,2,1,,1,4,,
{16}2-5[8:1]/7-4[8:1],,1/8,,2b/7b,,,,1/2,1/2,,7/8,7/8,,4b/5b,,
{16}1/6,,2/7,,3/8,,5/6,,2,,2,1,,1,4,,
{16}3/8,,2/7,,1/6,,3/4,,7,,7,8,,8,5,,
{8}1/6,2/7,3/8,4/5,3/8,2/7,1/6,4/5,
{16}1/2,,3/4,,5/6,,7/8,,1/3,1/3,,6/8,6/8,,2b/7b,,
{16}1,8,1,,2/6,,7,7h[8:1],,5,6,4,5,3,4,2,
{16}8,1,8,,3/7,,2,2h[8:1],,4,3,5,4,6,5,7,
{16}2,,4b/5b,,3,,4b/5b,,7b/8b,,1/2,1b/2b,,,4b/5b,,
{16},7/8,7b/8b,,4b/5b,,3/7,3b/7b,,2/6,2b/6b,,1b/8b,2/7,3/6,,
{16}4,5,4,,3/7,,6,6h[8:1],,8,7,1,8,2,1,3,
{16}5,4,5,,2/6,,3,3h[8:1],,1,2,8,1,7,8,6,
{16}4,5,4,,3/7,,6,6h[8:1],,8,7,1,8,2,1,3,
{16}5,5,4,4,3,3,2,2,1,1,8,8,7,7,6,6,
{8}5b,2,5,2,5^8[8:1],2,5,,
{8}4,7,4,7,4^1[8:1],7,4,,
{8}8h[8:1],7h[8:1],6h[8:1],5h[8:1],4h[8:1],3h[8:1],2h[8:1],1h[8:1],
{8}8h[8:1],6h[8:1],4h[8:1],2h[8:1],
{639}8,,,,,,,,,,,,,,,,,,,,
{641}7,,,,,,,,,,,,,,,,,,,,
{639}6,,,,,,,,,,,,,,,,,,,,
{641}5,,,,,,,,,,,,,,,,,,,,
{639}4,,,,,,,,,,,,,,,,,,,,
{641}3,,,,,,,,,,,,,,,,,,,,
{639}2,,,,,,,,,,,,,,,,,,,,
{641}1,,,,,,,,,,,,,,,,,,,,
{16}8b,,,,
{16}2h[16:3],,,1,1h[16:3],,,4,4h[16:3],,,5,5h[16:3],,,8,
{16}8h[16:3],,,7,7h[16:3],,,4,4h[16:3],,,5,4/5,,,,
{16}7h[16:3],,,8,8h[16:3],,,5,5h[16:3],,,4,4h[16:3],,,1,
{16}1h[16:3],,,2,2h[16:3],,,5,5h[16:3],,,4,4/5,,,,
{16}2-5[8:1]/7-4[8:1],,1/8,,2b/7b,,,,7,8,7,,3,4,3,4,
{16}2,1,3,8,4,7,5,6,4,,5/7,,1/8,,2/4,,
{16}3/6,,2,4,2,,3/6,,7,5,7,,3/6,,4/5,,
{16}3/8,,2/7,,1/6,,7,8,,2,1,,5,4,5,,
{16}2b/7b,,1,8,3,6,4,,2,1,2,,6,5,6,5,
{16}7,8,6,1,5,2,4,3,5,,3/4,,1/8,,5/6,,
{16}2b/7b,,6,5,6,,1b/8b,,3,4,3,,2b/7b,,4/5,,
{16}1b/8b,,,2bpp4[16:5]/7bqq5[16:5],,,3b/6b,,,,,,,,,,
{16}3h[8:7],,5,,5,,,,4,,,2,,,1h[1:1],,
{16},,3,,3,,,,2,,,8,,,7h[1:1],,
{16},,1,,1,,,,8,,,6,,,5h[4:5],,
{16},,7,,7,,,,6,,,4,,,3,,
{16},,3>6[8:5],,3,,,,4,,,3,,,2,,
{16},,1<4[8:5],,1,,,,2,,,1,,,8,,
{16},,7<2[8:5],,7,,,,8,,,7,,,6,,
{8},5-1[8:1],5,,8,,2b/7b,,
{16}1,8,1,8,1h[8:1],,7,7h[8:1],,5,6,4,5,3,4,2,
{16}8,1,8,1,8h[8:1],,2,2h[8:1],,4,3,5,4,6,5,7,
{16}1,8,1,8,1h[8:1],,7,7h[8:1],,5,6,4,5,3,4,2,
{16}8,1,7,2,6,3,5,,1-6[8:1]/8-3[8:1],,2/7,,1b/8b,,,,
{16}5,4,5,4,5h[8:1],,3,3h[8:1],,1,2,8,1,7,8,6,
{16}4,5,4,5,4h[8:1],,6,6h[8:1],,8,7,1,8,2,1,3,
{16}5,4,5,4,5h[8:1],,3,3h[8:1],,1,2,8,1,7,8,6,
{16}4,,5/6,,3/4,,7,7,,2,2,,1/3,,6/8,,
{16}2h[8:7],,5,,5,,,,3,,,1,,,7h[1:1],,
{16},,4,,4,,,,6,,,8,,,3h[1:1],,
{16},,8,,8,,,,2,,,4,,,6h[1:1],,
{16},,1,,1,,,,7,,,5,,,4,,
{16}2-5[8:1],,8,,1/2,,,,4/7,,6,5,,3,4,,
{16}7-4[8:1],,1,,7/8,,,,2/5,,3,4,,6,5,,
{8}2-5[8:1],2,7-4[8:1],7,3-8[8:1],3,6,6,
{16}1,8,1,8,2,7,2,7,1-5[8:1]/8-4[8:1],,,,1b/8b,,,,
{16}8/7-4[8:1],,1/6,,7/8,,1,,2,4,3,5,4,6,5,,
{16}1/2-5[8:1],,3/8,,1/2,,8,,7,5,6,4,5,3,4,2,
{16}7,,4/5,,3,3/4,,6,5/6,,2,2/4,,7,5/7,,
{16}2,,1/3,,7,,6/8,,1,8,2,7,3,6,4,,
{12}1b-5[8:1]/8b-4[8:1],
{995}1b/8b,,,,,,,,,,,,,,,,,,,,,,,,,,,,,,,,,,,,,,,,,,,,,,,,,,,,,,,,,,,,,,,,,,,,,,,,,,,,,,,,,,,
{12}1b/8b,1b/8b,,,
{8}8/7-4[8:1],1/6,7/8,1,
{16}2,4,3,5,4,6,5,7,5,7,4,6,3,5,2,4,
{16}1,1,2,2,3,3,4,4,5,5,6,6,7,7,8,8,
{16}1,,8,,2,,7,,3,4,,6,5b,,,,
{8}6/8-3[8:1],,8b,6,,2/4,3/5,4/6,
{8}5/7,,3,2/4,,6/8,1/7,2/8,
{8}3/1-6[8:1],,1b,3,,5/7,4/6,3/5,
{16}2/4,,,,6,,1,8,1,,,6/8,,,1/3,,
{1}6b-1[4:3]/8b-3[4:3],,
E
&inote_6=(165)
{4}8>7[2:1],,,2-6[32:3],
{8}2/5-8[32:3],,1b/5b,4,,7,6/1,5,
4/2,,3,{16}4/6,5,{8},7,6,5,
3/4-1[32:3],,4b/8b,5,,2,3/8,4,
5/7,,6,{16}4,5,4h[8:1],,6,3h[8:1],,5,{8}2,
1-6[32:3]/4-7[32:3],,1b/4b,,,2/5,3/6,4/7,
5-2[32:3]/8-3[32:3],,5b/8b,,,5/6,4/7,3/8,
{16}2,1,2,,3/4b,,5,,7,8,7,,6/5b-7[32:3],,4-2[32:3],,
5-1[32:3],,4-8[32:3],,5,,4,,{32}5,6,7,8,1,2,3,4,{8}5w1[32:3],,
5b,,,,,5,4,3h[8:3],
,,1h[4:1],,8h[4:1],,6h[4:1],,
5qq3[4:1],,7<5[32:7],7,,,2,,
3/4pp6[4:1],,2>4[32:7],2,,,7,,
3/6,4,4/6,,6/5h[8:1],{16},5h[8:1],6,,5,,
6,,4,,4/6,,,,6/3h[8:1],,,3h[8:1],6,,3,,
6,,4,,4/6,,,,6/5h[8:1],,,5h[8:1],{8}6,5pp3[8:3],
6h[4:3],,,,,,{32}2,1,8,7,6,5,4,3,
{16}2/7,,8,,1/2,,,,3h[8:1]/4h[8:1],,,2h[8:1]/5h[8:1],,,1/6,,
8,,7,,6/5,,,,6h[8:1]/4h[8:1],,,3h[8:1]/7h[8:1],,,2/8,,
1,,2,,3/4,,,,7h[8:1]/4h[8:1],,,3h[8:1]/8h[8:1],,,1/2-6[32:3],,
2/1-5[32:3],,2b,,1b,,,,6/8,6/8,,4/5,4/5,,1/3,1/3,
2b-5[32:3],,8,,8,,7,,6h[8:1]/4h[8:1],,,5h[8:1]/7h[8:1],,,6/8,,
7-4[32:3],,1,,1,,2,,3h[8:1]/5h[8:1],,,2h[8:1]/4h[8:1],,,1/3,,
2qq7[2:1],,3,,3,,,,4h[8:1],,,5h[8:1],,,6,,
5/6,,5/6,,3/4,,3/4,,6b/8b,6/8,,1b/3b,1/3,,2b/7b,,
5,4,6,,4/7,,8,8h[8:1],,6,7,5,6,4,5,3,
4,2,3,,2/4,,1,1h[8:1],,6h[8:1],,3,3,,4/5-1[32:3],,
3/6,,5b/4-8[32:3],,3,,4b/5,,6b,,7,8/7b,,2,1/2b-5[32:3],,
,6,6b,,7b-4[32:3],,8,8b,,1,1b,,2/7,3/6,4/5,,
4,5,3,,2/4,,1,1h[8:1],,3,2,4,3b,5,4,6,
5,7,6,,5/7,,8,8h[8:1],,4,6b,4,6b,,3/7,,
2>4[16:1],4,1,,2b/5,,6,,7<5[16:1],5,8,,4/7b,,3,,
3/4,,8b,,6/5,,1b,,2h[8:1]/8h[8:1],,,3h[8:1]/7h[8:1],{8},4/6,
1b/5b,,6,8,6,8,6/8h[4:1],,
6,7,6,7,6,7,6/7h[4:1],,
6,8,,8,5,6,7,8,
1h[8:1],2h[8:1],{12}3h[12:1],4h[12:1],5h[12:1],{16}6,7,8,1,{4}2b-8[16:1],
7/2-6[16:1],7/2>4[16:1],{12}2/7,,6,{4}5/7-1[16:1],
2/7-3[16:1],2/7<5[16:1],{12}2/7,,2,{4}4/2-8[16:1],
7/2-6[16:1],7/2>4[16:1],{12}2/7,,6,{16}5/7,,,,
4h[8:1],,5,5,{12}3h[12:1],4h[12:1],5h[12:1],{4}6h[4:1],3b,
4-1[32:3]/8-5[32:3],4b/8b,{16}3/7,,6,5,7,4,8,3,
1,2,5,4,7,8,5,4,1h[8:1],,{24}2,3,4,{16}5,,3/7,,
1/6,,7,7,8,,1/3,,2,2,1,,8,8,1,,
7h[8:1],,5h[8:1],,4h[8:1],,2,2,,2/1-5[32:3],,7/8,,1b/2b,,,
3/7,,6,5,,4/7,,2/5,,4,3,4,2,5,1,6,
8,7,4,5,2,1,4,5,8h[8:1],,{24}7,6,5,{16}4,,2/6,,
1b/3b,,2,2,2,,6b/8b,,7,7,7,,4b,4,5,,
{32}3b/6b,4/5,,,,,2b/7b,3/6,4/5,,,,1bq8[32:7]/8bp1[32:7],2/7,3/6,4/5,{2},
{1}2/7,,,,
{16}6h[1:1],,5,,5,,,4,,,4h[8:1],,,,3,,
3h[1:1],,5,,5,,,6,,,6h[8:1],,,,7,,
7h[1:1],,4,,4,,,3,,,3h[8:1],,,,2,,
{4}2p1[2:1],7q8[4:1],,,
{16}2b/7b,3,4,,5/6,,8,8h[8:1],,5,7,4,6b,3,5,2,
4,1,3,,2/4,,1,1h[8:1],,5,3b,4,2b,,1/6,,
7<5[16:1],5,8,,4/7b,,3,,2>4[16:1],4,1,,2b/5,,6,,
5/6,,1b,,3/4,,8b,,7h[8:1]/1h[8:1],,,2h[8:1]/8h[8:1],,,4/6,,
3b/7b,6,5,,3/4,,1,1h[8:1],,4,2,5,3b,6,4,7,
5,8,6,,5/7,,8,8h[8:1],,4,6b,5,7b,,3/8,,
2>4[16:1],4,1,,2b/5,,6,,7<5[16:1],5,8,,4/7b,,3,,
{8}2qq7[16:7],,6>3[16:3],,,,,,
2b/8b,,,,5,4,3,2,
1b/8b,,4h[4:1],,5h[4:1],,6h[4:1],,
8b,,1q2[32:9],1,,,,,
7b,,6p5[32:9],6,,,,,
6b/3,5,3/6,4,6/3,5,3/6,4,
4/5b,3,4/5,6,4/5,3,4/5,6,
4b/7h[8:1],8h[8:1],1h[8:1],2h[8:1],3b,4/5,6/7,1/8,
{16}2b,7,2,7,{32}1,2,3,4,5,6,7,8,{16}1bw5[32:3],,,,1,,,,
3b/7b,,6,5,,7,8h[8:1],,6,6,{64}1,,,2,,,3,,{16}5,5,3,4,
5/2,,3,4,,2,1h[8:1],,3,3,{64}8,,,7,,,6,,{16}4,4,6,5,
4/7,,3h[8:1]/5h[8:1],,,4h[8:1]/6h[8:1],,,1h[8:1]/2h[8:1],,,7h[8:1]/6h[8:1],,,1/8,,
{24}7,6,5,1/4,,,2,3,4,{16}5/8,,7,4,5,2,6,3,7,2,
{12}1bs5[32:3]/8bz4[32:3],1b/8b,1b/8b,{16}1b/8b,,,,2h[8:1],,5,3h[8:1],,6,4,4,
8,8,7,7,6,6,3,3,2,2,1,1,{32}7,6,5,4,3,2,1,8,
{16}7bp2[16:3],,1,,1,,1,,1h[8:1],,,3h[8:1]/4h[8:1],,,5h[8:1]/6h[8:1],,
{4},,,,
3/4-1[32:3],{24}4b/8b,7,6,{8}5,,2/4,5/6,3/4,
8/6h[4:1],,{24}7,8,1,{8}2,,3/4,1/2,7/8,
6/5-8[32:3],,{24}5b/1b,2,3,{8}4,,5/7,3/4,5/6,
1/3h[4:1],,6,{16}2/7,2/7,2h[8:1]/7h[8:1],,,6h[8:1]/8h[8:1],,,1/3,,
{1}1bq3[4:3]/3b<2[4:3],
