&title=Luminize
&artist=fripSide「フューチャーカード バディファイト ハンドレッド」
&wholebpm=140.0
&lv_1=1
&lv_2=4
&lv_3=6
&lv_4=8
&lv_5=10
&des_4=mai-Star
&des_5=mai-Star
&inote_1=(140.0){1},,,,,
{2},5,
{2},6,
{2},7,
{2},8h[1:1],{1},
{2},1,
{2},2,
{2},3,
{2},4,
{2},5,
{2},6,
{2},7,
{2},8,
{2},1/8,
{2},1/8,
{2},7,
{2},7,
{2},6,
{2},6,
{2},5,
{2},5,
{2},4,
{2},4,
{2},5-8[4:3],{1},
{2},1-4[4:3],{1},
{2},5h[1:1],{1},
{2},4h[1:1],{1},
{2},3h[1:1],{1},
{2},2,
{2}2,2,
{2},1,
{2}1,1,
{2},8,
{2}8,8,
{2},7,
{2}7,7b,
{2},6,
{2},6,
{2},5,
{2},5,
{2},4,
{2},4b,
E
&inote_2=(140.0){1},
{2},2,
{2}2,3,
{2}3,4,
{2}4,5,
{2}5,6,
{2}6,7,
{2}7,1/8,
{2}1/8,1h[1:1]/8h[1:1],{1},
{2},1,
{2}2,3,
{2}4,5,
{2}6,7,
{2}1/8,8,
{2}7,6,
{2}5,4,
{2}3,2,
{2}1/8,1-4[4:3]/8-5[4:3],{1},
{2},3,
{4}3,,4,4,
{2}4,6,
{4}6,,5,5,
{2}5,3/4,
{4}3/4,,4,4,
{2}4,5/6,
{4}5/6,,5,5,
{2}5,6h[2:1],
{2},7h[2:1],
{2},8h[2:1],
{2},1h[2:1],
{2},2h[2:1],
{2},3h[2:1],
{2},4/5,
{2}4/5,3/6,
{2}3/6,2/7,
{2}2/7,1/8,
{4}1b/8b,,1,1,
{4}2,2,3,,
{4}4/5,,5,5,
{4}6,6,7,,
{4}1/8,,8,8,
{4}7,7,6,,
{4}4/5,,4,4,
{4}3,3,2,,
{4}1b/8b,,2,3,
{4}4,5,6,7,
{4}1/8,,7,6,
{4}5,4,3,2,
{2}1/8,
{1}1-4[4:3]/8-5[4:3],,
E
&inote_3=(140.0){1},
{2},8,
{2}1,2,
{4}3,4,5,,
{2}6,7,
{4}7/8,1/2,3,3/4,
{4}6,5/6,3,2/4,
{4}6,5/7,2,5/6,
{4}7,4/3>6[4:3],,,
{4},,4/5,3/6,
{4}2/7,1b/8b,2,3,
{4}4,5/6,7,6,
{4}5,3/4,2h[2:1],,
{2}1h[2:1],8h[2:1],
{4}7,4/5,3,2,
{4}1,7/8,6,7,
{4}8,1/2,3h[2:1],,
{2}4h[2:1],5h[2:1],
{4}6,7<2[4:3],,,
{2},1-4[8:1]/8-5[8:1],
{2},3V15[2:1],
{2},6V84[2:1],
{2},3V57[2:1],
{2},6V42[2:1],
{4},,1,2/8,
{4}3,2/4,6,5/7,
{4}8,1/7,2h[4:1],1,
{4}7h[4:1],8,1/8,2/7,
{4}3/6,4/5,3,4,
{4}5,6,7,8,
{4}7,1/6,2,3,
{4}4,5,6,5,
{4}6,4/7,6,5,
{4}4,3,2,1,
{4}2,3/8,7,7/8,
{4}7,1/7,2,1/2,
{4}2,2/8,7h[2:1],,
{4}2,3/6,4-1[4:1]/5-8[4:1],,
{8},,1b/8b,,1,1,1,,
{8}8,8,8,,1,8,1,8,
{4}1,2/7,3/4,2/5,
{4}5/6,4/7,4/5,3/6,
{8}2/7,,1b/8b,,8,8,8,,
{8}1,1,1,,8,1,8,1,
{8}8,,3,3,4,,6,6,
{4}5,4^1[2:1]/5^8[2:1],,,
{4},1b/8b,2,3,
{4}4/5,3/6,7,6,
{4}4/5,3/6,2,5/6,
{4}7,3/4,1,5/7,
{4}8,2/4,3>6[2:1],,
{8},,,,1h[16:3]/8h[16:3],,,2b/7b,
E
&inote_4=(140.0){1},
{2},2^7[2:1],
{2},6q3[2:1]/7^2[2:1],
{2},1h[2:1],
{4}8h[2:1],,1,2/7,
{4}3b/6b,1b,7h[4:1],6,
{4}5h[4:1],6,2h[4:1],3,
{8}4h[4:1],,3,,4/5,,1/8,2/7,
{4}3/6,4/5,6pp3[2:1],,
{2},3qq6[2:1],
{16},,,,,,,,3/4,,,,5/6,,,5h[16:5]/6h[16:5],
{16},,,,,,,,5/6,,,,3/4,,,3h[16:5]/4h[16:5],
{16},,,,,,,,6h[4:1],,,,4h[16:3],,,5,
{8},,3,3,4,4,5,5,
{16}6,,,,1b/8b,,,,1/2,,,,7/8,,,7h[16:5]/8h[16:5],
{16},,,,,,,,7/8,,,,1/2,,,1h[16:5]/2h[16:5],
{16},,,,,,,,7h[16:3],,,8,,,1,,
{16}1,,,,8,,8,,2h[16:3],,,8h[16:3],,,1,,
{4}1,8w4[4:3],,,
{16},,,,,,,,1b,,,8b,,,3b/6b,,
{16},,,,1,,,,3h[8:3],,,4,,,4,,
{16},,1,,8,,,,6h[8:3],,,5,,,5,,
{16},,8,,1,,,,1h[16:3],,,8,,,2/7,,
{16},,3/4,,3/4,,,,7/8,,,1/2,,,5b/6b,,
{16},,,,3/7,,,,2h[8:3],,,1,,,1,,
{16},,7,,8,,7,,3h[8:3],,,4,,,4,,
{8},6,5,6,1/5,,1/5,,
{16}2/6,,,2/6,,,4/8,,4^1[4:1]/8^5[4:1],,,,,,,,
{8},,3b/7b,,3h[8:3],,,4,
{8}4,,1/8,,6h[8:3],,,5,
{8}5,,1/8,,3h[8:3],,,4,
{8}3,,1/8,,6h[8:3],,,5,
{8}6,,1/8,,2h[8:3],,,4,
{8}3,,1b/8b,,7h[8:3],,,5,
{4}6,1b/8b,1/2,7/8,
{8}4,5,3/6,,5/6,,3/4,,
{8}1,8,2/7,,2h[2:1],,,,
{16}1,,,8,,,7,,7h[8:3],,,8,,,1b,,
{8},,3/6,,1b/8b,2,7,3,
{8}6h[4:1],,5,,1/8,7,2,6,
{4}3h[4:1],4-7[8:1],,5-2[8:1],
{4},2/8,2-5[8:1]/8-5[8:1],,
{8}4b,,8b,,1,2,3p6[16:3],,
{8},,,8,8,7,6q3[16:3],,
{8},,1,3,1,,8,6,
{4}8,1w5[4:3],,,
{16},,,,,,,,3,,4,,2/5,,,7/8,
{16},,7/8,,1/6,,,,6,,5,,4/7,,,1/2,
{8},1/2,3/8,,1-4[8:1]*-7[8:1],,,,
{2}1^6[8:1]/2^5[8:1],7^4[8:1]/8^3[8:1],
{4}2/7,1w5[4:3],,,
{16},,,,,,,,1/2,,,7-4[16:1]/8-4[16:1],,,,,,
E
&inote_5=
(140.0){1},
{16},,,,,,,,8,,1,,2,,3,3h[16:7],
{16},,,,,,2,,1,,8,,7,,6,6h[16:5],
{8},,8-4[8:1],8,,,1-5[8:1],1,
{16},,,,1,,8,,2/7,,,3/6,,,4/5,,
{16}1-5[8:1]/2-5[8:1],,,,1/2,,,,2,,1,,2,,3,3h[16:7],
{16},,,,,,7,,7,,8,,7,,6,6h[16:5],
{8},,2-4[8:1]*-8[8:1],2,,,7-1[8:1]*-5[8:1],7,
{16},,,,3,,6,,1/2,,,5/6,,,3/4,,
{16},7/8,,,3/6,,1/8,,3,4,,6,5,,3,4,
{16},,1/8,,1/8,,2b/7b,,4,,3,,2,,1,1,
{16},,3/4,,3/4,,,,5,,6,,7,,8,8,
{16},,5/6,,5/6,,,,1,,8,,1,,1/8,1/8,
{8},,1/2,1/2,5/6,5/6,7/8,7/8,
{16}3-1[8:1]/4-6[8:1],,,,3/4,,,,8,,7,,6,,5,5,
{16},,7/8,,7/8,,1,,1,,2,,3,,4,4,
{16},,1/2,,1/2,,1/8,,7/8,,,4/6,,,2/8,,
{8}1,,5,4,8,,4-1[8:1]/7-1[8:1],,
{4},4qq1[2:1]/5pp8[2:1],,,
{16},,,,,,,,1b/2b,,,7b/8b,,,4b/5b,,
{16},,8,,1,,8,,2h[8:3],,,3,,,4,,
{16},,2,,1,,8,,7h[8:3],,,6,,,5,,
{16},,8,,1,,2,,3h[8:3],,,4,,,5,,
{16},,1,,8,,7,,6h[8:3],,,5,,,4,,
{16}2b/7b,,,,1b/8b,,,,3h[8:3],,,2,,,1,,
{16},,3,,4,,5,,6h[8:3],,,7,,,8,,
{8},5,4,3,1/2,,7/8,,
{16}4/5,,,3/6,,,2/7,,1pp3[8:1],,,,8qq6[8:1],,,,
{16},,,,1b,,,,3h[16:3],,,4h[16:3],,,1h[4:1],,
{16},,8,,8,,,,6h[16:3],,,5h[16:3],,,8,,
{16}8-4[16:1],,,,2b,,,,1h[16:3],,,5h[16:3],,,4h[4:1],,
{16},,8,,7,,,,8h[16:3],,,4h[16:3],,,5,,
{16}5,,,,1b/8b,,,,5h[16:3],,,1h[16:3],,,8h[4:1],,
{16},,4,,4,,,,4h[16:3],,,8h[16:3],,,1,,
{16}1-5[16:1],,,,7b,,,,1/8,,,2/7,,,6/3h[2:1],,
{16},,4,,5,,6,,4/5,,,3/6,,,2/7h[2:1],,
{8},8,1,2,1-5[8:1]/2-5[8:1],,,,
{16}4/6,,,3/7,,,2/8,,1b,,,3b/7b,,,5b,,
{16}1,8,2,7,3,6,4,,7,,8,,1,,2,2h[16:7],
{16},,1,,1,,1,,8,,1/7,,2/6,,3/5,4,
{8},1/5,1/5,2/6,3/7,,4/8,3/7,
{16}2/6,,,4/8,,,1/5,,2/5,,,1/6,,,7/8,,
{16}7-4[8:1]/8-4[8:1],,,,7b/8b,,,,4,,3,,2,,1,1h[16:5],
{16},,8,,8,,7,,8,,7,,6,,5,5h[16:5],
{8},4,4,8,2/6,,5,1,
{16}3/7,,,1/5,,,4/8,,1/2,,,7/8,,,4/5,,
{16},,3/6,,2/7,,1b/8b,,8,,7,,6,,5,5,
{16},,7/8,,7/8,,1,,1,,2,,3,,4,4,
{16},,1/2,,7/8,,1/8,,1/2,,,3/5,,,1/7,,
{8}8,,1,5,4,,1-4[8:1]*-7[8:1],,
{4},1pp4[4:3]/8qq5[4:3],,,
{16},,,,,,,,3b,4,,6b,5,,1b/8b,1/8,
E
