&title=LOL -lots of laugh-
&artist=KeN/エンドケイプ
&wholebpm=138
&demo_seek=57.2
&demo_len=27.8
&lv_1=2
&lv_2=4
&lv_3=7
&lv_4=10+
&lv_5=12+
&des_4=Jack
&des_5=rioN
&inote_1=(138.0){1},,,,,
{1}1,
{1}1,
{1}8,
{1}8,
{1}7,
{1}7,
{1}6,
{1}6,
{1}5,
{1}5,
{1}4,
{1}4,
{1}3,
{1}3,
{1}2,
{1}2,
{1}1,
{1}1,
{1}1/8,
{1}1/8,
{1}1,
{1}1,
{1}2,
{1}2,
{1}3,
{1}3,
{1}4,
{1}4b,
{2}5,5,
{1}5,
{1}6,
{1}7,
{2}8,8,
{1}8,
{1}1,
{1}1b,
{2}2,2,
{1}2,
{1}3,
{1}3,
{1}4,
{1}4,
{1}5h[1:1],,
{1}4-1[4:3],,
{1}1,
{1}1,
{1}8-5[4:3],,
{1}5,
{1}5,
{2}4,4,
{1}4,
{2}5,5,
{1}5,
{2}6,6,
{1}6,
{2}7,7,
{1}7,
{2}8,8,
{1}8,
{2}1,1,
{1}1,
{2}2,2,
{1}2,
{1}3h[1:1],,
{1}4b,
E
&inote_2=(138.0){1},,,,,
{2}1,2,
{2}3,4,
{2}5,6,
{2}7,1/8,
{2}7,7,
{1}6h[2:1],
{2}5,5,
{2}4,4,
{2}3,3,
{1}2h[2:1],
{2}1,1,
{2}8,8,
{2}1/8,1,
{4}2,2,2,,
{2}3,3,
{4}4,4,4,,
{2}5,5,
{4}6,6,6,,
{2}7,7,
{4}8,8,8,,
{2}1/8,8,
{4}7,7,7,,
{2}6,6,
{4}5,5,5,,
{2}4,4,
{4}3,3,3,,
{2}2,2,
{4}1,1,1,,
{4}1,1,1,,
{4}2,2,2,,
{4}3,3,3,,
{4}4,4,4,,
{4}5,5,5,,
{4}6,6,6,,
{4}7,7,7,,
{4}1/8,1/8,1b/8b,,
{4}7,7,7,,
{4}6,6,6,,
{4}5,5,5,,
{4}4,4,4,,
{4}3,3,3,,
{4}2,2,2,,
{1}1h[1:1]/8h[1:1],,
{1}1-4[2:1],,
{1}8-5[2:1],,
{1}2-6[2:1],,
{1}7-3[2:1],,
{4}1,1,1/2,,
{4}2,2,1/2,,
{4}3,3,3/4,,
{4}4,4,3/4,,
{4}5,5,5/6,,
{4}6,6,5/6,,
{4}7,7,7/8,,
{4}1/8,1/8,1b/8b,,
{4}7/8,7/8,7/8,,
{4}5/6,5/6,5/6,,
{4}3/4,3/4,3/4,,
{4}1/2,1/2,1/2,,
{2}7/8,1/2,
{4}2/7,2/7,2/7,,
{1}1h[1:1]/8h[1:1],,
{4}1-4[2:1]/8-5[2:1],,,,
E
&inote_3=(138.0){1},,,,,
{4}4,4,4,4,
{4}4,4,4,4,
{4}3,2,1,8-4[2:1],
{4},,,1b,
{4}2,3,4,5^8[8:3],
{4},,,1/7,
{4}8,8,7,7,
{4}6,5/6,3,3/4,
{4}7,6,5,4^1[8:3],
{4},,,2/8,
{4}1,1,2,2,
{4}3,3/4,6,5/6,
{4}4,5,4,5,
{4}4,3,1/2,,
{4}5,4,5,4,
{4}5/6,7/8,1/2,3/4,
{4}5,4,5,4,
{4}5,6,7/8,,
{4}2h[4:1],1,7h[4:1],8,
{4}1/8,2/7,3/6,4/5,
{4}3,4,3,4,
{4}3,2,1/8,,
{4}6,5,3,4,
{4}5/6,3/4,1/2,7/8,
{4}6,5,6,5,
{4}6,7,1/8,,
{2}3h[4:1]/4h[4:1],5h[4:1]/6h[4:1],
{1}4^1[8:3]/5^8[8:3],
{4}2,3,4,5/6,
{4}7^2[8:3],,,1/8,
{4}2,1/2,7,7/8,
{4}1,8,2/7,4/5,
{4}3,2/4,6,5/7,
{4}3/6,2^4[16:3]/7^5[16:3],,,
{4}2,1,2,3/8,
{4}7,8,7,1/6,
{4}2,1/2,7,7/8,
{4}1,8,2/7,4/5,
{4}3,3/4,6,5/6,
{4}4/5,3/6,2/7,1/8,
{2}2h[4:3],7h[4:1],
{4}1/8,2/7,3/6,5/4>5[4:5],{1},
{4},,4/5,4/5,
{4}2,3,4,5^8[8:3],
{4},,,1/7,
{4}8,8,7,7,
{4}6,5/6,3,3/4,
{4}7,6,5,4^1[8:3],
{4},,,2/8,
{4}1,1,2,2,
{4}3,3/4,6,5/6,
{4}7,6,5,3/4,
{4}2^7[8:3],,,1/8,
{4}7,6/8,2,1/3,
{4}2/7,3/6,4/5,2/7,
{4}6,5/7,3,2/4,
{4}3/6,4^2[16:3]/5^7[16:3],,,
{4}7,8,7,1/6,
{4}2,1,2,3/8,
{4}7,6/8,2,1/3,
{4}4/5,3/6,2/7,1/8,
{4}7,6/8,2,1/3,
{4}4/5,3/4,5/6,2/7,
{2}8h[4:3],1h[4:1],
{4}1/8,2/7,3/6,4qq1[4:5]/5pp8[4:5],{1},
{4},,1/8,1/8,
{1}2b/7b,
E
&inote_4=(138.0){1},,,,,
{4}4/5,3,4/5,6,
{4}4/5,2,4/5,7,
{4}4/5,3/6,2/7,1/8,
{8}2,3,4,5,6,7,8b,,
{8}3h[8:3],,4,4,,3/5,3^8[4:1]/5^8[4:1],,
{8},,,,,1,2,3,
{16}4h[16:3],,,5h[16:3],,,6,,,,1/2,,,,5/6,,
{8},1,1-5[8:1],,,,8,,
{8}6h[8:3],,5,5,,4/6,4^1[4:1]/6^1[4:1],,
{8},,,,,8,7,6,
{16}5h[16:3],,,4h[16:3],,,3,,,,7/8,,,,3/4,,
{8},8,8-4[8:1],,,,1,,
{8}2,3,3,4,4h[4:1],,5,5h[4:1],
{8},4,3,2,1h[4:1],,8,,
{8}7,6,6,5,5h[4:1],,4,3,
{4}2-4[8:1],8-6[8:1],1-5[8:1],,
{8}7,6,6,5,5h[4:1],,4,4h[4:1],
{8},5,6,7,8h[4:1],,1-5[8:1],1,
{8},,6,6h[4:1],,4,5,4,
{2}3-1[8:1]/7-5[8:1],2-4[8:1]/6-8[8:1],
{8}7,6,6,5,5h[4:1],,4,4h[4:1],
{8},5,6,7,8h[4:1],,1,,
{8}2,3,3,4,4h[4:1],,5,6,
{4}7-5[8:1],1-3[8:1],8-4[8:1],,
{8}2,3,3,4,4h[4:1],,5,5h[4:1],
{8},4,3,2,1h[4:1],,8-4[8:1],8,
{8},,3,3h[4:1],,4,5,6,
{8}6h[4:1],,5,5-1[8:1],,8,8b,,
{8}2,2h[4:1],,3h[4:1],,4,5,6h[4:1],
{8},7^2[16:3],7,,,,7,7,
{8}4,5,2,2,5,4,7,7h[4:1],
{8},1h[4:1],,8,1-4[8:1]/8-5[8:1],,,,
{8}6,5/6,,3/4,,1-6[8:1]/2-5[8:1],,,
{8},8,7,6,4-1[8:1]/5-8[8:1],,,,
{8}2h[4:1],,1,2h[4:1],,3,4,5,
{2}7/6-1[8:1],2/3-8[8:1],
{8}7,7h[4:1],,6h[4:1],,5,4,3h[4:1],
{8},2h[4:1],,1-5[8:1],1,,7,7,
{8}6,5,4,3,3,8,7,5/6,
{8},2/3,,7/8,7/8,,1^4[16:3]/8^5[16:3],1/8,
{8},,,4/5,4-2[8:1]/5-7[8:1],,,,
{8}1-4[8:1],,8-5[8:1],,4,,4/5,4qq1[8:5]/5pp8[8:5],{1},
{2}2/3-8[8:1],7/6-1[8:1],
{8}8h[4:1],,1,1h[4:1],,2,2pp5[2:1],,
{8},,,,,6,7,8,
{16}1h[16:3],,,2h[16:3],,,3,,,,5/6,,,,1/2,,
{8},6/5-1[8:1],5/6,,,,8,,
{8}1h[4:1],,8,8h[4:1],,7,7qq4[2:1],,
{8},,,,,3,2,1,
{16}8h[16:3],,,7h[16:3],,,6,,,,3/4,,,,7/8,,
{8},3/4-8[8:1],3/4,,,,1b,,
{8}7,7h[4:1],,6h[4:1],,5,4,3h[4:1],
{8},2^7[16:3],2,,,,2,2,
{8}6,5,7,7,3,4,2,2h[4:1],
{8},8h[4:1],,1,1-4[8:1]/8-5[8:1],,,,
{8}3,3/4,,5/6,,7-4[8:1]/8-3[8:1],,,
{8},1,2,3,4-1[8:1]/5-8[8:1],,,,
{8}7h[4:1],,8,7h[4:1],,6,5,4,
{2}2/3-8[8:1],7/6-1[8:1],
{8}2,2h[4:1],,3h[4:1],,4,5,6h[4:1],
{8},7h[4:1],,8-4[8:1],8,,2,2,
{8}3,4,5,6,6,1,2,3/4,
{8},6/7,,1/2,1/2,,1^4[8:1]/8^5[8:1],1/8,
{8},,,4/5,4-1[8:1]/5-8[8:1],,,,
{8}8-5[8:1],,1-4[8:1],,5,,4/5,4qq1[8:5]/5pp8[8:5],{1},
{2}6-2[8:1]/7-1[8:1],2-8[8:1]/3-7[8:1],
{2}1bpp4[4:5]/8bqq5[4:5],{1},,
E
&inote_5=(138.0){1},
{16}3h[16:3],,,4,,,3/5,,6h[16:3],,,5,,,4/6,,
{16}3h[16:3],,,4,,,3/5,,6h[16:3],,,5,,,4/6,,
{16}3h[16:3],,,4,,,2/5,,6h[16:3],,,5,,,4/7,,
{16}3h[16:3],,,4,,,2/5,,6h[16:3],,,5,,,4/7,,
{16}4h[16:3],,,3,,,1/8,,5h[16:3],,,6,,,1/8,,
{16}4h[16:3],,,3,,,1/8,,5h[16:3],,,6,,,1/8,,
{8}3,4,3,2/4,6,5,6,5/7,
{8}3,2/4,6,5/7,2,3/8,1b/6b,,
{8}1-5[8:1],,7,7-3[8:1],,1,1-6[4:1],,
{8}6>2[4:1],,,,,1,2/8,3/7,
{16}6,5,,3,4,,6-3[8:1],,,,7-2[8:1],,,,6^3[8:1],,
{8},1,1-5[4:1],,5^2[8:1]*^8[8:1],,,,
{8}8-4[8:1],,2,2-6[8:1],,8,8-3[4:1],,
{8}3<7[4:1],,,,,8,1/7,2/6,
{16}3,4,,6,5,,3-6[8:1],,,,2-7[8:1],,,,3^6[8:1],,
{8},8,8-4[4:1],,4^1[8:1]*^7[8:1],,,,
{8},3h[8:3],4,5,6h[4:1],,8,1/8^5[4:1],
{16},,1,,2,,3pp5[4:1]*>7[4:1],3,,,,,,,,,
{8},6h[8:3],5,4,2h[4:1],,1,8,
{4}1/7-4[8:1],2-5[8:1],8-4[8:1],1,
{8},7,6,5,4/3-8[8:1],,7,7-4[8:1],
{16},,1,,1,,3,4h[16:5],,,,,5,,6,,
{8}7h[4:1],,8,2/3,,4,5,6,
{4}7^2[4:1],2-6[4:1],6-3[8:1],3b,
{8},6h[8:3],5,4,3h[4:1],,1,8/1^4[4:1],
{16},,8,,7,,6<2[4:1]*qq4[4:1],6,,,,,,,,,
{8},3h[8:3],4,5,7h[4:1],,8,1,
{4}8/2-5[8:1],7-4[8:1],1-5[8:1],8,
{8},2,3,4,5/6-1[8:1],,2,2-5[8:1],
{16},,8,,8,,6,5h[16:5],,,,,4,,3,,
{8}2h[4:1],,1,6/7,,5,4,3,
{8}2/7,,3/6,1bpp3[4:1]/8bqq6[4:1],,,,,
{8}2,1^4[8:1],8,7,6,5^8[8:1],4,3^8[8:1],
{8},7,7^4[8:1],,1^4[8:1],,5^8[8:1],5,
{8}4,3,2^5[8:1],1,8,7,6,5-2[8:1],
{8},4-7[8:1],,8,8,,1/8,2,
{8}3,4^1[8:1],5,6,7,8^5[8:1],1,2^5[8:1],
{8},6,7,8,1/2,,7^4[8:1],8,
{8}1,2^7[8:1],3,4^7[16:3],,3,2,1,
{4}8-4[8:1],7-3[8:1],6-2[8:1],5b,
{8}7,8^5[8:1],1,2,3,4^1[8:1],5,6^1[8:1],
{8},2^5[8:1],,7,8^5[8:1],,1,2,
{8}3,4,5^2[8:1],6,7,8,1^6[8:1],2,
{8}3,4,5^2[8:1],6,8^5[8:1],,4,3,
{8}2z6[4:1],,,8-4[8:1],8,,2,3,
{8}4-8[8:1],,5-1[8:1],,6-2[8:1],,7w3[4:3],7,{1},
{16}5/6,,4/7,,3/8,,2,1,,5,6,,3/4,,7/8,,
{8}2-6[8:1],,8,8-4[8:1],,1,1q5[4:1],,
{8}5>1[4:1]*pp7[4:1],,,,,8,1/7,2/6,
{16}3,4,,6,5,,3-6[8:1],,,,2-7[8:1],,,,3^6[8:1],,
{8},8,8-4[4:1],,4V28[8:1]*V68[8:1],,,,
{8}7-3[8:1],,1,1-5[8:1],,8,8p4[4:1],,
{8}4qq2[4:1]*<8[4:1],,,,,1,2/8,3/7,
{16}6,5,,3,4,,6-3[8:1],,,,7-2[8:1],,,,6^3[8:1],,
{8},1,1-5[4:1],,5V31[8:1]*V71[8:1],,,,
{8}7,8v6[8:1],1,2,3,4v2[8:1],5,6v8[8:1],
{8},3,2v4[8:1],,8v6[8:1],,3,4,
{8}5,6,7v5[8:1],8,1,2,3,4-7[8:1],
{8},5-2[8:1],,1,1,,1/8,7,
{8}6,5v7[8:1],4,3,2,1v3[8:1],8,7v5[8:1],
{8},4,3,2,1/8,,2v4[8:1],1,
{8}8,7v1[8:1],6,5v3[16:3],,6,7,8,
{4}1-5[8:1],2-6[8:1],3-7[8:1],4b,
{8}2,1pp2[8:1],8,7,6,5pp6[8:1],4,3qq2[8:1],
{8},7qq6[8:1],,2,1pp2[8:1],,8,7,
{8}6,5,4pp5[8:1],3,2,1,8pp1[8:1],7,
{8}6,5,4pp5[8:1],3,2qq1[8:1],,5,6,
{8}7s3[4:1],,,1-5[8:1],1,,7,6,
{8}5-1[8:1],,4-8[8:1],,3-7[8:1],,2w6[4:3],2,{1},
{16}5/6,,4/7,,3/8,,2,1,,5,6,,2/4,,5/7,,
{1}1pp4[4:7]/8qq5[4:7],,,
E
