&title=Glorious Crown
&artist=xi
&wholebpm=225.5
&demo_seek=46
&demo_len=19
&lv_1=4
&lv_2=7
&lv_3=10
&lv_4=13
&lv_5=14+
&des_4=ぴちネコ
&des_5=合作だよ
&inote_1=(225.5){1},
{2}4,4,
{2}3,3,
{2}2,2,
{2}1,1,
{2}8,8,
{2}7,7,
{2}6,6,
{2}5,5,
{1}4/5,,
{1}1h[1:1],,
{1}2h[1:1],,
{1}3h[1:1],,
{1}4h[1:1],,
{1}5,
{1}5,
{1}6,
{1}6,
{1}7,
{1}7,
{1}8,
{1}8,
{1}1b,
{2}1,1,
{4}1,1,1,,
{2}2,2,
{4}2,2,2,,
{2}3,3,
{4}3,3,3,,
{2}4,4,
{4}4,4,4,,
{2}5,5,
{4}5,5,5,,
{2}6,6,
{4}6,6,6,,
{2}7,7,
{4}7,7,7,,
{2}8,8,
{1}8b,
{4}8,8,8,,
{4}7,7,7,,
{4}6,6,6,,
{1}5,
{4}4,4,4,,
{4}3,3,3,,
{4}2,2,2,,
{1}1,
{4}1,1,1,,
{4}2,2,2,,
{4}3,3,3,,
{1}4,
{4}5,5,5,,
{4}6,6,6,,
{4}7,7,7,,
{2}8,8,
{1}8b,
{1}8-4[4:3],,
{1}1-5[4:3],,
{1}7-3[4:3],,
{1}2-6[4:3],,
{2}1/8,1/8,
{2}7/8,7/8,
{2}1/8,1/8,
{2}1/2,1/2,
{4}1/8,1/8,1/8,,
{4}1/8,1/8,1/8,,
{1}1-5[4:3],,
{1}8-4[4:3],,
{1}5h[1:1],,
{1}4h[1:1],,
{1}5h[1:1],,
{1}4-8[4:3],,
{2}1,1,
{2}8,8,
{2}1,1,
{2}1/8,1/8,
{4}7,7,7,,
{4}6,6,6,,
{4}5,5,5,,
{4}4,4,4,,
{4}3,3,3,,
{4}2,2,2,,
{4}3,3,3,,
{4}4,4,4,,
{4}5,5,5,,
{4}6,6,6,,
{4}7,7,7,,
{4}8,8,8,8,
{4}8,8,8,,
{4}1,1,1,1,
{4}1,1,1,,
{1}8-4[4:3],,
{1}1-5[4:3],,
{1}1/8,
E
&inote_2=(225.5){1},
{4}1,1,1,,
{4}8,8,8,,
{4}1,1,1,,
{4}8,8,8,,
{4}1/2,1/2,1/2,,
{4}7/8,7/8,7/8,,
{4}1,1,8,8,
{4}1/8,1/8,1/8,,
{1}2/7,,
{1}1-4[4:3],,
{1}8-5[4:3],,
{1}2-5[4:3],,
{1}7-4[4:3],,
{2}1,1,
{2}2,2,
{2}3,3,
{2}4,4,
{2}5,5,
{2}6,6,
{2}7,7,
{2}8,8,
{2}1,1b/8b,
{4}8,8,7,,
{4}6,6,4/5,,
{4}1,1,2,,
{4}3,3,4/5,,
{4}5,5,6,,
{4}7,7,1/8,,
{4}4,4,3,,
{4}2,2,1/8,,
{4}2,1,2,1,
{4}2,1,2,,
{4}7,8,7,8,
{4}7,8,7,,
{4}1,8,1,8,
{4}2,7,2,,
{4}4,5,4,5,
{4}3,6,3b,,
{4}5,5,5,5,
{4}6,6,5/6,,
{4}7,7,7,7,
{4}8,8,1/8,,
{4}1,1,1,1,
{4}2,2,1/2,,
{4}3,3,3,3,
{4}4,4,4b/5b,,
{4}4,4,4,4,
{4}3,3,3/4,,
{4}2,2,2,2,
{4}1,1,1/8,,
{4}8,8,8,8,
{4}7,7,7/8,,
{4}6,6,6,6,
{4}5,5,4/5,,
{1}3h[2:1]/6h[2:1],
{1}4-1[4:3]/5-8[4:3],,
{1}1-6[4:3]/2-5[4:3],,
{1}7-4[4:3]/8-3[4:3],,
{2}4/5,4/5,
{4}4/5,4/5,3/6,,
{4}3,3,3,,
{4}3,3,3/4,,
{4}6,6,6,,
{4}6,6,5/6,,
{4}4/5,4/5,4/5,,
{4}4/5,4/5,3/6,,
{2}4/5,3/6,
{2}2/7,1/8,
{1}1^4[4:3]/8^5[4:3],,,,
{1}1,
{1}1,
{1}8,
{1}8,
{1}1/8,
{1}2h[2:1]/7h[2:1],
{2}1/8,1/8,
{2}2/7,2/7,
{2}3/6,3/6,
{2}4/5,4b/5b,
{4}4,4,5,5,
{4}6,6,5/7,,
{4}5,5,4,4,
{4}3,3,2/4,,
{4}1,1,2,2,
{8}3,,3,,4,4,4,,
{4}5,5,6,6,
{8}7,,7,,8,8,8,,
{4}7,7,8,8,
{8}1,,1,,2,2,2,,
{8}1,,1,,8,8,8,,
{8}7,,7,,6,6,6,,
{8}5,,5,,4,4,4,,
{8}3,,3,,2,2,2,,
{8}1,,1,,1/8,1/8,1/8,,
{1}1h[2:3]/8h[2:3],,
{1}2h[1:2]/7h[1:2],,,
E
&inote_3=(225.5){1},
{4}3,4,3,2/5,
{4}6,5,6,4/7,
{4}3,2,1,7/8,
{4}6,7,8,1/2,
{4}3,3/4,6,5/6,
{4}3,2/4,6,5/7,
{4}1/2,1/2,7/8,7/8,
{4}1/3,1/3,6/8,6/8<1[1:1],{1},
{8},,,,1,1,8,8,
{1}1bp3[2:1],
{1}4p6[2:1],
{1}7p1[2:1],
{2}2h[2:1],1h[2:1],
{1}8q6[2:1],
{1}5q3[2:1],
{1}2q8[2:1],
{2}7h[2:1],8h[2:1],
{4}1,1,1,1,
{4}8,8,8,8,
{4}7,7,6,6,
{4}5,5,4,4,
{4}3,2,1,7/8,
{4}6,7,8,1/2,
{4}3,2/4,6,5/7,
{4}3,1/3,6,6/8,
{4}1,1-4[4:1]/8-5[4:1],,,
{4}3,4,5,6,
{8}7,7,1,,2,2,8,,
{4}3,4,5,6,
{4}7/8,1/6,2/5,3/4,
{4}5,6,7,3/8,
{4}4,3,2,1/6,
{8}7,7,1,,2,2,8,,
{4}1/2,3/8,4/7,5/6,
{4}4/5,3/4,4/5,2/4,
{4}4/5,5/6,4/5,5/7,
{4}4/5,2/3,4/5,1/3,
{4}4/5,6/7,4/5,6/8,
{4}1,2/8,3/7,4/6,
{4}8,1/7,2/6,3/5,
{2}2h[4:1]/4h[4:1],5h[4:1]/7h[4:1],
{4}1/2,7/8,4/5,2b/7b,
{8}3,,2/4,,1,1,8,,
{8}6,,5/7,,8,8,1,,
{8}3,,2/4,,1,1,8,,
{4}5/7,4/6,3/5,2/4,
{4}1,2/8,1,3/7,
{4}8,1/7,8,2/6,
{8}3,3,4,,6,6,5,,
{4}4/5,4-1[4:1]/5-8[4:1],,,
{8}6,,5/7,,8,8,1,,
{8}3,,2/4,,1,1,8,,
{8}6,,5/7,,8,8,1,,
{4}2/4,3/5,4/6,5/7,
{4}8,1/7,8,2/6,
{4}1,2/8,1,3/7,
{8}2,2,8,,7,7,1,,
{8}3,3,4,,6,6,5,,
{8}2,2,1,,7,7,8,,
{1}2q6[2:1],
{1}7p3[2:1],
{1}2p5[2:1],
{1}7q4[2:1],
{4}3,3/4,3,2/5,
{4}6,5/6,6,4/7,
{4}3,2/4,6,5/7,
{4}4/5,3/6,2/7,1b/8b,
{4}2,3/4,4/5,5/6,
{4}7,5/6,4/5,3/4,
{4}1,2/5,3/6,4/7,
{4}8,4/7,3/6,2/5,
{4}3/4,2/5,1/6,7/8,
{4}5/6,4/7,3/8,1/2,
{2}3h[2:1],4h[2:1],
{2}5h[2:1],6h[2:1],
{1}7pp2[4:5],,
{1}3pp6[4:5],,
{2}7/8,1/8,
{2}1/2,2/3,
{2}3/4,4/5,
{2}5/6,6/7,
{2}7/8,1h[1:1],
{4}8h[2:1],,,1b/8b,
{4}3/4,3/4,4/5,4/5,
{4}5/6,5/6,4/7,4/7,
{4}3/6,3/6,2/5,2/5,
{4}3/4,4/5,5/6,2b/7b,
{8}1/2,,3/8,,7,7,5,,
{8}7/8,,1/6,,2,2,4,,
{8}3,3,8,,6,6,1,,
{8}8,8,2,2,7,7,1,,
{8}3/5,3/5,3/5,,4/6,4/6,4/6,,
{8}2/5,2/5,2/5,,4/7,4/7,4/7,,
{8}1/6,1/6,1/6,,3/8,3/8,3/8,,
{8}1,1,7,7,2,2,8,,
{8}3,3,7,7,1,1,8,,
{8}6,6,2,2,8,8,1,,
{8}2/8,2/8,2/8,,1/7,1/7,1/7,,
{8}6,6,4,4,8,8,1,,
{8}3,3,5,5,1,1,8,,
{8}5/7,5/7,5/7,,2/4,2/4,2/4,,
{8}6/8,6/8,6/8,,1/3,1/3,1/3,,
{1}4bqq1[4:5]/5bpp8[4:5],,
{8}3,3,8,8,1,1,6,6,
{8}1,2,3,4,5,6,7,8,
{1}1b,
E
&inote_4=(225.5){1},
{8}2/7,,8,,1,,2,2,
{4}1,8,7^2[16:3],,
{8}3,,4,,5,,6,6,
{4}5,4,3^6[16:3],,
{8}7,,8,,1/2,1/2,1/2,,
{8}3,,4,,5/6,5/6,5/6,,
{8}2/8,2/8,2/8,,4/6,4/6,4/6,,
{8}1,8,2,7,3,6,4,5,
{2}4-8[4:1],5-1[4:1],
{8}2^7[4:1],,,,6,5,4,3,
{8}2b/7b,,5/6,,3/4,,2,1,
{4}2,1/2,3/8,4/7,
{8}5/6,,3/4,,5/6,,7,8,
{4}7,7/8,1/6,2/5,
{4}4/3h[1:1],4,5,6,
{4}6h[1:1],5,4,3,
{4}2,1/3,4/8,5/7,
{1}6V42[8:3]*V82[8:3],
{4}1b/8b,2,3,4,
{4}5,6,7,8,
{4}1/3,6,5/7,3,
{4}2/4,7,6/8,2,
{4}1/3,4/8,5/7,6,
{4}6/8,1/5,2/4,3,
{4}3/8,5/6,1/6,3/4,
{16}3/8,,,2,,,2,,1/6,,,7,,,7,,
{16}3/6,,,2/7,,,8/1-5[8:1],,1b/8b,,,,,,,,
{8}7,8,6,,3,4,2,,
{4}8-4[8:1],2-5[8:1],7-4[8:1],1,
{8}2,1,3,,6,5,7,,
{4}1-5[8:1],7-4[8:1],2-5[8:1],8,
{8}7,1,7,1,7^4[16:3],,,,
{8}2,8,2,8,2^5[16:3],,,,
{4}7h[4:1],1h[4:1],3h[4:1],5,
{4}6^1[4:1],1^4[4:1],4b,,
{8}1,1,5,5,3,3,7,7,
{8}4,4,8,8,2,2,6,6,
{8}1,5,2,6,3,7,4/8,,
{8}8,4,7,3,6,2,1/5,,
{8}1,8,7,6,5,4,3,,
{8}8,1,2,3,4,5,6,,
{4}8/7-4[8:1],2,1/2-5[8:1],7,
{16}1/6,,,3/8,,,4/5,,4b-1[8:1]/5b-8[8:1],,,,,,,,
{8}2/7,,3,4,3,,7,8,
{4}7-3[8:1],1,2-6[8:1],8,
{8}4/7,,6,5,6,,2,1,
{4}2-6[8:1],8,7-3[8:1],1,
{8}2/5,,6/8,,2,1,2,,
{8}4/7,,1/3,,7,8,7,,
{4}3/4,1/7,5/6,2/8,
{1}3>6[8:3]/4p5[8:3],
{8}2b/7b,,1,6,4,,5,2,
{4}8-3[8:1],2-5[8:1],7-4[8:1],1-6[8:1],
{8}8,,7,3,5,,3,7,
{4}1-6[8:1],7-4[8:1],2-5[8:1],8-3[8:1],
{8}1,,1/7,,8,8,1b/7b,,
{8}5,,2/8,,1,1,2b/8b,,
{8}7,7,3,3,6,6,2,2,
{16}1/5,,,6,,,7,,4/8,,,3,,,2,,
{16}1/5,,,6,,,7,,4/8,,,3,,,2,,
{1}1bpp4[8:9]/5bpp8[8:9],
{4},,,4/8,
{1}4bqq1[8:9]/8bqq5[8:9],
{4},,,1/5,
{4}1b/5b,6/7,
{12}2,
{995}1,,,,,,,,,,,,,,,,,,,,,,,,,,,,,,,,,,,,,,,,,,,,,,,,,,,,,,,,,,,,,,,,,,,,,,,,,,,,,,,,,,,
{12}2,1,,,
{12}4b/8b,,,2/3,,,6,
{995}5,,,,,,,,,,,,,,,,,,,,,,,,,,,,,,,,,,,,,,,,,,,,,,,,,,,,,,,,,,,,,,,,,,,,,,,,,,,,,,,,,,,
{12}6,5,,,
{12}3,
{995}5,,,,,,,,,,,,,,,,,,,,,,,,,,,,,,,,,,,,,,,,,,,,,,,,,,,,,,,,,,,,,,,,,,,,,,,,,,,,,,,,,,,
{12}3,5,,,1,
{995}7,,,,,,,,,,,,,,,,,,,,,,,,,,,,,,,,,,,,,,,,,,,,,,,,,,,,,,,,,,,,,,,,,,,,,,,,,,,,,,,,,,,
{12}1,7-3[8:1],,,
{4}8-4[8:1],1-5[8:1],2-6[8:1],,
{4}7h[6:1]/8h[6:1],7h[6:1]/8h[6:1],7h[6:1]/8h[6:1],7/8,
{4}1h[6:1]/2h[6:1],1h[6:1]/2h[6:1],1h[6:1]/2h[6:1],1/2,
{4}6h[6:1]/8h[6:1],6h[6:1]/8h[6:1],6h[6:1]/8h[6:1],6/8,
{4}1h[6:1]/3h[6:1],1h[6:1]/3h[6:1],1h[6:1]/3h[6:1],1/3,
{12}7b,
{995}8,,,,,,,,,,,,,,,,,,,,,,,,,,,,,,,,,,,,,,,,,,,,,,,,,,,,,,,,,,,,,,,,,,,,,,,,,,,,,,,,,,,
{12}7,8,
{995}7,,,,,,,,,,,,,,,,,,,,,,,,,,,,,,,,,,,,,,,,,,,,,,,,,,,,,,,,,,,,,,,,,,,,,,,,,,,,,,,,,,,
{12}8,7,
{995}8,,,,,,,,,,,,,,,,,,,,,,,,,,,,,,,,,,,,,,,,,,,,,,,,,,,,,,,,,,,,,,,,,,,,,,,,,,,,,,,,,,,
{12}7,8b,,,
{12}2b,
{995}1,,,,,,,,,,,,,,,,,,,,,,,,,,,,,,,,,,,,,,,,,,,,,,,,,,,,,,,,,,,,,,,,,,,,,,,,,,,,,,,,,,,
{12}2,1,
{995}2,,,,,,,,,,,,,,,,,,,,,,,,,,,,,,,,,,,,,,,,,,,,,,,,,,,,,,,,,,,,,,,,,,,,,,,,,,,,,,,,,,,
{12}1,2,
{995}1,,,,,,,,,,,,,,,,,,,,,,,,,,,,,,,,,,,,,,,,,,,,,,,,,,,,,,,,,,,,,,,,,,,,,,,,,,,,,,,,,,,
{12}2,1b,,,
{8}8,1,2,3,4,5,6,7,
{16}8,7,6,5,4,3,2,1,8,7,6,5,4,3,2,1,
{2}8b^5[4:3],4,
{2}4^1[4:3],8,
{2}8^5[4:3],4,
{2}4^1[4:3],8,
{4}8^5[4:3],2,3,4,
{4}4^1[4:3],6,7,8,
{4}8^5[4:3],2,3,4,
{16}4h[2:1],,,6,,,6,,5h[2:1],,,3,,,3,,
{2}4^1[4:1],8^5[4:1],
{1}4>5[2:1],
{8}2b/7b,,4/5,,6,3,6,3,
{8}7,2,7,2,8,1,8,1,
{8}2/7,2/7,2/7,2/7,3/6,3/6,3/6,3/6,
{8}4/5,4/5,4/5,4-1[8:1]/5-8[8:1],4b/5b,,,,
{8}2/7,,2,1,2,8,2,,
{8}3/6,,6,5,6,4,6,,
{8}1/2,1/2,1/2,,7/8,7/8,7/8,,
{1}5q4[8:3]/6<3[8:3],
{8}2b,1,3,8,2,1,3,8,
{8}2,7,1/7,2,2/8,7,1/7,,
{8}6,5,7,4,6,5,7,4,
{8}6,3,3/5,6,4/6,3,3/5,,
{8}7,8,6,1,7,8,1/6,,
{8}3,4,2,5,3,4,2/5,,
{8}1/6,,3/7,3/7,4/8,4/8,3/7,3/7,
{4}6/2-4[8:1],8-6[8:1],1-5[8:1],8b,
{4}3/7-5[8:1],1-3[8:1],8-4[8:1],1b,
{8}1,8,7,6,5,4,3,2,
{16}1,2,3,4,5,6,7,8,1,2,3,4,5,6,7,8,
{1}1h[4:7]/5h[4:7],,
{8}4b/5b,4/5,3/6,3/6,2/7,2/7,1/8,1/8,
{16}1,8,1,8,1,8,1,8,1,8,1,8,1-5[8:1],8,1,8,,,,
E
&inote_5=(225.5){1},
{12}3,
{995}4,,,,,,,,,,,,,,,,,,,,,,,,,,,,,,,,,,,,,,,,,,,,,,,,,,,,,,,,,,,,,,,,,,,,,,,,,,,,,,,,,,,
{12}3,6,
{995}5,,,,,,,,,,,,,,,,,,,,,,,,,,,,,,,,,,,,,,,,,,,,,,,,,,,,,,,,,,,,,,,,,,,,,,,,,,,,,,,,,,,
{12}6,3,
{995}4,,,,,,,,,,,,,,,,,,,,,,,,,,,,,,,,,,,,,,,,,,,,,,,,,,,,,,,,,,,,,,,,,,,,,,,,,,,,,,,,,,,
{12}3,7,,7,
{12}3,
{995}4,,,,,,,,,,,,,,,,,,,,,,,,,,,,,,,,,,,,,,,,,,,,,,,,,,,,,,,,,,,,,,,,,,,,,,,,,,,,,,,,,,,
{12}3,6,
{995}5,,,,,,,,,,,,,,,,,,,,,,,,,,,,,,,,,,,,,,,,,,,,,,,,,,,,,,,,,,,,,,,,,,,,,,,,,,,,,,,,,,,
{12}6,3,
{995}4,,,,,,,,,,,,,,,,,,,,,,,,,,,,,,,,,,,,,,,,,,,,,,,,,,,,,,,,,,,,,,,,,,,,,,,,,,,,,,,,,,,
{12}3,8,,,
{12}6,
{995}5,,,,,,,,,,,,,,,,,,,,,,,,,,,,,,,,,,,,,,,,,,,,,,,,,,,,,,,,,,,,,,,,,,,,,,,,,,,,,,,,,,,
{12}6,3,
{995}4,,,,,,,,,,,,,,,,,,,,,,,,,,,,,,,,,,,,,,,,,,,,,,,,,,,,,,,,,,,,,,,,,,,,,,,,,,,,,,,,,,,
{12}3,6,
{995}5,,,,,,,,,,,,,,,,,,,,,,,,,,,,,,,,,,,,,,,,,,,,,,,,,,,,,,,,,,,,,,,,,,,,,,,,,,,,,,,,,,,
{12}6,2,,2,
{12}6,
{995}5,,,,,,,,,,,,,,,,,,,,,,,,,,,,,,,,,,,,,,,,,,,,,,,,,,,,,,,,,,,,,,,,,,,,,,,,,,,,,,,,,,,
{12}6,3,
{995}4,,,,,,,,,,,,,,,,,,,,,,,,,,,,,,,,,,,,,,,,,,,,,,,,,,,,,,,,,,,,,,,,,,,,,,,,,,,,,,,,,,,
{12}3,6,
{995}5,,,,,,,,,,,,,,,,,,,,,,,,,,,,,,,,,,,,,,,,,,,,,,,,,,,,,,,,,,,,,,,,,,,,,,,,,,,,,,,,,,,
{12}6,1,,,
{12}3,
{995}4,,,,,,,,,,,,,,,,,,,,,,,,,,,,,,,,,,,,,,,,,,,,,,,,,,,,,,,,,,,,,,,,,,,,,,,,,,,,,,,,,,,
{12}3,6,
{995}5,,,,,,,,,,,,,,,,,,,,,,,,,,,,,,,,,,,,,,,,,,,,,,,,,,,,,,,,,,,,,,,,,,,,,,,,,,,,,,,,,,,
{12}6,3,
{995}4,,,,,,,,,,,,,,,,,,,,,,,,,,,,,,,,,,,,,,,,,,,,,,,,,,,,,,,,,,,,,,,,,,,,,,,,,,,,,,,,,,,
{12}3,8,,1,
{12}6,
{995}5,,,,,,,,,,,,,,,,,,,,,,,,,,,,,,,,,,,,,,,,,,,,,,,,,,,,,,,,,,,,,,,,,,,,,,,,,,,,,,,,,,,
{12}6,3,
{995}4,,,,,,,,,,,,,,,,,,,,,,,,,,,,,,,,,,,,,,,,,,,,,,,,,,,,,,,,,,,,,,,,,,,,,,,,,,,,,,,,,,,
{12}3,6,
{995}5,,,,,,,,,,,,,,,,,,,,,,,,,,,,,,,,,,,,,,,,,,,,,,,,,,,,,,,,,,,,,,,,,,,,,,,,,,,,,,,,,,,
{12}6,1,,8,
{12}3,
{995}4,,,,,,,,,,,,,,,,,,,,,,,,,,,,,,,,,,,,,,,,,,,,,,,,,,,,,,,,,,,,,,,,,,,,,,,,,,,,,,,,,,,
{12}3,8,,1,6,
{995}5,,,,,,,,,,,,,,,,,,,,,,,,,,,,,,,,,,,,,,,,,,,,,,,,,,,,,,,,,,,,,,,,,,,,,,,,,,,,,,,,,,,
{12}6,1,,8,
{16}1,2,3,4,8,7,6,5,1,2,3,4,8,7,6,5,
{983}1b,,,,,,,,,,,,,,,,,,,,,,,,,,,,,,,,,,,,,,,,,
{625}2,,,,,,,,,,,,,,,,,,,,,,,,,,
{983}3,,,,,,,,,,,,,,,,,,,,,,,,,,,,,,,,,,,,,,,,,4,,,,,,,,,,,,,,,,,,,,,,,,,,,,,,,,,,,,,,,,,
{625}5,,,,,,,,,,,,,,,,,,,,,,,,,,
{983}6,,,,,,,,,,,,,,,,,,,,,,,,,,,,,,,,,,,,,,,,,7,,,,,,,,,,,,,,,,,,,,,,,,,,,,,,,,,,,,,,,,,
{625}8,,,,,,,,,,,,,,,,,,,,,,,,,,
{983}1,,,,,,,,,,,,,,,,,,,,,,,,,,,,,,,,,,,,,,,,,2,,,,,,,,,,,,,,,,,,,,,,,,,,,,,,,,,,,,,,,,,
{625}3,,,,,,,,,,,,,,,,,,,,,,,,,,
{983}4,,,,,,,,,,,,,,,,,,,,,,,,,,,,,,,,,,,,,,,,,5,,,,,,,,,,,,,,,,,,,,,,,,,,,,,,,,,,,,,,,,,
{625}6,,,,,,,,,,,,,,,,,,,,,,,,,,
{983}7,,,,,,,,,,,,,,,,,,,,,,,,,,,,,,,,,,,,,,,,,8,,,,,,,,,,,,,,,,,,,,,,,,,,,,,,,,,,,,,,,,,
{625}1,,,,,,,,,,,,,,,,,,,,,,,,,,
{983}2,,,,,,,,,,,,,,,,,,,,,,,,,,,,,,,,,,,,,,,,,3,,,,,,,,,,,,,,,,,,,,,,,,,,,,,,,,,,,,,,,,,
{625}4,,,,,,,,,,,,,,,,,,,,,,,,,,
{983}5,,,,,,,,,,,,,,,,,,,,,,,,,,,,,,,,,,,,,,,,,6,,,,,,,,,,,,,,,,,,,,,,,,,,,,,,,,,,,,,,,,,
{625}7,,,,,,,,,,,,,,,,,,,,,,,,,,
{983}8,,,,,,,,,,,,,,,,,,,,,,,,,,,,,,,,,,,,,,,,,
{983}1,,,,,,,,,,,,,,,,,,,,,,,,,,,,,,,,,,,,,,,,,
{625}2,,,,,,,,,,,,,,,,,,,,,,,,,,
{983}3,,,,,,,,,,,,,,,,,,,,,,,,,,,,,,,,,,,,,,,,,4,,,,,,,,,,,,,,,,,,,,,,,,,,,,,,,,,,,,,,,,,
{625}5,,,,,,,,,,,,,,,,,,,,,,,,,,
{983}6,,,,,,,,,,,,,,,,,,,,,,,,,,,,,,,,,,,,,,,,,7,,,,,,,,,,,,,,,,,,,,,,,,,,,,,,,,,,,,,,,,,
{625}8,,,,,,,,,,,,,,,,,,,,,,,,,,
{983}1,,,,,,,,,,,,,,,,,,,,,,,,,,,,,,,,,,,,,,,,,2,,,,,,,,,,,,,,,,,,,,,,,,,,,,,,,,,,,,,,,,,
{625}3,,,,,,,,,,,,,,,,,,,,,,,,,,
{983}4,,,,,,,,,,,,,,,,,,,,,,,,,,,,,,,,,,,,,,,,,
{8}6b,6,2,2,
{8}8h[8:5],,,,,4,4,6,
{4}2^5[4:1],5^8[4:1],8^3[4:1],3^6[4:1],
{8}7h[8:5],,,,,4,4,6,
{4}2^7[4:1],7^4[4:1],4^1[4:1],8,
{4}7h[4:1],5h[4:1],3h[4:1],1h[4:1],
{16}8,,,2/7,,,1/8,,1/8,,,,,,,,
{4}7/8,1/6,2/5,3/4,
{4}4-8[4:1],8-4[4:1],4-2[8:1]*-6[8:1],,
{8}1h[8:5],,,,,5,5,3,
{4}7^4[4:1],4^1[4:1],1^6[4:1],6^3[4:1],
{8}1h[8:5],,,,,5,5,3,
{4}7^2[4:1],2^5[4:1],5^8[4:1],1,
{4}2h[4:1],4h[4:1],6h[4:1],8h[4:1],
{16}1,,,2/7,,,1/8,,1/8,,,,,,,,
{8}1,1,8,8,2,2,7,7,
{16}1,8,1,8,1,8,1,8,1,8,1,8,1,8,1,8,
{641}1,,,,,,,,,,,,,,,,,,,,
{639}2,,,,,,,,,,,,,,,,,,,,3,,,,,,,,,,,,,,,,,,,,
{641}4,,,,,,,,,,,,,,,,,,,,5,,,,,,,,,,,,,,,,,,,,
{639}6,,,,,,,,,,,,,,,,,,,,7,,,,,,,,,,,,,,,,,,,,
{641}8,,,,,,,,,,,,,,,,,,,,1,,,,,,,,,,,,,,,,,,,,
{639}2,,,,,,,,,,,,,,,,,,,,3,,,,,,,,,,,,,,,,,,,,
{641}4,,,,,,,,,,,,,,,,,,,,5,,,,,,,,,,,,,,,,,,,,
{639}6,,,,,,,,,,,,,,,,,,,,7,,,,,,,,,,,,,,,,,,,,
{641}8,,,,,,,,,,,,,,,,,,,,
{8}1b,,,,
{8}8-3[8:1]*-5[8:1],1/7,8,,4-1[8:1]*-7[8:1],3/5,4,,
{8}8,8,1,1,6-2[8:1],6,3,,
{8}4>8[4:1],4,8<4[4:1],8,4-8[4:1],4,7,,
{8}5,5^8[8:1],5,
{983}4,,,,,,,,,,,,,,,,,,,,,,,,,,,,,,,,,,,,,,,,,
{625}3,,,,,,,,,,,,,,,,,,,,,,,,,,
{983}2,,,,,,,,,,,,,,,,,,,,,,,,,,,,,,,,,,,,,,,,,
{16}1,,,6,,,7,,
{16}1^4[8:1],,1,,
{983}8,,,,,,,,,,,,,,,,,,,,,,,,,,,,,,,,,,,,,,,,,
{625}7,,,,,,,,,,,,,,,,,,,,,,,,,,
{983}6,,,,,,,,,,,,,,,,,,,,,,,,,,,,,,,,,,,,,,,,,
{8}5,2,2,8,,
{8}7,4^1[8:1],4,
{983}5,,,,,,,,,,,,,,,,,,,,,,,,,,,,,,,,,,,,,,,,,
{625}6,,,,,,,,,,,,,,,,,,,,,,,,,,
{983}7,,,,,,,,,,,,,,,,,,,,,,,,,,,,,,,,,,,,,,,,,
{8}8,3,7,2,
{8}4>8[4:1],4,8<4[4:1],8,4,4,8,,
{8}6h[4:1],1,3h[4:1],8,6h[4:1],1,3,,
{8}4^1[8:1],4,6^1[8:1],6,5-1[8:1],5,6^1[8:1],6,
{8}4^1[8:1],4,5q1[8:1],5,4^1[8:1],4,6^1[8:1],6,
{8}4-1[8:1],4,6-1[8:1],6,5p1[8:1],5,6^1[8:1],6,
{8}4^1[8:1],4,5w1[8:1],5,5,,,,
{4}1-3[8:1]/5-7[8:1],1/5,4-2[8:1]/8-6[8:1],4/8,
{16}1-4[8:1]/5-8[8:1],,,,1/5,,,,6,,,7,,,8,,
{8}4,3,2,1,8,7,6,5,
{16}2b/4b,,,5b/7b,,,1b/8b,,
{639}5,,,,,,,,,,,,,,,,,,,,
{641}4,,,,,,,,,,,,,,,,,,,,
{639}3,,,,,,,,,,,,,,,,,,,,
{641}2,,,,,,,,,,,,,,,,,,,,
{639}1,,,,,,,,,,,,,,,,,,,,
{641}8,,,,,,,,,,,,,,,,,,,,
{639}7,,,,,,,,,,,,,,,,,,,,
{641}6,,,,,,,,,,,,,,,,,,,,
{8}5b,,
{16}3,,7,,4,5,4,5,4,,6,,1,8,1,8,
{16}1,2,3,4,8,7,6,5,2,3,4,5,7,6,5,4,
{16}2,,6,,4,5,4,5,4,,7,,2,1,2,1,
{16}2,3,4,5,7,6,5,4,1,2,3,4,8,7,6,5,
{8}3^1[8:1],3,5-1[8:1],5,4-8[8:1],4,6^8[8:1],6,
{16}1,,,2,,,3/8,,3qq1[8:1]/8qq6[8:1],,,,,,,,
{16}2,3,4,5,8,7,6,5,1,2,3,4,7,6,5,4,
{16}2,,2,,4-2[8:1],,4,,4-6[8:1],,,4-8[8:1],,,4,,
{16}7,,3,,5,4,5,4,5,,3,,8,1,8,1,
{16}8,7,6,5,1,2,3,4,7,6,5,4,2,3,4,5,
{16}7,,3,,5,4,5,4,5,,2,,7,8,7,8,
{16}7,6,5,4,2,3,4,5,8,7,6,5,1,2,3,4,
{8}6^8[8:1],6,4-8[8:1],4,5-1[8:1],5,3^1[8:1],3,
{16}8,,,7,,,1/6,,1pp3[8:1]/6pp8[8:1],,,,,,,,
{8}4b,4,5,5,3,3,6,6,
{16}2b,7,2,7,2,7,2,7,1,8,1,8,1,8,1,8,
{983}1b,,,,,,,,,,,,,,,,,,,,,,,,,,,,,,,,,,,,,,,,,
{625}2,,,,,,,,,,,,,,,,,,,,,,,,,,
{983}3,,,,,,,,,,,,,,,,,,,,,,,,,,,,,,,,,,,,,,,,,4,,,,,,,,,,,,,,,,,,,,,,,,,,,,,,,,,,,,,,,,,
{625}5,,,,,,,,,,,,,,,,,,,,,,,,,,
{983}6,,,,,,,,,,,,,,,,,,,,,,,,,,,,,,,,,,,,,,,,,7,,,,,,,,,,,,,,,,,,,,,,,,,,,,,,,,,,,,,,,,,
{625}8,,,,,,,,,,,,,,,,,,,,,,,,,,
{983}1,,,,,,,,,,,,,,,,,,,,,,,,,,,,,,,,,,,,,,,,,2,,,,,,,,,,,,,,,,,,,,,,,,,,,,,,,,,,,,,,,,,
{625}3,,,,,,,,,,,,,,,,,,,,,,,,,,
{983}4,,,,,,,,,,,,,,,,,,,,,,,,,,,,,,,,,,,,,,,,,8b,,,,,,,,,,,,,,,,,,,,,,,,,,,,,,,,,,,,,,,,,
{625}7,,,,,,,,,,,,,,,,,,,,,,,,,,
{983}6,,,,,,,,,,,,,,,,,,,,,,,,,,,,,,,,,,,,,,,,,5,,,,,,,,,,,,,,,,,,,,,,,,,,,,,,,,,,,,,,,,,
{625}4,,,,,,,,,,,,,,,,,,,,,,,,,,
{983}3,,,,,,,,,,,,,,,,,,,,,,,,,,,,,,,,,,,,,,,,,2,,,,,,,,,,,,,,,,,,,,,,,,,,,,,,,,,,,,,,,,,
{625}1,,,,,,,,,,,,,,,,,,,,,,,,,,
{983}8,,,,,,,,,,,,,,,,,,,,,,,,,,,,,,,,,,,,,,,,,7,,,,,,,,,,,,,,,,,,,,,,,,,,,,,,,,,,,,,,,,,
{625}6,,,,,,,,,,,,,,,,,,,,,,,,,,
{983}5,,,,,,,,,,,,,,,,,,,,,,,,,,,,,,,,,,,,,,,,,
{12}1b,
{995}2,,,,,,,,,,,,,,,,,,,,,,,,,,,,,,,,,,,,,,,,,,,,,,,,,,,,,,,,,,,,,,,,,,,,,,,,,,,,,,,,,,,
{12}3,8,
{995}7,,,,,,,,,,,,,,,,,,,,,,,,,,,,,,,,,,,,,,,,,,,,,,,,,,,,,,,,,,,,,,,,,,,,,,,,,,,,,,,,,,,
{12}6,1,
{995}2,,,,,,,,,,,,,,,,,,,,,,,,,,,,,,,,,,,,,,,,,,,,,,,,,,,,,,,,,,,,,,,,,,,,,,,,,,,,,,,,,,,
{12}3,8,,8,
{12}4,
{995}3,,,,,,,,,,,,,,,,,,,,,,,,,,,,,,,,,,,,,,,,,,,,,,,,,,,,,,,,,,,,,,,,,,,,,,,,,,,,,,,,,,,
{12}2,5,
{995}6,,,,,,,,,,,,,,,,,,,,,,,,,,,,,,,,,,,,,,,,,,,,,,,,,,,,,,,,,,,,,,,,,,,,,,,,,,,,,,,,,,,
{12}7,4,
{995}3,,,,,,,,,,,,,,,,,,,,,,,,,,,,,,,,,,,,,,,,,,,,,,,,,,,,,,,,,,,,,,,,,,,,,,,,,,,,,,,,,,,
{12}2,1/8,,,
{12}8,
{995}7,,,,,,,,,,,,,,,,,,,,,,,,,,,,,,,,,,,,,,,,,,,,,,,,,,,,,,,,,,,,,,,,,,,,,,,,,,,,,,,,,,,
{12}6,1,
{995}2,,,,,,,,,,,,,,,,,,,,,,,,,,,,,,,,,,,,,,,,,,,,,,,,,,,,,,,,,,,,,,,,,,,,,,,,,,,,,,,,,,,
{12}3,8,
{995}7,,,,,,,,,,,,,,,,,,,,,,,,,,,,,,,,,,,,,,,,,,,,,,,,,,,,,,,,,,,,,,,,,,,,,,,,,,,,,,,,,,,
{12}6,1,,1,
{12}5,
{995}6,,,,,,,,,,,,,,,,,,,,,,,,,,,,,,,,,,,,,,,,,,,,,,,,,,,,,,,,,,,,,,,,,,,,,,,,,,,,,,,,,,,
{12}7,4,
{995}3,,,,,,,,,,,,,,,,,,,,,,,,,,,,,,,,,,,,,,,,,,,,,,,,,,,,,,,,,,,,,,,,,,,,,,,,,,,,,,,,,,,
{12}2,5,
{995}6,,,,,,,,,,,,,,,,,,,,,,,,,,,,,,,,,,,,,,,,,,,,,,,,,,,,,,,,,,,,,,,,,,,,,,,,,,,,,,,,,,,
{12}7,1/8,,,
{12}2,
{995}3,,,,,,,,,,,,,,,,,,,,,,,,,,,,,,,,,,,,,,,,,,,,,,,,,,,,,,,,,,,,,,,,,,,,,,,,,,,,,,,,,,,
{12}4,7,
{995}6,,,,,,,,,,,,,,,,,,,,,,,,,,,,,,,,,,,,,,,,,,,,,,,,,,,,,,,,,,,,,,,,,,,,,,,,,,,,,,,,,,,
{12}5,2,
{995}3,,,,,,,,,,,,,,,,,,,,,,,,,,,,,,,,,,,,,,,,,,,,,,,,,,,,,,,,,,,,,,,,,,,,,,,,,,,,,,,,,,,
{12}4,8,,8,
{12}2,
{995}3,,,,,,,,,,,,,,,,,,,,,,,,,,,,,,,,,,,,,,,,,,,,,,,,,,,,,,,,,,,,,,,,,,,,,,,,,,,,,,,,,,,
{12}4,7,
{995}6,,,,,,,,,,,,,,,,,,,,,,,,,,,,,,,,,,,,,,,,,,,,,,,,,,,,,,,,,,,,,,,,,,,,,,,,,,,,,,,,,,,
{12}5,1,
{995}1,,,,,,,,,,,,,,,,,,,,,,,,,,,,,,,,,,,,,,,,,,,,,,,,,,,,,,,,,,,,,,,,,,,,,,,,,,,,,,,,,,,
{12}1,8,,,
{12}7,
{995}6,,,,,,,,,,,,,,,,,,,,,,,,,,,,,,,,,,,,,,,,,,,,,,,,,,,,,,,,,,,,,,,,,,,,,,,,,,,,,,,,,,,
{12}5,1,,1,8,
{995}8,,,,,,,,,,,,,,,,,,,,,,,,,,,,,,,,,,,,,,,,,,,,,,,,,,,,,,,,,,,,,,,,,,,,,,,,,,,,,,,,,,,
{12}8,1,,,
{12}3b/7b,
{995}6,,,,,,,,,,,,,,,,,,,,,,,,,,,,,,,,,,,,,,,,,,,,,,,,,,,,,,,,,,,,,,,,,,,,,,,,,,,,,,,,,,,
{12}5,4b/8b,
{995}3,,,,,,,,,,,,,,,,,,,,,,,,,,,,,,,,,,,,,,,,,,,,,,,,,,,,,,,,,,,,,,,,,,,,,,,,,,,,,,,,,,,
{12}2,1b/5b,
{995}8,,,,,,,,,,,,,,,,,,,,,,,,,,,,,,,,,,,,,,,,,,,,,,,,,,,,,,,,,,,,,,,,,,,,,,,,,,,,,,,,,,,
{12}7,2b/6b,,,
{12}8b-4[8:1],,,1/8,,,1b-5[8:1],,,1/8,,7,
{4}7b-3[8:1],7/8,1b-5[8:1],1/8,
{12}7b-3[8:1],,,7/8,,,2b-6[8:1],,,1/2,,8,
{4}8b-4[8:1],1/8,2b-6[8:1],1/2,
{4}1b^4[8:1]*^6[8:1],1b,1bw5[8:1],1b,
{4}8b^3[8:1]*^5[8:1],8b,8bw4[8:1],8b,
{16}6b,7,8,1,2,3,4,5,6,7,8,1,2,3,4,5,
{983}1b,,,,,,,,,,,,,,,,,,,,,,,,,,,,,,,,,,,,,,,,,
{625}8,,,,,,,,,,,,,,,,,,,,,,,,,,
{983}7,,,,,,,,,,,,,,,,,,,,,,,,,,,,,,,,,,,,,,,,,6,,,,,,,,,,,,,,,,,,,,,,,,,,,,,,,,,,,,,,,,,
{625}5,,,,,,,,,,,,,,,,,,,,,,,,,,
{983}4,,,,,,,,,,,,,,,,,,,,,,,,,,,,,,,,,,,,,,,,,3,,,,,,,,,,,,,,,,,,,,,,,,,,,,,,,,,,,,,,,,,
{625}2,,,,,,,,,,,,,,,,,,,,,,,,,,
{983}1,,,,,,,,,,,,,,,,,,,,,,,,,,,,,,,,,,,,,,,,,8,,,,,,,,,,,,,,,,,,,,,,,,,,,,,,,,,,,,,,,,,
{625}7,,,,,,,,,,,,,,,,,,,,,,,,,,
{983}6,,,,,,,,,,,,,,,,,,,,,,,,,,,,,,,,,,,,,,,,,5,,,,,,,,,,,,,,,,,,,,,,,,,,,,,,,,,,,,,,,,,
{625}4,,,,,,,,,,,,,,,,,,,,,,,,,,
{983}3,,,,,,,,,,,,,,,,,,,,,,,,,,,,,,,,,,,,,,,,,2,,,,,,,,,,,,,,,,,,,,,,,,,,,,,,,,,,,,,,,,,
{625}1,,,,,,,,,,,,,,,,,,,,,,,,,,
{983}8,,,,,,,,,,,,,,,,,,,,,,,,,,,,,,,,,,,,,,,,,7,,,,,,,,,,,,,,,,,,,,,,,,,,,,,,,,,,,,,,,,,
{625}6,,,,,,,,,,,,,,,,,,,,,,,,,,
{983}5,,,,,,,,,,,,,,,,,,,,,,,,,,,,,,,,,,,,,,,,,4,,,,,,,,,,,,,,,,,,,,,,,,,,,,,,,,,,,,,,,,,
{625}3,,,,,,,,,,,,,,,,,,,,,,,,,,
{983}2,,,,,,,,,,,,,,,,,,,,,,,,,,,,,,,,,,,,,,,,,
{2}1b,6,
{2}4,6,
{2}8,3,
{2}5,3,
{16}5,,4,,5,,6,,3,,,7,,,4,,
{16}4,,5,,4,,3,,6,,,2,,,5,,
{8}5,4,5,6,3,4,5,6,
{16}4,,,2,,,5,,5,,,7,,,4,,
{2}4,2/7,
{8}1b/8b,,,,8,8,7,6,
{8}4b/5b,,,,,4,4,3,
{4}2,7,3,6,
{8}4/5,,,,,5,5,6,
{4}7,3,5w1[8:1],5b,
{8}7^5[8:1],7,1-5[8:1],1,8-4[8:1],8,2^4[8:1],2,
{16}5,,,6,,,2/7,,2v3[8:1]/7v6[8:1],,,,,,,,
{16}4,3,2,1,5,6,7,8,3,2,1,8,6,7,8,1,
{16}3,,3,,5-2[8:1],,5,,5-8[8:1],,,5,,,1b,,
{16}2,7,2,7,2,7,2,7,1,8,1,8,1,8,1,8,
{16}1,2,3,4,7,6,5,4,2,3,4,5,8,7,6,5,
{16}2,7,2,7,3,6,3,6,2,7,2,7,1,8,1,8,
{16}1,2,8,7,2,3,7,6,2,3,7,6,3,4,6,5,
{16}4,6,4,6,3,5,3,5,2,6,2,6,3,7,3,7,
{16}2,6,2,6,1,5,1,5,2,6,2,6,3,7,3,7,
{16}4,8,4,8,3,7,3,7,4,6,4,6,3,7,3,7,
{983}2b,,,,,,,,,,,,,,,,,,,,,,,,,,,,,,,,,,,,,,,,,
{625}1,,,,,,,,,,,,,,,,,,,,,,,,,,
{983}8,,,,,,,,,,,,,,,,,,,,,,,,,,,,,,,,,,,,,,,,,7,,,,,,,,,,,,,,,,,,,,,,,,,,,,,,,,,,,,,,,,,
{625}6,,,,,,,,,,,,,,,,,,,,,,,,,,
{983}5,,,,,,,,,,,,,,,,,,,,,,,,,,,,,,,,,,,,,,,,,4,,,,,,,,,,,,,,,,,,,,,,,,,,,,,,,,,,,,,,,,,
{625}3,,,,,,,,,,,,,,,,,,,,,,,,,,
{983}2,,,,,,,,,,,,,,,,,,,,,,,,,,,,,,,,,,,,,,,,,1,,,,,,,,,,,,,,,,,,,,,,,,,,,,,,,,,,,,,,,,,
{625}8,,,,,,,,,,,,,,,,,,,,,,,,,,
{983}7,,,,,,,,,,,,,,,,,,,,,,,,,,,,,,,,,,,,,,,,,6,,,,,,,,,,,,,,,,,,,,,,,,,,,,,,,,,,,,,,,,,
{625}5,,,,,,,,,,,,,,,,,,,,,,,,,,
{983}4,,,,,,,,,,,,,,,,,,,,,,,,,,,,,,,,,,,,,,,,,3,,,,,,,,,,,,,,,,,,,,,,,,,,,,,,,,,,,,,,,,,
{625}2,,,,,,,,,,,,,,,,,,,,,,,,,,
{983}1,,,,,,,,,,,,,,,,,,,,,,,,,,,,,,,,,,,,,,,,,8,,,,,,,,,,,,,,,,,,,,,,,,,,,,,,,,,,,,,,,,,
{625}7,,,,,,,,,,,,,,,,,,,,,,,,,,
{983}6,,,,,,,,,,,,,,,,,,,,,,,,,,,,,,,,,,,,,,,,,5,,,,,,,,,,,,,,,,,,,,,,,,,,,,,,,,,,,,,,,,,
{625}4,,,,,,,,,,,,,,,,,,,,,,,,,,
{983}3,,,,,,,,,,,,,,,,,,,,,,,,,,,,,,,,,,,,,,,,,
{983}7b,,,,,,,,,,,,,,,,,,,,,,,,,,,,,,,,,,,,,,,,,
{625}8,,,,,,,,,,,,,,,,,,,,,,,,,,
{983}1,,,,,,,,,,,,,,,,,,,,,,,,,,,,,,,,,,,,,,,,,2,,,,,,,,,,,,,,,,,,,,,,,,,,,,,,,,,,,,,,,,,
{625}3,,,,,,,,,,,,,,,,,,,,,,,,,,
{983}4,,,,,,,,,,,,,,,,,,,,,,,,,,,,,,,,,,,,,,,,,5,,,,,,,,,,,,,,,,,,,,,,,,,,,,,,,,,,,,,,,,,
{625}6,,,,,,,,,,,,,,,,,,,,,,,,,,
{983}7,,,,,,,,,,,,,,,,,,,,,,,,,,,,,,,,,,,,,,,,,8,,,,,,,,,,,,,,,,,,,,,,,,,,,,,,,,,,,,,,,,,
{625}1,,,,,,,,,,,,,,,,,,,,,,,,,,
{983}2,,,,,,,,,,,,,,,,,,,,,,,,,,,,,,,,,,,,,,,,,3,,,,,,,,,,,,,,,,,,,,,,,,,,,,,,,,,,,,,,,,,
{625}4,,,,,,,,,,,,,,,,,,,,,,,,,,
{983}5,,,,,,,,,,,,,,,,,,,,,,,,,,,,,,,,,,,,,,,,,6,,,,,,,,,,,,,,,,,,,,,,,,,,,,,,,,,,,,,,,,,
{625}7,,,,,,,,,,,,,,,,,,,,,,,,,,
{983}8,,,,,,,,,,,,,,,,,,,,,,,,,,,,,,,,,,,,,,,,,1,,,,,,,,,,,,,,,,,,,,,,,,,,,,,,,,,,,,,,,,,
{625}2,,,,,,,,,,,,,,,,,,,,,,,,,,
{983}3,,,,,,,,,,,,,,,,,,,,,,,,,,,,,,,,,,,,,,,,,4,,,,,,,,,,,,,,,,,,,,,,,,,,,,,,,,,,,,,,,,,
{625}5,,,,,,,,,,,,,,,,,,,,,,,,,,
{983}6,,,,,,,,,,,,,,,,,,,,,,,,,,,,,,,,,,,,,,,,,
{983}3b,,,,,,,,,,,,,,,,,,,,,,,,,,,,,,,,,,,,,,,,,
{625}2,,,,,,,,,,,,,,,,,,,,,,,,,,
{983}1,,,,,,,,,,,,,,,,,,,,,,,,,,,,,,,,,,,,,,,,,8,,,,,,,,,,,,,,,,,,,,,,,,,,,,,,,,,,,,,,,,,
{625}7,,,,,,,,,,,,,,,,,,,,,,,,,,
{983}6,,,,,,,,,,,,,,,,,,,,,,,,,,,,,,,,,,,,,,,,,5,,,,,,,,,,,,,,,,,,,,,,,,,,,,,,,,,,,,,,,,,
{625}4,,,,,,,,,,,,,,,,,,,,,,,,,,
{983}3,,,,,,,,,,,,,,,,,,,,,,,,,,,,,,,,,,,,,,,,,2,,,,,,,,,,,,,,,,,,,,,,,,,,,,,,,,,,,,,,,,,
{625}1,,,,,,,,,,,,,,,,,,,,,,,,,,
{983}8,,,,,,,,,,,,,,,,,,,,,,,,,,,,,,,,,,,,,,,,,7,,,,,,,,,,,,,,,,,,,,,,,,,,,,,,,,,,,,,,,,,
{625}6,,,,,,,,,,,,,,,,,,,,,,,,,,
{983}5,,,,,,,,,,,,,,,,,,,,,,,,,,,,,,,,,,,,,,,,,4,,,,,,,,,,,,,,,,,,,,,,,,,,,,,,,,,,,,,,,,,
{625}3,,,,,,,,,,,,,,,,,,,,,,,,,,
{983}2,,,,,,,,,,,,,,,,,,,,,,,,,,,,,,,,,,,,,,,,,1,,,,,,,,,,,,,,,,,,,,,,,,,,,,,,,,,,,,,,,,,
{625}8,,,,,,,,,,,,,,,,,,,,,,,,,,
{983}7,,,,,,,,,,,,,,,,,,,,,,,,,,,,,,,,,,,,,,,,,6,,,,,,,,,,,,,,,,,,,,,,,,,,,,,,,,,,,,,,,,,
{625}5,,,,,,,,,,,,,,,,,,,,,,,,,,
{983}4,,,,,,,,,,,,,,,,,,,,,,,,,,,,,,,,,,,,,,,,,
{641}8b,,,,,,,,,,,,,,,,,,,,
{639}1,,,,,,,,,,,,,,,,,,,,2,,,,,,,,,,,,,,,,,,,,
{641}3,,,,,,,,,,,,,,,,,,,,4,,,,,,,,,,,,,,,,,,,,
{639}5,,,,,,,,,,,,,,,,,,,,6,,,,,,,,,,,,,,,,,,,,
{641}7,,,,,,,,,,,,,,,,,,,,8,,,,,,,,,,,,,,,,,,,,
{639}1,,,,,,,,,,,,,,,,,,,,2,,,,,,,,,,,,,,,,,,,,
{641}3,,,,,,,,,,,,,,,,,,,,4,,,,,,,,,,,,,,,,,,,,
{639}5,,,,,,,,,,,,,,,,,,,,6,,,,,,,,,,,,,,,,,,,,
{641}7,,,,,,,,,,,,,,,,,,,,8,,,,,,,,,,,,,,,,,,,,
{639}1,,,,,,,,,,,,,,,,,,,,2,,,,,,,,,,,,,,,,,,,,
{641}3,,,,,,,,,,,,,,,,,,,,4,,,,,,,,,,,,,,,,,,,,
{639}5,,,,,,,,,,,,,,,,,,,,6,,,,,,,,,,,,,,,,,,,,
{641}7,,,,,,,,,,,,,,,,,,,,8,,,,,,,,,,,,,,,,,,,,
{639}1,,,,,,,,,,,,,,,,,,,,2,,,,,,,,,,,,,,,,,,,,
{641}3,,,,,,,,,,,,,,,,,,,,4,,,,,,,,,,,,,,,,,,,,
{639}5,,,,,,,,,,,,,,,,,,,,6,,,,,,,,,,,,,,,,,,,,
{641}7,,,,,,,,,,,,,,,,,,,,
{1}4h[4:7]/8h[4:15],,
{1}1h[4:7],,
{1}2b/7b,
E
