&title=Falling Roses
&artist=シンガンクリムゾンズ「SHOW BY ROCK!!」
&wholebpm=200.0
&lv_1=3
&lv_2=5
&lv_3=7+
&lv_4=9
&lv_5=12
&des_4=はっぴー
&des_5=Jack
&inote_1=
(200.0){1},,,
{4},1,,,
{4},1,,,
{4},2,,,
{4},2,,,
{4},3,,,
{4},3,,,
{4},4,,,
{4},4,,,
{4},5,,,
{4},5,,,
{4},6,,,
{4},6,,,
{4},7,,,
{4},7,,,
{4},8,,,
{4},8b,,,
{4},7h[1:1],,,{1},
{4},6h[1:1],,,{1},
{4},5h[1:1],,,{1},
{4},4/5,,,
{4},4/5,,,
{4},4,,,
{4},4,,,
{4},3,,,
{4},3,,,
{4},2,,,
{4},2,,,
{4},1,,,
{4},1b,,,
{4},8h[1:1],,,{1},
{4},1h[1:1],,,{1},
{4},8-5[1:1],,,{1},
{1}4-1[1:1],,
{4},8,,8,
{4},8,,,
{4},7,,7,
{4},7,,,
{4},6,,6,
{4},6,,,
{4},5,,5,
{4},5,,,
{4},4,,4,
{4},4,,,
{4},3,,3,
{4},3,,,
{4},2,,2,
{4},2,,,
{4},1,,1,
{4},1,,,
{4},2,,2,
{4},2,,,
{4},3,,3,
{4},3,,,
{4},4,,4,
{4},4,,,
{4},5,,5,
{4},5,,,
{4},6,,6,
{4},6,,,
{4},7,,7,
{4},7,,,
{4},8,,8,
{4},8,,8-4[1:1],{1},,
E
&inote_2=
(200.0){1},,,
{1}1,
{1}2,
{1}3,
{1}4/5,
{1}5,
{1}6,
{1}7,
{1}1/8,
{1}7/8,
{1}6,
{1}5,
{1}4,
{1}3/4,
{1}2,
{1}1,
{1}8b,
{2}1/8,1,
{4}1,1,1,,
{2}8,8,
{4}8,8,8,,
{2}7,7,
{4}7,7,7,,
{4}1/8,1/8,
{2}1b/8b,{1},
{2}2,2,
{4}3,3,3,,
{2}4,4,
{4}5,5,5,,
{2}6,6,
{4}7,7,7,,
{2}8,8,
{4}1,1,1,,
{1}2-6[4:3],,
{1}7-3[4:3],,
{2}2,2,
{2}1,1,
{1}1h[4:3]/8h[4:3],
{4},,1,1,
{4}1,,2,2,
{4}2,,8,8,
{4}8,,7,7,
{2}7,1/8,
{4}7,7,7,,
{4}6,6,6,,
{1}5h[1:1],
{4},,4,4,
{4}4,,3,3,
{4}3,,5,5,
{4}5,,6,6,
{2}6,4/5,
{4}4,4,4,,
{4}3,3,3,,
{4}2,2,2,,
{2}1/8,1/8,
{1}1-4[4:3]/8-5[4:3],,,,
{2}5,5,
{2}4,4,
{2}3,3,
{2}2,2,
{4}1,1,1,,
{4}8,8,8,,
{4}7,7,7,,
{4}6,6,6,,
{1}4-1[4:3]/5-8[4:3],,
{4}2h[4:15]/7h[4:15],,,{1},,,,
E
&inote_3=
(200.0){1},,,
{4}3,3,4,4,
{4}5,5,5/6,,
{4}6,6,5,5,
{4}4,4,3/4,,
{4}3,3,4,5,
{4}6,6,5/7,,
{4}6,6,5,4,
{4}3,3,2/4,,
{4}7,7,6,5,
{4}4,3,2/5,,
{4}2,2,3,4,
{4}5,6,4/7,,
{4}6,7,8,1,
{4}2,3,4/5,4/5,
{4}6,7,1/8,2/7,
{4}3,2,1/8,2/7,
{4}6h[4:7],5,,4,
{4},3,,3h[1:2],
{4},4,,5,
{4},6,,6h[1:2],
{4},5,,4,
{4},3,,4h[2:1],
{4},5,
{2}3b/6b,{1},
{4}2,3,4,5/6,
{4}7,6,4/5,,
{4}7,6,5,3/4,
{4}2,3,4/5,,
{4}2,3,4,2/5,
{4}6,5,4/7,,
{4}3,2,1,1/8,
{8}8,,7,,6h[8:3],,,7^2[2:1],{1},
{4}3,3/4,6,5/6,
{4}3,2/4,6,5/7,
{4}1/8,,4,5,
{2}2h[2:1],1h[2:1],
{4}8h[2:1],,7,1/2,
{8}8,8,,1,1,,2/7,2b/7b,
{8},,,,3/4,3-1[4:1]/4-8[4:1],,,
{8},,,,5/6,5-1[4:1]/6-8[4:1],,,
{8},,,,1/8,1/8,,2h[8:3],
{8},,1,,3/8,3/8,,7h[8:3],
{8},,8,,1/6,1/6,,,
{4}3,3/4,6,5/6,
{4}3,2/4,6,5/7,
{8}4,,5,,3/6,,1/8,1b/8b,
{8},,,,3/4,3-8[4:1]/4-7[4:1],,,
{8},,,,5/6,5-2[4:1]/6-1[4:1],,,
{8},,,,1/8,1/8,,2h[8:3],
{8},,1,,3/8,3/8,,7h[8:3],
{8},,8,,1/6,1/6,,,
{4}2,3,4,5/6,
{4}7,6,5,3/4,
{4}1/8,2/7,3/6,4/5,
{8}2b/7b,,,,4h[8:3],,,5h[8:3],
{4},4,5,6,
{4}7,6,5,3/4,
{4}2,3,4,5,
{8}6,,7,,8,8^3[8:3],,,
{8},,,,1,1^6[8:3],,,
{8},,,,8,8-4[8:3],,,
{8},,,,4/5,4-1[8:3]/5-8[8:3],,,
{2},1b/8b,
{4}3/4,5,3/4,2,
{4}5/6,4,5/6,7,
{4}4/5,2,4/5,7,
{4}3/6,2/7,1b/8b,,
{4}1/2,3/8,4/7,5/6,
{4}7/8,1/6,2/5,3/4,
{1}5<4[4:15],,,,,
E
&inote_4=
(200.0){1},
{8},,,,,,,4/5,
{8},,,,,,,7h[4:1]/8h[4:1],
{4},1/6,3,2/4,
{8}7,,6/8,,2,,1/2,1h[4:1]/2h[4:1],
{8},,3/8,,7,,3/4,4/3-8[8:1],
{8},,7,7-4[8:1],,,,1h[4:1]/2h[4:1],
{4},3/8,6,5/7,
{8}2,,1/3,,7,,7/8,7h[4:1]/8h[4:1],
{8},,1/6,,2,,4/5,4/5,
{8},1/8,1^4[8:1]/8^5[8:1],,,,,1h[4:1]/2h[4:1],
{4},3/8,6,5/7,
{8}2,,1/3,,7,,7/8,7h[4:1]/8h[4:1],
{8},,1/6,,2,,5/6,5/6-1[8:1],
{8},,2,2-5[8:1],,,,7h[4:1]/8h[4:1],
{4},1/6,3,2/4,
{8}7,,6/8,,2,,1/2,1h[4:1]/2h[4:1],
{8},,3/8,,7,,3/6,3/6,
{8},2/7,2/7,,4/5,4/5,3/6,3/6h[8:15],
{4},4,,5,
{8},,4,,,,3,3h[8:15],
{4},5,,4,
{8},,5,,,,6,6h[8:15],
{4},4,,5,
{8},,4,,,,3,3,
{8},,2/7,,3/6,,4/5,4h[8:5]/5h[8:5],
{8},,,,,,,7h[8:3],
{8},,8,,1/5,1/5,,2h[8:3],
{8},,1,,4/8,4/8,,6h[8:3],
{8},,5,,4/8,4/8,,3h[8:3],
{8},,4,,1/5,1/5,,7h[8:3],
{8},,8,,1/5,1/5,,2h[8:3],
{8},,1,,4/8,4/8,,6h[8:3],
{8},,5h[4:1],,4h[4:1],,3,3h[8:3],
{8},,4h[4:1],,5,,,2-5[8:3]/7-4[8:3],
{4},,,6,
{4}5/7,3,2/4,7,
{4}6/8,2,1/3-7[8:3],,
{8},,,,6,5,4,3-6[8:1],
{2},7-4[8:1],
{4}2-5[8:1],,1/8,2/7,
{8}5/6,4/7,,3/4,2/5,,4/5,4b-1[8:1]/5b-8[8:1],
{8},,,,1/2,1/2,,5-2[8:1]/6-1[8:1],
{8},,,,7/8,7/8,,3-8[8:1]/4-7[8:1],
{8},,,,5/6,5/6,,3/8,
{8},,4/5,,3/4,3/4,,1/6,
{8},,4/5,,1,1,8,2-5[8:1],
{8},,,7-4[8:1],,,,2-6[8:1],
{8},,,7-3[8:1],,,,1>8[2:1],
{8},,,,,,,2b/7b,
{8},,4/5,,7/8,7/8,,3-8[8:1]/4-7[8:1],
{8},,,,1/2,1/2,,5-2[8:1]/6-1[8:1],
{8},,,,8h[8:3],,,7h[8:3],
{8},,6h[4:1],,5,5,,2h[8:3],
{4},3h[4:1],4-1[4:1]*-7[4:1],,
{4},5/6,3/4,5/7,
{4}2/4,6/8,1/3,1/7,
{8}2/8,,1/8,,2/7,2/7,2/7,2-5[4:1]/7-4[4:1],
{8},,,,,,,7h[4:1],
{8},8,1/6,,3,3,4,2h[4:1],
{8},1,3/8,,6,6,5,7h[4:1],
{8},8,1/6,,3,3,4,2h[4:1],
{8},1,3/8,,4/5,4/5,,3h[4:1],
{8},4,2/5,,7,7,8,6h[4:1],
{8},5,4/7,,2,2,1,3h[4:1],
{8},4,2/5,,7,7,8,6h[4:1],
{8},5,4/7,,4/5,4/5,,5h[8:3],
{4},6h[4:1],7h[4:1],8,
{4}4h[4:1],3h[4:1],2h[4:1],1,
{4}5h[4:1],6h[4:1],7h[4:1],8h[4:1],
{4}1h[4:1],2,3/8,,
{2}1-6[8:1]/2-5[8:1],7-4[8:1]/8-3[8:1],
{8}1^4[8:1]/8^5[8:1],,,,2/7,,1/8,8h[8:31]/1>7[8:19],,,,,,,{1},,,,
E
&inote_5=
(200.0){1},
{8},,,,,,,4b/5b,
{8},,,,,,,2h[4:1],
{8},1,2,3,4,5,6,7-4[8:1],
{8},8-3[8:1],,1-6[8:1],,2-5[8:1],,7h[4:1],
{8},8,7,6,5,4,3,2^7[8:1],
{8},5,4,7^2[8:1],,4,5,7h[4:1],
{8},8,7,6,5,4,3,2-5[8:1],
{8},1-6[8:1],,8-3[8:1],,7-4[8:1],,2h[4:1],
{8},1,2,3,8,7,6,4^2[8:1],
{16},,5,6,7,,8-4[8:1],,8,,1-5[8:1],,1,,6h[4:1],,
{8},5,6,7,8,1,2,3^8[8:1],
{8},4-7[8:1],,5-2[8:1],,6^1[8:1],,2h[4:1],
{8},1,2,3,4,5,6,7^2[8:1],
{8},4,5,2^7[8:1],,5,4,2h[4:1],
{8},4,5,7,3,1,8,6^1[8:1],
{16},,3^8[8:1],,,,5^7[8:1],,,,4,3,2,,1h[4:1],,
{8},6,5/7,3,2/4,5,4,8h[4:1],
{8},1,2/7,3/6,4/5,4/5,4/5,6b/3b>6[8:11],
{4},5,,3,
{8},,1,,,,7,6<3[8:11],
{4},4,,6,
{8},,8,,,,2,3>6[8:11],
{4},5,,3,
{8},,1,,,,7,6h[8:3],
{8},,5,4/5,4,3/4,3,2b/7b,
{8},,,,,,,3h[4:1],
{8},4,2,8,5,6,1,6h[4:1],
{8},5,7,1,4,3,8,2h[4:1],
{8},4,3,8,5,6,1,7h[4:1],
{8},5,6,1,8,2/7,,2h[4:1],
{8},1,2,3/8,7,8,1/6,7h[4:1],
{8},8,7,1/6,2,1,3/8,2h[4:1],
{8},5,4/5,3,3/4,6,5/6,7h[4:1],
{8},4,4/5,3,2,1>8[8:5],8,7b,
{8},,,,,,2,1/3,
{8},7,6/8,,4/5,,3,2/4,
{8},6,5/7,,1/8,6/3>6[8:3],,3h[8:3],
{8},,,,1/8,2/7,3/6,4bqq3[16:3]/5bpp6[16:3],
{2},3bw7[8:1],
{2}6bw2[8:1],4bw8[8:1],
{8}2b/6,2b/6,,3/7b,3/7b,,1b/5,1b/5,
{16},,4,7,3,6,2,5,1,,1w5[8:1],,,,1b,,
{8},3/7,3/7,,8,8w4[8:1],,8b,
{8},2/6,2/6,,4/5,4V61[4:1]/5V38[4:1],,4b/5b,
{8},,2q5[2:1],,7,7-4[8:1],,7b,
{8},,2/7,,7/8,1/6,2/5,3/4-8[8:1],
{8},2,,6/5-1[8:1],,7,,2/3-8[8:1],
{8},1,,7/6-1[8:1],,8,,2h[4:1],
{8},6,5/7,3,2/4,1,8,2b/7b,
{8},4/5,4/5,,8,8w4[8:1],,8b,
{8},2/6,2/6,,1,1w5[8:1],,1b,
{8},3/7,3/7,,5/6,5qq4[4:1]/6pp7[4:1],,5/6,
{8},,1/2,,3/4,3qq2[4:1]/4pp5[4:1],,3/4,
{16},,,,7/8,,,,2/3,,,6/7,,,1b/8b,,
{8},,1/8,2,1/8,7,1/8,3/6,
{8},,4/5,3,4/5,6,4/5,2/7,
{16},,1/5,,2/6,,3/7,,4,8,3,7,2,6,1,5,
{8}8b,,,,2b/7b,,,1b,
{8},3,4,2/5,6,5,4/7,8,
{16},,4,5,1,2,3,4,8,7,6,5,4,,2/7,,
{8},6,5,4/7,3,4,2/5,1,
{16},,5,4,6,3,7,2,8,,3pp1[8:3],,4,,5,,
{8},8,8,,1,6qq8[8:3],5,4,
{8},1,1,,2/7,6/3p6[8:1],4/5,,
{8},7,7/8,2,1/2,8,1/8,2/7,
{16},,4,5,3,6,2,7,1,,2/7,,3/6,,4/5,,
{12}3,
{995}4,,,,,,,,,,,,,,,,,,,,,,,,,,,,,,,,,,,,,,,,,,,,,,,,,,,,,,,,,,,,,,,,,,,,,,,,,,,,,,,,,,,
{12}3,6,
{995}5,,,,,,,,,,,,,,,,,,,,,,,,,,,,,,,,,,,,,,,,,,,,,,,,,,,,,,,,,,,,,,,,,,,,,,,,,,,,,,,,,,,
{12}6,2,
{995}4,,,,,,,,,,,,,,,,,,,,,,,,,,,,,,,,,,,,,,,,,,,,,,,,,,,,,,,,,,,,,,,,,,,,,,,,,,,,,,,,,,,
{12}3,7,
{995}5,,,,,,,,,,,,,,,,,,,,,,,,,,,,,,,,,,,,,,,,,,,,,,,,,,,,,,,,,,,,,,,,,,,,,,,,,,,,,,,,,,,
{12}6,
{12}2,
{995}4,,,,,,,,,,,,,,,,,,,,,,,,,,,,,,,,,,,,,,,,,,,,,,,,,,,,,,,,,,,,,,,,,,,,,,,,,,,,,,,,,,,
{12}2,7,
{995}5,,,,,,,,,,,,,,,,,,,,,,,,,,,,,,,,,,,,,,,,,,,,,,,,,,,,,,,,,,,,,,,,,,,,,,,,,,,,,,,,,,,
{12}7,2,
{995}1,,,,,,,,,,,,,,,,,,,,,,,,,,,,,,,,,,,,,,,,,,,,,,,,,,,,,,,,,,,,,,,,,,,,,,,,,,,,,,,,,,,
{12}2,7,
{995}8,,,,,,,,,,,,,,,,,,,,,,,,,,,,,,,,,,,,,,,,,,,,,,,,,,,,,,,,,,,,,,,,,,,,,,,,,,,,,,,,,,,
{12}7,
{12}3,
{995}3,,,,,,,,,,,,,,,,,,,,,,,,,,,,,,,,,,,,,,,,,,,,,,,,,,,,,,,,,,,,,,,,,,,,,,,,,,,,,,,,,,,
{12}4,3,
{995}3,,,,,,,,,,,,,,,,,,,,,,,,,,,,,,,,,,,,,,,,,,,,,,,,,,,,,,,,,,,,,,,,,,,,,,,,,,,,,,,,,,,
{12}5,3,
{995}3,,,,,,,,,,,,,,,,,,,,,,,,,,,,,,,,,,,,,,,,,,,,,,,,,,,,,,,,,,,,,,,,,,,,,,,,,,,,,,,,,,,
{12}6,3,
{995}3,,,,,,,,,,,,,,,,,,,,,,,,,,,,,,,,,,,,,,,,,,,,,,,,,,,,,,,,,,,,,,,,,,,,,,,,,,,,,,,,,,,
{12}7,
{12}3,
{995}3,,,,,,,,,,,,,,,,,,,,,,,,,,,,,,,,,,,,,,,,,,,,,,,,,,,,,,,,,,,,,,,,,,,,,,,,,,,,,,,,,,,
{12}8,3>6[4:1],
{995}3,,,,,,,,,,,,,,,,,,,,,,,,,,,,,,,,,,,,,,,,,,,,,,,,,,,,,,,,,,,,,,,,,,,,,,,,,,,,,,,,,,,
{12}1,3b,,,,,,
{16}2,3,4,7,6,5,2,3,4,7,6,5,2,3,4,8,
{16}7,6,1,2,3,8,7,6,1,2,3,8,7,6,
{8}1b>8[8:27],{1},
{8},1,,,,,,,
{8},,,4,,,,,
{4},,,2/7,
E
