&title=頓珍漢の宴
&artist=ピノキオピー
&wholebpm=145
&demo_seek=70.1
&demo_len=22.7
&lv_1=2
&lv_2=5
&lv_3=8+
&lv_4=11+
&lv_5=13+
&des_4=Jack
&des_5=はっぴー
&inote_1=(145.0){1},,,,,
{1}1,
{1}1,
{1}2,
{1}2,
{1}3,
{1}3,
{1}4,
{1}4,
{1}5,
{1}5,
{1}6,
{1}6b,,
{1}8,
{1}8,
{1}7,
{1}7,
{1}6,
{1}6,
{1}5,
{1}5,
{1}4,
{1}4,
{1}3,
{1}3,
{1}2h[1:1],,
{1}3h[1:1],,
{1}4h[1:1],,
{1}5h[1:1],,
{1}6-3[4:3],,
{1}2-7[4:3],,
{1}8b,
{2}8,8,
{1}8,
{2}7,7,
{1}7,
{2}6,6,
{1}6,
{2}5,5,
{1}5,
{2}4,4,
{1}4,
{1}3h[1:1],,
{1}2h[1:1],,
{2}1,1,
{1}1b,
{2}1,1,
{1}2,
{2}3,3,
{1}4,
{2}5,5,
{1}6,
{2}7,7,
{1}8,
{2}1,1,
{2}1/8,1/8,
{1}8h[1:1],,
{1}1h[1:1],,
{2}7,7,
{1}7,
{2}6,6,
{1}6,
{2}5,5,
{1}5,
{2}4,4,
{1}4,
{2}3,3,
E
&inote_2=(145.0){1},,,,,
{2}8,8,
{2}1,1,
{1}8h[2:1],
{1}1h[2:1],
{2}8,8,
{2}7,7,
{2}6,6,
{2}5,4/5,
{4}4,4,4,,
{4}3,3,3,,
{4}2,2,2,,
{1}1-5[4:3],,
{4}1,1,,,
{4}2,2,,,
{4}3,3,,,
{4}4,4,5,5,
{4}4,4,,,
{4}5,5,,,
{4}6,6,,,
{4}7,7,7,7,
{1}7-4[4:3],,
{1}2-5[4:3],,
{4}8,8,8,,
{4}7,7,7,,
{4}6,6,6,,
{4}5,5,4,4,
{4}5,5,5,5,
{4}4,4,4,4,
{4}3,3,3,3,
{4}2,2,2,2,
{2}1/2,1/2,
{2}3/4,3/4,
{2}5/6,5/6,
{2}7/8,7/8,
{4}1,8,1b/8b,,
{4}1,1,2,2,
{4}3,3,4,4,
{4}5,5,6,6,
{1}7h[2:1],
{4}8,8,7,7,
{4}6,6,5,5,
{4}4,4,3,3,
{4}2,2,1,1,
{4}8,1,8,1,
{4}1b/8b,,1/8,1/8,
{1}1-4[4:3]/8-5[4:3],,
{1}4-1[4:3]/5-8[4:3],,
{1}2h[1:1]/7h[1:1],,
{8}1,1,1,,2,2,2,,
{8}3,3,3,,4,4,4,,
{8}5,5,5,,6,6,6,,
{8}7,7,7,,8,8,8,,
{8}7,7,7,,6,6,6,,
{8}5,5,5,,4,4,4,,
{8}3,3,3,,2,2,2,,
{8}1,1,1,,8,8,8,,
{8}7,7,7,,6,6,6,,
{4}4/5,,,4/5,
{1}4-1[4:3]/5-8[4:3],
{4},,,1/8,
{1}1-4[4:3]/8-5[4:3],
{4},,,4b,
{4}5,5,5,,
{4}6,6,5/6,,
{4}7,7,7,,
{4}8,8,1,1,
{4}8,8,8,8,
{4}1,1,1,1/8,
{4}2,2,3,3,
{4}4,4,5,5,
{4}6,6,4h[2:1]/5h[2:1],,,
E
&inote_3=(145.0){1},,,,,
{4}4,4,4,4,
{4}5,5,5,5,
{4}4,4,5,5,
{4}4/5,3/6,2/7,1b/8b,
{4}2,3/4,2,1/8,
{4}7,5/6,7,1/8,
{4}2,3/4,2,1/8,
{4}7,5/6,7,1/8,
{4}2h[4:1],1,3h[4:1],4,
{4}6h[4:1],5,7h[4:1],8,
{4}2h[4:1],4,7h[4:1],5qq1[4:3],{1},
{16},,1/8,,,1/8,,,1/8,,,,,,,,
{4}3h[4:1],4,6h[4:1],5,
{4}2h[4:1],4,7h[4:1],5,
{4}3h[4:1],2,6h[4:1],7,
{4}2,1/3,7,6/8,
{4}2h[4:1],1,7h[4:1],8,
{4}3h[4:1],1,6h[4:1],8,
{4}2h[4:1],3,7h[4:1],6,
{4}4h[4:1],3,5h[4:1],6<3[4:3],{1},
{4}2,3,4,5/6,
{4}7,6,5,3/4,
{4}1/2,7/8,1/8,,
{4}2,3,4,5/6,
{4}7,6,5,3/4,
{4}3,4,5,7/8,
{4}6,5,4,1/2,
{4}3/4,4/5,5/6,7/8,
{4}5/6,4/5,3/4,1/2,
{4}3/4,3/4,5/6,5/6,
{4}2/4,2/4,5/7,5/7,
{4}3/4,2/5,1/6,7/8,
{4}5/6,4/7,3/8,1/2,
{4}4/5,3/6,2/7,1/8,
{4}4h[4:1],3,5h[4:1],6<3[2:1],
{4},,,1b/8b,
{8}3,3,3/4,,6,6,5/6,,
{8}2,2,1/2,,7,7,7/8,,
{8}4,4,4/5,,8,8,1-4[4:1]/8-5[4:1],,
{4},,1/2,7/8,
{8}6,6,5/7,,8,8,1/7,,
{8}3,3,2/4,,1,1,2/8,,
{8}6,6,5/6,,3,3,3/4,,
{8}7,7,7/8,,2,2,1/2,,
{8}6,6,5/7,,3,3,2/4,,
{4}1-4[4:1]/8-5[4:1],,,3/6,
{2}6h[2:1],5h[2:1],
{2}4h[2:1],3h[2:1],
{4}4,5,6,7/8,
{4}5,4,3,1/2>7[4:3],{1},
{4}1/8,2/7,3/6,4b/5b,
{8}2,2,3,3,4,4,3/5,,
{8}7,7,6,6,5,5,4/6,,
{8}3,3,2,2,1,1,2/8,,
{8}6,6,7,7,8,8,1/7,,
{8}3,4,3,4,3,,2/5,,
{8}6,5,6,5,6,,4/7,,
{8}1/8,1/8,1bpp3[4:1]/8bqq6[4:1],,,,,,
{8}4,4,3,3,2,2,1/8,,
{8}5,5,6,6,7,7,1/8,,
{4}3/4,1/8,5/6,1/8,
{2}3h[2:1],4h[2:1],
{2}5h[2:1],6h[2:1],
{4}5,4,5,4,
{8}1/8,1/8,1/8,1/8,1/8,,3/6,,
{4}2,3/4,5,6/8,
{4}7,5/6,4,1/3,
{4}2,3/4,5,7/8,
{4}7,5/6,4,1/2,
{4}3h[4:1],4,6h[4:1],5,
{4}2h[4:1],4,7h[4:1],5,
{4}2h[4:1],1,7h[4:1],8,
{4}4/5,3/6,2/7,1/8,
{4}2/7,3/6,4/5,
E
&inote_4=(145.0){1},4b/5b,,,,
{4}4,3,2,1,
{4}8,7,6,5,
{4}3/4,2/5,5/6,4/7,
{4}2-4[8:1],8-6[8:1],1-5[8:1],8b,
{16}6,,6,,5/6,,,4/5,,,3,,3/4,,,,
{16}3,,3,,3/4,,,4/5,,,6,,5/6,,,,
{16}6,,6,,5/7,,,4/5,,,3,,2/4,,,,
{16}3,,3,,2/4,,,4/5,,,6,,5/7,,,,
{8}3,4,3,6,5,6,3,4,
{8}3,6,5,6,1,8,1b,,
{8}6,5,6,3,4,3,6,5,
{4}6h[4:1],5h[4:1],4h[4:1],3,
{16},,1/2,,,7/8,,,6,,5,,4,,3,,
{16}2h[4:1],,,,1,,,3/4,,,5/6,,5/6,,,,
{16}7h[4:1],,,,8,,,5/6,,,3/4,,3/4,,,,
{16}2h[4:1],,,,1,,,3/4,,,5/6,,5/6,,,,
{8}3,4,6,5,4,5,3/6,,
{16}7h[4:1],,,,8,,,1/2,,,4/5,,4/5,,,,
{16}2h[4:1],,,,1,,,7/8,,,4/5,,4/5,,,,
{4}7h[4:1],6,2h[4:1],3,
{8}6,5,3,4,7,5,2,4,
{1}6<3[2:1],
{16}2,,2,,1/2,,,5/6,,,3/4,,2/5,,,,
{16}7,,7,,7/8,,,3/4,,,5/6,,4/7,,,,
{8}1/3,,6/8,,2/7,3/6,3/6,,
{16}4h[4:1],,,,3,,,5/6,,,2,,1/2,,,,
{16}5h[4:1],,,,6,,,3/4,,,7,,7/8,,,,
{16}4h[4:1],,,,5,,,3/6,,,2/7,,2/7,,,,
{16}1h[4:1],,,,8h[4:1],,,,1,8,1,8,,,3/4,,
{16}3/4,,2,2,,,5/6,,5/6,,7,7,,,2,,
{16}1,,7,,8,,1,,1/8,,2/7,2/7,,,5/6,,
{16}5/6,,7,7,,,3/4,,3/4,,2,2,,,7,,
{16}8,,2,,1,,8,,1/8,,2/7,2/7,,,4/5,,
{8}3,3,2,2,1,8,2/7,,
{8}6,6,7,7,8,1,2/7,,
{8}4,4,5,5,1,8,2/7,,
{8}1/2,1/2,7/8,7/8,1,8,2V41[8:3]/7V58[8:3],,
{4},,2/7,1b/8b,
{8}3/4,2,3/4,5,3/4,2,3/4,5,
{8}6,7,5/6,4,5/6,7,5/6,4,
{8}3,2,3/4,5,3/4,2,3/4,5,
{8}6-1[8:1],,2b,,3,4,5/6,,
{8}7/8,1,7/8,6,7/8,1/8,1/2,,
{8}1/8,2,1/8,7,1/8,2,3/4,,
{8}5/6,7,5/6,4,5/6,7,5/6,4,
{8}3,2,3/4,5,3/4,2,3/4,5,
{8}6,7,5/6,4,5/6,7,5/6,4,
{4}3-8[8:1],7b,6h[4:1],5h[4:1],
{4}4h[4:1],2,5h[4:1],7,
{4}3h[4:1],1,6h[4:1],8,
{4}2h[4:1],1h[4:1],8h[4:1],7,
{8}1,8,1,8,1-5[8:1],,8-4[8:1],,
{1}3>6[2:1],
{4}7h[4:1],5h[4:1],4h[4:1],2,
{8}1/2,3,1/2,8,1/2,3,1/2,8,
{8}7,6,7/8,1,7/8,6,7/8,1,
{8}2,3,1/2,8,1/2,3,1/2,8,
{8}7,6,7/8,1,7/8,6,7/8,1,
{8}2,3,1/2,8,1/2,1/8,7/8,,
{8}4/5,2,4/5,7,4/5,3/6,2/7,,
{16}1,8,1,8,1b,,,,,,4/5,,,,1/8,,
{8}2,3,1/2,8,1/2,3,1/2,8,
{8}7,6,7/8,1,7/8,6,7/8,,
{4}2-5[8:1],7-4[8:1],3-8[8:1],7b,
{16}6h[16:3],,,5h[16:3],,,4h[4:1],,,,3,,2/5,,,,
{16}3h[16:3],,,4h[16:3],,,5h[4:1],,,,6,,4/7,,,,
{4}2h[4:1],1h[4:1],8h[4:1],7h[4:1],
{16}8,,1/2,,8,8,,1pp2[16:3]/8qq7[16:3],,,,,,,,,
{16}7,,7,,7/8,,,1/6,,,2,,1/2,,,,
{16}2,,2,,1/2,,,3/8,,,7,,7/8,,,,
{16}7,,7,,6/8,,,4/5,,,2,,1/3,,,,
{16}2,,2,,1/3,,,4/5,,,7,,6/8,,,,
{8}2,1,3/8,7,8,1/6,2,1,
{8}3/8,7,8,1/6,2,1,8b,1b,
{8}7,8,1/6,2,1,3/8,7,8,
{4}7h[4:1],6h[4:1],5h[4:1],4h[4:1],
{8}3h[4:1],,2h[4:1],,1,2,3,4,
E
&inote_5=(145.0){1},4bqq1[4:7]/5bpp8[4:7],,,,
{8}4/5,3,4/5,6,4/5,3,4/5,6,
{8}4/5,2,4/5,7,4/5,2,4/5,7,
{8}4/5,1,4/5,8,4/5,1,4/5,8,
{4}4/5,4/6,2/5,3b/7b,
{16}7/8,,1/6,,3,4,,4,,4,,3/5,4,6,2,,
{16}1/2,,3/8,,6,5,,5,,5,,4/6,5,3,7,,
{16}7/8,,1/6,,3,4,,4,,4,,3/5,4,6,2,,
{8}4/5,6/8,4/5,1/3,4-7[8:1]/5-2[8:1],3/6,,,
{16}5,4,6,5,4/7,,4,5,3,4,2/5,,5,4,6,5,
{16}4/7,,4,5,3,4,2/5,,5s1[16:3],4,6,5,7,,,,
{16}4,5,3,4,2/5,,5,4,6,5,4/7,,4,5,3,4,
{8}5/2-5[8:1],,7-4[8:1],,1b,2b,3b,4b,
{16},,5/6,4/7,,3/4,2/5,,4,5,3,6,2,5,4,,
{16}4/2h[4:1],,,,8,,,5/6,5/6,,5/7,,4/8,,5/6,,
{16}5/7h[4:1],,,,1,,,3/4,3/4,,2/4,,1/5,,3/4,,
{16}4/2h[4:1],,,,8,,,5/6,5/6,,5/7,,4/8,,5/6,,
{16}1/8,,2/7,,3/6,,4/5,4/5,,5/7,,2/4,2/4,,3/6,,
{16}4/2h[4:1],,6,,8,,4/5,4/5,,7/8,,1/5,,3/4,3/4,,
{16}5/7h[4:1],,3,,1,,5,4,5,,3/6,3/6,,4/5,4/5,,
{16}5/3h[4:1],,7,,1,,4,5,4,,2/7,2/7,,4/5,4/5,,
{16}1/8,,2/7,,3/6,,4/5,4/5,,2/4,,5/7,5/7,,3/6,,
{16}3/4,,2/5,,7,8,,8,,8,,1/7,8,2,6,,
{16}5/6,,4/7,,2,1,,1,,1,,2/8,1,7,3,,
{16}3/4,,2/5,,7,8,,8,,8,,1/7,8,2,6,,
{8}1/8,2/4,1/8,5/7,1/8,2/7,3/6,5/4-8[8:1],
{16}4/5,,,,6,6,5,7h[8:1],,3,4,2,5-1[8:1],,5,,
{16}4,,,,3,4,2,6,5,7,4,5,4-8[8:1],,4,,
{8}5-1[8:1],5,4p2[4:1],4,5,,,6,
{16}6,,5/7,,3,,2/4,,4/5,,8,8b,,,1/3,,
{16}2b,,7/8,7b,,3/4,3^8[8:1]/4^7[8:1],,3/4,,,,,,6,,
{16}5/7,,3,,2/4,,4/5,,4/5,,1,1b,,,6/8,,
{16}7b,,1/2,2b,,5/6,5^2[8:1]/6^1[8:1],,5/6,,,,,,3,,
{16}2/4,,6,,5/7,,4/5,,4/5,,8,8b,,,4/5,,
{8}3-8[8:1],3,6pp1[4:1],6,4,3,2,4/5,
{8}6-1[8:1],6,3qq8[4:1],3,5,6,7,4/5,
{8}3-8[8:1],3,6pp1[4:1],6,4,3,2,4/5,
{8}6,4/5,3,4/5,1/8,2/7,3-7[4:1]/6-2[4:1],,
{4},,1h[1883:412]/8h[1883:412],1/8,
{8}8/1-5[8:1],3,1/8-6[8:1],7,8/1-5[8:1],3,1/8-4[8:1],6,
{8}8/1-3[8:1],2,1/8-4[8:1],6,8/1-5[8:1],3,1/8-6[8:1],7,
{8}8/1-5[8:1],3,1/8-4[8:1],6,8/1-3[8:1],2,1/8-4[8:1],6,
{16}1/8,,,,2b/7b,,,,4/5,,6,3,7,2,8,1,
{8}8/7-5[8:1],6,7/1-5[8:1],3,1/7-3[8:1],6,7/8,,
{8}1/2-4[8:1],3,2/8-4[8:1],6,8/2-6[8:1],3,1/2,,
{8}1/8-4[8:1],6,8/1-3[8:1],2,1/8-4[8:1],6,8/1-5[8:1],3,
{8}1/8-6[8:1],7,8/1-5[8:1],3,1/8-4[8:1],6,8/1-3[8:1],2,
{8}1/8-4[8:1],6,8/1-5[8:1],3,1/8-6[8:1],7,8/1-5[8:1],3,
{16}1/8,,,,2b/7b,,,5,5h[4:1],,,,6h[4:1],,,,
{16}5h[16:3],,,4,4h[4:1],,,,3h[4:1],,,,4h[4:1],,,,
{16}5h[16:3],,,7,7h[4:1],,,,5,,5,,4,,4,,
{8}2,2,4,4,5,,3/6,,
{4}2h[8:1]/4h[8:1],6h[8:1]/8h[8:1],1h[8:1]/3h[8:1],5h[8:1]/7h[8:1],
{1}2/4w8[2:1],
{12}6,
{995}5,,,,,,,,,,,,,,,,,,,,,,,,,,,,,,,,,,,,,,,,,,,,,,,,,,,,,,,,,,,,,,,,,,,,,,,,,,,,,,,,,,,
{12}7,3,
{995}4,,,,,,,,,,,,,,,,,,,,,,,,,,,,,,,,,,,,,,,,,,,,,,,,,,,,,,,,,,,,,,,,,,,,,,,,,,,,,,,,,,,
{12}2,7,
{995}8,,,,,,,,,,,,,,,,,,,,,,,,,,,,,,,,,,,,,,,,,,,,,,,,,,,,,,,,,,,,,,,,,,,,,,,,,,,,,,,,,,,
{12}6,2,
{995}1,,,,,,,,,,,,,,,,,,,,,,,,,,,,,,,,,,,,,,,,,,,,,,,,,,,,,,,,,,,,,,,,,,,,,,,,,,,,,,,,,,,
{24}3,,
{8}2/7^4[8:1],8,7/1-5[8:1],3,1/8-4[8:1],6,8/2^5[8:1],1,
{8}2/8-4[8:1],6,8/1-5[8:1],3,1/7^4[8:1],8,7/1-5[8:1],3,
{8}1/8-4[8:1],6,8/2^5[8:1],1,2/8-4[8:1],6,8/1-5[8:1],3,
{8}1/7^4[8:1],8,7/1-5[8:1],3,1/7,6,2/7,,
{8}8/7^4[8:1],6,7/8-4[8:1],2,8/7-3[8:1],6,7/8,,
{8}1/2^5[8:1],3,2/1-5[8:1],7,1/2-6[8:1],3,1/2,,
{16}1/8,1/8,1/8,1/8,2b/7b,,,,7/2^5[8:1],,1,,2/8-4[8:1],,6,,
{8}8/1-5[8:1],3,1/7^4[8:1],8,7/1-5[8:1],3,1/8-4[8:1],6,
{8}8/2^5[8:1],1,2/8-4[8:1],6,1/8,3,1/8,,
{12}3/4,
{995}3/4,,,,,,,,,,,,,,,,,,,,,,,,,,,,,,,,,,,,,,,,,,,,,,,,,,,,,,,,,,,,,,,,,,,,,,,,,,,,,,,,,,,
{12}3/4,5/6,
{995}5/6,,,,,,,,,,,,,,,,,,,,,,,,,,,,,,,,,,,,,,,,,,,,,,,,,,,,,,,,,,,,,,,,,,,,,,,,,,,,,,,,,,,
{48}5/6,,,,4,,,5,,,4,,,5,,,3/6,,,,,,,,,,,,
{16}7/8,,,7/8,,,1/6,,,,3/4,,1/5,,,,
{16}1/2,,,1/2,,,3/8,,,,5/6,,4/8,,,,
{4}5,5,4,4,
{8}5,5,
{641}4,,,,,,,,,,,,,,,,,,,,
{639}5,,,,,,,,,,,,,,,,,,,,
{8}4,3/6,
{16}4/5,4/5,,2b/7b,,,,
{16}1/2,,3/8,,6,5,,5,,5,,4/6,5,3,7,,
{16}7/8,,1/6,,3,4,,4,,4,,3/5,4,6,2,,
{16}1/2,,3/8,,6,5,,5,,5,,4/6,5,3,7,,
{8}4/5,1/3,4/5,6/8,4-7[8:1]/5-2[8:1],3/6,,,
{16}4,5,3,4,2/5,,5,4,6,5,4/7,,4,5,3,4,
{16}2/5,,5,4,6,5,4/7,,4z8[16:3],5,3,4,2,,,,
{16}5,4,6,5,4/7,,4,5,3,4,2/5,,5,4,6,5,
{4}4/7-3[8:1],8-4[8:1],1-5[8:1],2-6[8:1],
{8}3-7[8:1],,4-8[8:1],,1b,2b,3b,4b,
E
