&title=青春はNon-Stop!
&artist=プラズマジカ「SHOW BY ROCK!!」
&wholebpm=172.0
&lv_1=2
&lv_2=4
&lv_3=6
&lv_4=9
&lv_5=11+
&des_4=Jack
&des_5=はっぴー
&inote_1=
(172.0){1},,,,,
{1}1,
{1}2,
{1}3,
{1}4,
{1}5,
{1}6,
{1}7,
{1}8,
{1}8,
{1}7,
{1}6,
{1}5b,
{1}4h[1:1],,
{1}3h[1:1],,
{1}4h[1:1],,
{1}5h[1:1],,
{1}6,
{1}5,
{1}4,
{1}3,
{1}2,
{1}1,
{1}8,
{1}1/8,
{1}1-4[1:1],,
{1}5-8[1:1],,
{1}1-4[1:1],,
{1}5,
{1}6,
{1}7,
{1}8,
{1}1/8,,
{2}1,1,
{1}1,
{2}2,2,
{1}2,
{2}3,3,
{1}3,
{2}4,4,
{1}4,
{2}5,5,
{1}5,
{2}6,6,
{1}6,
{2}7,7,
{1}7,
{2}8,8,
{1}8,
{2}1/8,1/8,
{1}1/8,
{1}1b,
E
&inote_2=
(172.0){1},
{4},,,1,
{4},,,1,{1},,
{4},,,8,
{4},,,8,{1},
{1}1h[4:3],
{2}1,8,
{2}1,1/8,
{2}1,8,
{2}1,1/8,
{2}1,2,
{2}3,4/5,
{2}5,6,
{2}7,1b/8b,
{4}1,1,1,,
{4}8,8,8,,
{4}7,7,7,,
{4}6,6,6,,
{4}5,5,5,,
{4}4,4,4,,
{4}3,3,3,,
{2}1/2,1/2,
{4}8,8,8,,
{4}1,1,1,,
{4}2,2,2,,
{4}3,3,3,,
{4}4,4,4,,
{4}5,5,5,,
{4}6,6,6,,
{2}7/8,7/8,
{1}1h[2:1],
{1}8h[2:1],
{1}2h[2:1],
{1}7h[2:1],
{1}4h[2:1],
{1}5h[2:1],
{2}4,4,
{2}3,3,
{2}2,2,
{2}1,1,
{1}2h[1:1]/7h[1:1],
{2},1b/8b,
{4}1,1,2,,
{4}2,2,3,,
{4}3,3,4,,
{2}4/5,3/6,
{4}5,5,6,,
{4}6,6,7,,
{4}7,7,8,,
{2}1/8,2b/7b,
{4}8,8,7,,
{4}7,7,6,,
{4}6,6,5,,
{2}4/5,3/6,
{4}4,4,3,,
{4}3,3,2,,
{4}2,2,1,,
{4}1,1,8,,
{2}1/2,7/8,
{2}1/2,7/8,
{1}1-5[4:3],,
E
&inote_3=
(172.0){1},
{4},4/5,4/5,1b,
{4},4/5,4/5,8b,
{1}8h[1:1],
{4}1,3/6,2/7,1/8,
{4},5/6,5/6,8b,
{4},3/4,3/4,1b,
{4}1h[2:1],,8,1/8,
{4}1/8,2/7,3/6,1b/8b,
{4}2,2,4h[4:1],,
{4}7,7,5h[4:1],,
{4}3,3,1h[4:1],,
{4}6,6,8h[4:1],,
{4}1,2,3,4,
{4}8,7,6,5,
{4}4,3,2,1,
{4}5,6,7,8b,
{4}1,2,8,7,
{4}3,4,6,5,
{4}4,3,2,1,
{4}8,7,6,4/5,
{4}3,4,3/4,3/4,
{4}6,5,5/6,5/6,
{4}4,5,2h[4:1]/7h[4:1],,
{1}1^4[2:1]/8^5[2:1],
{4}5,6,4,3,
{4}7,8,2,1,
{4}8,7,6,5,
{4}4,3,2,1/8,
{4}6,5,5/6,5/6,
{4}3,4,3/4,3/4,
{4}5,4,2/7,2-5[2:1]/7-4[2:1],{1},
{4}3h[2:1],,4,4,
{4}6h[2:1],,5,5,
{4}2h[2:1],,1,1,
{4}7h[2:1],,8,8,
{4}3h[2:1],,1,1,
{4}6h[2:1],,8,8,
{4}3,3,4,4,
{4}5,5,6,6,
{4}7,7,8,8,
{4}1,1,2,2,
{1}1pp4[4:3]/8qq5[4:3],
{4},,1b/8b,1b/8b,
{4}1,2,3/4,2/5,
{4}8,7,5/6,4/7,
{4}4,3,1/2,3/8,
{4}5,6,7b/8b,7b/8b,
{4}3,4,3/4,2/5,
{4}6,5,5/6,4/7,
{4}4/8,3/7,2/6,1^4[2:1]/5^8[2:1],
{4},,,8b,
{4}6,5,4/7,5/6,
{4}3,4,2/5,3/4,
{4}1/5,2/6,3/7,4^1[2:1]/8^5[2:1],
{4},,,1b,
{4}6h[4:1],5,4,3,
{4}3h[4:1],4,5,6,
{4}1,2,8,7,
{4}3,4,6,5b,
{4}2,2,1h[4:1],8,
{4}7,7,8h[4:1],1h[1:1],
{8},,,,,,8,8,
E
&inote_4=
(172.0){1},
{8},4,5,4,5,,1/2,,
{8},5,4,5,4,,
{4}8/7pp2[4:3],{1},
{8},,1h[8:3],,,8,8,,
{8},5,4,5,4,,7/8,,
{8},4,5,4,5,,1/2,,
{2}8-4[8:1],1^3[8:1]*^6[8:1],
{4}4/5,3/6,2/7,1b/8b,
{8}2,,1/2,,6,5,6,,
{8}3,4,3,4,,1/8,1/8,,
{8}7,,7/8,,3,4,3,,
{8}6,5,6,5,,1/8,1/8,,
{8}3,,2/4,,7,8,7,,
{8}4,5,4,5,,2/7,2/7,,
{8}6,,5/7,,2,1,2,,
{8}5,4,5,4,,1/8,1b/8b,,
{8},3/4,,5/6,,7/8,,1/2,
{8},3,4,3,,5/6,,1/2,
{8},7/8,,6,5,6,,3/4,
{8},1/8,,5/6,,1/8,1/8,,
{8},2,1,2,1,2,,4/5,
{8},7,8,7,8,7,,5,
{8}5h[8:3],,,4,4h[8:3],,,3,
{8}3>6[8:3],,,,,1,1,,
{8},5/6,,3/4,,1/2,,7/8,
{8},6,5,6,,3/4,,7/8,
{8},1/2,,3,4,3,,5/6,
{8},1/8,,3/4,,1/8,1/8,,
{8},7,8,7,8,7,,4/5,
{8},2,1,2,1,2,,3,
{8}3h[4:1],,4h[4:1],,5h[4:1],,6,6<3[8:3],
{4},,,1/8,
{8},3/4,,1/2,1-7[8:1]/2-4[8:1],,,,
{8},5/6,,7/8,7-5[8:1]/8-2[8:1],,,,
{8},3/4,,5/6,5-3[8:1]/6-8[8:1],,,,
{8},2h[8:3],,,1-5[8:1],,,,
{8},5/6,,3/4,3-1[8:1]/4-6[8:1],,,,
{8},7/8,,5/6,5-3[8:1]/6-8[8:1],,,,
{8},1/2,,4/5,,7/8,,4/5,
{8},1/3,,4/5,,6/8,,4/5,
{8},2/7,,3/6,,1pp2[4:1]/8qq7[4:1],1/8,,
{8},,,8,1,8,1,8b,
{8},4,5,4,5,4,5pp1[8:5],4,
{8},,,,2b,,,3h[4:1],
{8},4,4,2,8,1b,,6h[4:1],
{8},5,5,7,1,8b,,3h[4:1],
{8},4,4,,2/5,2/5,,1b/6h[8:3],
{8},,5h[4:1],,4h[4:1],,3,3h[4:1],
{8},4,4,2,8,1b,,6h[4:1],
{8},5,5,7,1,8h[4:1],,1,
{8}1,,4/7,,2/5,2/5,,8^3[16:3]*^6[16:3],
{8},,,,4/5,,2b/7b,7h[4:1],
{8},8,8,6,1,8b,,2h[4:1],
{8},1,1,3,8,1b,,6h[4:1],
{8},5,5,,4/7,4/7,,8/3h[8:3],
{8},,4h[4:1],,5h[4:1],,6,6h[4:1],
{8},7,,3h[4:1],,2,,5h[4:1],
{8},4,5,4,,8b,8b,1h[8:3],
{8},,8,,4/5,4/5,,7h[4:1],
{8},6,,2h[4:1],,3,,4/5,
{2}4-8[8:1]/5-7[8:1],4-2[8:1]/5-1[8:1],
{8}8,1,8,1,,1b/8b,1bpp4[16:9]/8bqq5[16:9],,
{8},,,,,,2b/7b,2b/7b,
E
&inote_5=
(172.0){1},
{8}4/7,5/6,5/6,5/6,5/6,2,1/3,,
{8}2/5,3/4,3/4,3/4,3/4,7,6/8,,
{1}4qq4[2:1]/5pp5[2:1],
{8},,4h[4:1]/5h[4:1],,,2/7,2/7,,
{8}2/5,3/4,3/4,3/4,3/4,7/8,1/6,,
{8}4/7,5/6,5/6,5/6,5/6,1/2,3/8,,
{4}2b/7b,,2/7,5/4-8[8:1],
{4}6-1[8:1],3-8[8:1],5,2b/7b,
{8}5/6,1,3/4,8,5/6,1,3/4,8,
{8}5/6,1,3/4,8h[8:1],1,2/7,2/7,,
{8}3/4,8,5/6,1,3/4,8,5/6,1,
{8}3/4,8,5/6,1h[8:1],8,2/7,2/7,,
{8}4/6,1,3/5,8,4/6,1,3/5,8,
{8}4/6,1,3/5,7h[8:1],8,1/6,1/6,,
{8}3/5,8,4/6,1,3/5,8,4/6,1,
{8}3/5,8,4/6,1-5[8:1],,8b,8b,,
{16}2,,1/3h[16:3],,,4,3,,7,,8/6h[16:3],,,5,6,,
{16}3,,4/2h[16:3],,,1,2,,6,,5/7,,3,,2/4,,
{16}7,,8/6h[16:3],,,5,6,,2,,1/3h[16:3],,,4,3,,
{16}6,,5/7h[16:3],,,8,7,,2,,1/3,,6,,5/7,,
{16}2,,1/3h[16:3],,,4,2,,7,,8/6h[16:3],,,5,7,,
{16}3,,4/2h[16:3],,,1,3,,7,,6/8,,2,,1/3,,
{16}7,,8/6h[16:3],,,5,7,,2,,1/3h[16:3],,,4,2,,
{8}5/6,4/7,3/8,1/2>7[8:1],,8b,8b,,
{8}8,1h[4:1]/7-3[8:1],,7,1,8h[4:1]/2-6[8:1],,2,
{8}8,1h[4:1]/7-3[8:1],,7,2,1/2,7,7/8,
{8}5,4h[4:1]/6-1[8:1],,6,4,5h[4:1]/3-8[8:1],,3,
{8}5,4h[4:1]/6-1[8:1],,6,3,3/4,6,5/6,
{8}8,1h[4:1]/7-3[8:1],,7,1,8h[4:1]/2-6[8:1],,2,
{8}8,1h[4:1]/7-3[8:1],,7,1,2/8,3/7,5/6,
{8}6/5-1[8:1],,3-8[8:1],,6-1[8:1],,8b,8b,
{8},2/7,,1/2,1/2,3/8,,5/6,
{8},4/7,,3/4-1[8:1],2/5-8[8:1],,,,
{8},3/6,,4qq3[4:1]/5pp6[4:1],2/7,,,,
{8},2/5,,6/5-8[8:1],7/4-1[8:1],,,,
{16},,2/7,,,,3,4,3,,6,5,6,,4/5,,
{8},2/5,,6/5-8[8:1],7/4-1[8:1],,,,
{8},1/8,,4/5,4-1[8:1]/5-8[8:1],,4b/5b,,
{8}3/4,2,5/6,7,3/4,2,5/6,7,
{8}2/4,1,5/7,8,2/4,1,5/7,8,
{8}3/4,1,5/6,8,3/4,1/2,3/8,5^2[8:1]/6^1[8:1],
{8},,,7/8,1/6,2/5,3/4,2b/7b,
{8},3/6,3/6,3/6,4/5,4/5,4/5,2b/7b,
{8},1/8,1^4[8:1]/8^5[8:1],,1/8,,2/7,7/2h[4:1],
{8},3-7[8:1],3,5-1[8:1],5,8b,8b,2/7h[4:1],
{8},6-2[8:1],6,4-8[8:1],4,1b,1b,3^8[4:1]/7^4[4:1],
{8},,,,2/6,4/8-4[8:1],,8b/3-8[8:1],
{8},6,6-1[8:1],,4-8[8:1],,7,7h[4:1],
{8},6-2[8:1],6,4-8[8:1],4,1b,1b,7/2h[4:1],
{8},3-7[8:1],3,5-1[8:1],5,8b,8b,,
{8}5q4[8:1]*-8[8:1],,,,2/7-2[8:1],7/2<4[8:1],,,
{8},1-5[8:1],,7-3[8:1],7,,1b,7/2h[4:1],
{8},3-8[8:1],3,6-2[8:1],6,8b,8b,2/7h[4:1],
{8},6-1[8:1],6,3-7[8:1],3,1b,1b,2/7,
{8},1/8,3/6,,1/8,1-5[8:1],,1b/6-1[8:1],
{8},3,3-8[8:1],,5-1[8:1],,2,2,
{8},4/5,,7/8,1/6,3/4,,1^6[8:1]/2^5[8:1],
{8},1/2,,3/8h[8:3],,1b,1b,3q8[4:1]/6p1[4:1],
{8},,,,4/5,2^4[8:1]/7^5[8:1],,2/7,
{8},1^4[8:1]/8^5[8:1],,1/8,,2/7,2/7,,
{4}7-4[8:1]/8-3[8:1],7/8,1-6[8:1]/2-5[8:1],1/2,
{8}7/8,1/6,1/2,3/8,,4/5,1/8,,
{8}3b<8[8:3]/6b>1[8:3],,,,,,2b/7b,2b/7b,
E
