&title=絵の上手かった友達
&artist=ピノキオピー
&wholebpm=128
&demo_seek=62.8
&demo_len=15.4
&lv_1=1
&lv_2=3
&lv_3=6
&lv_4=8+
&lv_5=12
&des_4=mai-Star
&des_5=はっぴー
&inote_1=(128.0){1},,,
{1}1,
{1}1,
{1}2,
{1}2,
{1}3,
{1}3,
{1}4,
{1}4,
{1}5,
{1}5,
{1}6,
{1}6,
{1}7,
{1}7,
{1}8,
{1}8,
{1}8h[1:1],,
{1}7h[1:1],,
{1}6h[1:1],,
{1}5b,
{1}4-1[4:3],,
{1}8-5[4:3],,
{1}4h[1:1],,
{1}3h[1:1],,
{2}2,2,
{1}2,
{2}1,1,
{1}1,
{2}8,8,
{1}8,
{1}1/8,
{1}1/8,
{2}7,7,
{1}7,
{2}6,6,
{1}6,
{2}5,5,
{1}5,
{2}4,4,
{1}4,
{2}3,3,
{1}3,
{1}2b,
{2}3,3,
{1}3,
{2}4,4,
{1}4,
{2}5,5,
{1}5,
{1}4/5,
{1}4/5,
{2}6,6,
{1}6,
{2}7,7,
{1}7,
{2}8,8,
{1}8,
{2}1,1,
{1}1b,
{2}8,8,
{1}8,
{2}7,7,
{1}7,
{2}6,6,
{1}6,
{2}5,5,
{2}4,4,
{1}4/5,
E
&inote_2=(128.0){1},1,
{1}8,
{2}1,1,
{2}2,2,
{2}3,3,
{2}4/5,4/5,
{2}5,5,
{2}6,6,
{2}7,7,
{1}1b/8b,
{1}8-5[4:3],,
{1}1-4[4:3],,
{1}5h[2:1],
{1}4h[2:1],
{2}5,5,
{2}4,4,
{2}5,5,
{2}6,6,
{2}7,7,
{2}8,8,
{2}1,1,
{2}2,2,
{1}3-6[4:3],,
{2}5,5,
{1}6h[2:1],
{1}5h[2:1]/6h[2:1],
{2}4,4,
{2}3,3,
{1}3h[2:1],
{1}3h[2:1]/4h[2:1],
{4}5,5,5,,
{4}6,6,6,,
{4}7,7,7,,
{4}8,8,8,,
{1}8-4[4:3],,
{1}1-5[4:3],,
{4}4,4,4,,
{4}3,3,3,,
{4}2,2,2,,
{4}1,1,1,,
{1}1-5[4:3],,
{1}8-4[4:3],,
{2}5,5,
{2}4,4,
{1}3b/6b,
{4}5,5,5/6,,
{4}6,5,6,,
{4}7,7,7/8,,
{4}1,8,1,,
{1}8-4[4:3],,
{1}1-5[4:3],,
{4}4,4,3/4,,
{4}3,4,3,,
{4}2,2,1/2,,
{4}8,1,8,,
{1}1-5[4:3],,
{1}8-4[4:3],,
{2}5,5,
{2}6,6,
{2}7,7,
{2}8,1/8,
{2}1,1,
{2}2,2,
{2}3,3,
{2}4,4/5,
{1}3b/6b,
E
&inote_3=(128.0){1},,,
{4}2,2,3,3,
{4}4,4,5/6,,
{4}7,7,6,6,
{4}5,5,3/4,,
{1}2<6[2:1],
{1}7>3[2:1],
{4}3,4,5,6,
{4}4/5,3/6,2/7,1b/8b,
{8}3h[2:1],,,4,4,,2/5,,
{8}6h[2:1],,,5,5,,4/7,,
{8}2h[2:1],,,4,4,,1/5,,
{8}7h[2:1],,,5,5,,4/8,,
{8}2h[2:1],,,1,1,,3/8,,
{8}7h[2:1],,,8,8,,1/6,,
{8}4h[2:1],,,5,5,,3/6,,
{4}2,1/2,7,7/8,
{4}2,3,4,5/6,
{4}7,6,5,3/4,
{4}3,4,5,7/8,
{4}6,5,4,1/2,
{4}3h[2:1],,4,4/5,
{4}6h[2:1],,5,4/5,
{1}3p6[2:1],
{4}6,7,8,1/2,
{4}3,2,1,7/8,
{2}6h[2:1],5h[2:1],
{4}4h[2:1],,3,4/5,
{8}3h[2:1],,,4,4,,1/8,,
{8}6h[2:1],,,5,5,,1/8,,
{4}3,4,5,6,
{8}4,5,4,5,4,,2b/7b,,
{4}3h[4:1],4,2,1/2,
{4}6h[4:1],5,7,7/8,
{4}4h[4:1],5,2,1/2,
{4}5h[4:1],4,7,7/8,
{4}2h[4:1],1,4,4/5,
{4}7h[4:1],8,5,4/5,
{1}3>6[4:3],
{4},5,4,5,
{8}3h[4:1],,4,,2,2,1,,
{8}6h[4:1],,5,,7,7,8,,
{4}3h[4:1],4,6h[4:1],5,
{4}3/4,5/6,7/8,1/2,
{4}3,2/4,6,5/7,
{8}4,4-8[16:3],,,,,1/7,,
{4}6,5/7,3,2/4,
{8}5,5-1[16:3],,,,,2/8,,
{4}3-7[4:1],,,8,
{4}6-2[4:1],,,1>8[4:3],{1},
{8}3h[4:1],,4,,5,5,4,,
{8}6h[4:1],,5,,4,4,5,,
{8}3h[4:1],,4,,2,2,1,,
{8}6h[4:1],,5,,7,7,8,,
{8}3h[4:1],,1,,4,5,4,,
{8}6h[4:1],,8,,5,4,5,,
{1}5<4[4:3],
{4},5,4,5,
{8}2h[4:1],,4,,1,8,1,,
{8}7h[4:1],,5,,8,1,8,,
{8}4h[4:1],,5,,1,8,1,,
{4}5/6,3/4,1/2,7/8,
{8}6,6,5/6,,3,3,3/4,,
{8}5,5-1[16:3],,,,,2/8,,
{8}7,7,7/8,,2,2,1/2,,
{8}4,4-8[16:3],,,,,1b/7b,,
{4}8,7,6,5,
{4}4,3,1/2,,
{4}1,2,3,4,
{4}5,6,7/8,,
{4}2,1,2,3/8,
{4}7,8,7,1/6,
{4}2/7,3/6,4-1[4:1]/5-8[4:1],,
{8},,,1,1,8,8,1h[8:7],,,,,,,,
E
&inote_4=(128.0){1},
{8}1,1h[4:1],,2h[4:1],,3,,8,
{8}8,8h[4:1],,7h[4:1],,6,6b,,
{8}3/4,,3/4,,3,4,3/4,,
{8}5/6,,5/6,,6,5,5/6,,
{8}4/5,,4/5,,4,5,4/5,,
{2}2^4[8:1],7^5[8:1],
{8}3/4,,2/5,,3,4,2/5,,
{8}5/6,,4/7,,6,5,4/7,,
{8}2,3,4,7,6,5,2,3,
{2}4^1[8:1],5^8[8:1],
{8}3h[2:1],,,4,4,,6,,
{8}6h[2:1],,,5,5,,3,,
{8}4h[2:1],,,5,5,,3/6,,
{4}3/4,4/5,5/6,4/5,
{8}2h[2:1],,,4,4,,6,,
{8}7h[2:1],,,5,5,,3,,
{8}4h[2:1],,,5,5,,3/6,,
{4}3h[4:1],4h[4:1],5h[4:1],6b,
{8}3,4,3/4,,6,5,5/6,,
{8}3,4,2/5,,6,5,4/7,,
{8}3,4,4/5,,6,5,4/5,,
{2}2^4[8:1],7^5[8:1],
{8}3,4,2/5,,6,5,4/7,,
{8}2,3,3/4,,7,6,5/6,,
{2}3/4^6[8:1],6/5^3[8:1],
{8}2b/7b,,4/5,,3,3,2/4,,
{8}6,6,5/7,,2,2,1/3,,
{8}7,6,5,4,3,2,1/8,,
{8}2,3,4,5,6,7,1/8,,
{8}2h[2:1],,,3,3,,4/5,,
{8}7h[2:1],,,6,6,,4/5,,
{8}7,8,1,2,2,1,8,7,
{8}6,5,4,3,2b^5[4:1],,,,
{8}8,8,7,7,6v8[8:1],,,,
{8}1,1,2,2,3v1[8:1],,,,
{8}8,8,7,6,5^8[8:1],,,,
{8}1,1,2,3,4^1[8:1],,,,
{8}7,7,8,1,2^7[8:1],,,,
{8}6,6,5,4,3^6[8:1],,,,
{8}8h[2:1],,,1,1,,2/7,,
{2}1q5[8:1]/2^5[8:1],7^4[8:1]/8p4[8:1],
{2}2^5[8:1],7^4[8:1],
{1}1>8[2:1],
{2}6^1[8:1],3^8[8:1],
{1}5<4[2:1],
{8}2,3,4,5,7,6,5,4,
{8}8,8<4[8:3]*>4[8:3],,,,,,,
{8}7,6,5,4,2,3,4,5,
{8}1,1<5[4:1]*>5[4:1],,,,,3/7,3pp7[8:13]/7pp3[8:13],{1},,
{8}7,8,1,2,1,8,2b/7b,,
{8}3,4,5,6,6,5,4,3,
{8}2,3,4,5,7,6,5,4,
{8}2,2,3,4,4v1[8:1],,,,
{8}7,7,6,5,5v8[8:1],,,,
{8}2,3,4,5/6,7,6,5,3/4,
{8}1,2,3,4,5,6,7,8,
{8}2h[4:1]/6h[4:1],,,4/8,
{2}8/4>5[1:1],{1},
{8}1/8,,3b/6b,,4/5,6,5/7,,
{8}3,2,1,8,7,6,1/8,,
{8}4/5,3/4,2/3,,4/5,5/6,6/7,,
{8}6,7,8,1,2,3,1/8,,
{8}3,4,5,6,7,6,5,4,
{8}2,2qq5[8:3],,,,,,,
{8}6,5,4,3,2,3,4,5,
{8}7,7pp4[8:3],,,,,2,2<3[8:7],{1},
{8},,,7,8,1,2,2qq7[8:7],{1},
{8},,,2,1,7,8,4,
{8}3,5,6,6qq3[8:5],,,,,
{8},,,1h[8:3],,8,8,2h[8:3]/7h[8:3],
{8},,,3,4,5,6,7h[2:1],
{8},,,8,1,2p7[8:7],{1},,
E
&inote_5=(128.0){1},,
{8}4/5,4/6,5,4,3/5,4/5,2/7,,
{8}6,4/5,3,2/4,3,4/5,6,5/7,
{8}6,4/5,3^6[8:1],4,2h[4:1],,8,,
{8}3,4/5,6,5/7,6,4/5,3,2/4,
{8}3,4/5,6^3[8:1],5,7h[4:1],,1,,
{8}6,4/5,3,2/4,3,4/5,6,5/7,
{8}6,4/5,3^6[8:1],4,2h[4:1],,8,,
{8}4/5,3,2,4/5,6,7,4,3,
{8}5,7,4,2,1/8,,2/7,,
{16}6h[2:1],,,,,,5,,5,,3,3,4,,,,
{16}3h[2:1],,,,,,4,,4,,6,6,5,,,,
{16}6h[2:1],,,,,,5,,5,,3,3,4,,,,
{16}3h[2:1],,,,,,4,,4,,6,6,5,,,,
{16}6h[8:3],,,,,,5,,4/7,,3,3,4,,,,
{16}3h[8:3],,,,,,4,,2/5,,6,6,5,,,,
{16}6h[8:3],,,,,,5,,4/7,,3,3,4,,,,
{8}4/5,4,4/5,5,4/5,,3/6,,
{8}1/2^5[8:1],,8,8,5/6^1[8:1],,3,,
{8}8/7^4[8:1],,1,1,4/3^8[8:1],,6,,
{8}1/2^5[8:1],,8,8,5/6^1[8:1],,3,,
{8}8/7^4[8:1],,1,1,3/4,,1/6,,
{8}8/7^4[8:1],,1,1,4/3^8[8:1],,6,,
{8}1/2^5[8:1],,8,8,5/6^1[8:1],,3,,
{8}8/7^4[8:1],,1,1,3/4,,4/7,,
{8}3^6[4:1],3,6,,7p3[4:1],7,3,,
{8}2q6[4:1],2,6,,7^2[4:1],7,2,,
{8}3p7[4:1],3,7,,6q2[4:1],6,2,,
{8}3^6[4:1],3,6,,8,,4/5,,
{8}6h[2:1],,,5,5,,4/7,,
{8}3h[2:1],,,4,4,,2/5,,
{8}4,3,2/5,6,3/7,2,1/6,7,
{8}2/8,1,7,1/8,4/5,,3b/6b,,
{8}2>6[4:1],2,1,8,7<3[4:1],7,8,1,
{8}2>6[4:1],2,1,8,7<3[4:1],7,8,1,
{8}2V46[4:1],2,1,8,7V53[4:1],7,8,1,
{8}2V46[4:1],2,1,8,7,7,1/6,,
{8}3>7[4:1],3,4,5,6<2[4:1],6,5,4,
{8}3V17[4:1],3,4,5,6V82[4:1],6,5,4,
{8}3,2/5,1/4,6,4/7,5/8,2,3/8,
{8}1/4,7,1/6,5/8,4,3,4,5,
{8}6z2[4:1],,4,,1,2,3s7[4:1],3,
{8}5,,8,,4/5,6,5,4,
{8}3^6[8:1],,,8,7p3[8:1],,1,1>5[4:1],
{8},5<1[4:1],,1,,,4/5,5,
{8}6<2[4:1],6,5,4,3>7[4:1],3,4,5,
{8}6<2[4:1],6,5,4,3,3,5,4,
{8}3V17[4:1],3,4,5,6V82[4:1],6,5,4,
{8}3V17[4:1],3,4,5,6,,4/5,4/5,
{8}3,4,2/5,6,5,4/7,3,2/4,
{8}6,5,4/7,3,4,2/5,4,6,
{4}4-1[8:3]/5-8[8:3],,,2b/7b,
{8}6>2[4:1],6,7,8,1>5[4:1],1,8,7,
{8}6>2[4:1],6,7,8,1,1,8,7,
{8}3<7[4:1],3,2,1,8<4[4:1],8,1,2,
{8}3<7[4:1],3,2,1,8,8,1,2,
{8}3/4<8[4:1],2,3,4,5>1[4:1],7,6,5,
{8}4V68[4:1],2,3,4,5V31[4:1],7,6,5,
{8}4,3/5,2/6,5,4/6,3/7,4,2/6,
{8}1/7,5,4/6,3/7,2/8,,4/5,,
{16}4,5,4,,2b/7b,,,,4,,5,,6z2[4:1],,6,,
{8}4,,1,,4/5,3,4,5,
{8}6^3[8:1],,,1,2q6[8:1],,8,8<4[4:1],
{8},4>8[4:1],,8,,,4/5,4,
{8}2<6[4:1],2,3,4,5<1[4:1],5,4,3,
{8}2<6[4:1],2,3,4,5,6,4,5,
{8}7>3[4:1],7,6,5,4>8[4:1],4,5,6,
{4}7s3[4:1],,,3/6,
{8}7/5p8[4:1],8,7,6,4q1[4:1],1,2,3,
{8}5>7[4:1],5,6qq3[8:3],6,,,,,
{8}2/4q1[4:1],1,2,3,5p8[4:1],8,7,6,
{8}4<2[4:1],4,3pp6[8:3],3,,,,,
{8}2/1p4[4:1],4,3,2,8q5[4:1],4,6,7,
{8}1p4[4:1],5,3,2,8q5[4:1],4,6,7,
{8}1,2,1/3,8,7,6/8,5,3,
{8}4,5,3/6,1/8,1/8,2/7,3/6,4^1[8:5]/5^8[8:5],,,,,,,,
E
