&title=秘密の扉から会いにきて
&artist=田村 ゆかり「のうりん」
&wholebpm=184.0
&lv_1=2
&lv_2=4
&lv_3=6
&lv_4=8
&lv_5=11
&des_4=mai-Star
&des_5=Revo@LC
&inote_1=(184.0){1},,,,,
{1}6,
{1}6,
{1}7,
{1}7,
{1}8,
{1}8,
{1}8,
{1}1,
{1}1,
{1}2,
{1}2,
{1}3,
{1}3,
{1}3h[1:1],,
{1}3h[1:1],,
{1}4h[1:1],,
{1}4h[1:1],,
{1}5h[1:1],,
{1}5h[1:1],,
{1}6h[1:1],,
{1}6h[1:1],,
{1}7,
{1}7,
{1}8,
{1}8,
{1}1,
{1}1,
{1}1/8,
{1}1b,
{2}8,8,
{1}8,
{1}7,
{1}7,
{2}6,6,
{1}6,
{1}5,
{1}5,
{2}4,4,
{1}4,
{1}3,
{1}3,
{2}2,2,
{1}2,
{1}1,
{1}1,
{1}1/8,
{1}8,
{1}7,
{1}6,
{1}5,
{1}4-1[4:3],,
E
&inote_2=(184.0){1},1,
{1}1,
{1}8,
{1}8,
{1}1,
{1}1,
{1}8,
{1}8,
{1}1/8,
{2}1,1,
{2}2,2,
{2}3,3,
{4}4,4,4,,
{2}5,5,
{2}6,6,
{2}7,7,
{4}8,8,8,,
{1}8h[2:1],
{1}8h[2:1],
{1}8-5[4:3],,
{1}1h[2:1],
{1}1h[2:1],
{1}1-4[4:3],,
{2}8,8,
{2}7,7,
{1}8-4[4:3],,
{2}1,1,
{2}2,2,
{1}1-5[4:3],,
{1}6h[2:1],
{1}3h[2:1],
{1}5h[2:1],
{1}4h[2:1],
{2}5,5,
{2}6,6,
{2}7,7,
{1}1b/8b,
{4}1,1,1,,
{4}2,2,2,,
{1}3h[2:1],
{4}4,4,4/5,,
{4}5,5,5,,
{4}6,6,6,,
{1}7h[2:1],
{4}8,8,8b,,
{4}8,8,8,,
{4}7,7,7,,
{1}6h[2:1],
{4}5,5,4/5,,
{4}4,4,4,,
{4}3,3,3,,
{1}2h[2:1],
{4}1,1,1b,,
{1}1h[2:1]/8h[2:1],
{2}1,2,
{2}3,4,
{2}5,6,
{2}7,8,
{1}8-4[4:3],,
E
&inote_3=(184.0){1},
{4}3,3,4,4,
{1}3/4,
{4}6,6,5,5,
{1}5/6,
{4}4,4,5,5,
{1}3/6,
{4}1,1,8,8,
{4}1b,1b,,,{1},
{4}3,3,3/4,,
{4}6,6,5/6,,
{4}3,3,2/4,,
{4}6,6,5/7,,
{4}2,2,1/2,,
{4}7,7,7/8,,
{4}1,8,1,8,
{1}1-4[2:1],
{4}6,5,5/6,,
{4}3,4,3/4,,
{4}6,5,4/7,,
{4}3,4,2/5,,
{4}7,8,7/8,,
{4}2,1,1/2,,
{4}1,8,2/7,,
{1}1b/8b,
{4}3,4,3,4,
{2}3/4,2/5,
{4}6,5,6,5,
{2}5/6,4/7,
{4}4,4,5,5,
{2}3/6,2/7,
{4}1,8,1/8,2/7,
{4}8,1,2/7,,
{2}3h[2:1],4,
{2}6h[2:1],5,
{2}2h[2:1],1,
{2}7h[2:1],8,
{4}3h[2:1],,4,4,
{4}6h[2:1],,5,5,
{4}2,2,7,7,
{8}1,8,1,8b,,,,,
{4}3,4,3,4,
{4}3/4,3/4,2/5,,
{4}6,5,6,5,
{4}5/6,5/6,4/7,,
{4}5,4,5,4,
{4}4/5,3/6,2/7,,
{2}3h[4:1]/4h[4:1],5h[4:1]/6h[4:1],
{4}3/6,2/7,1b/8b,,
{4}6,5,7,4,
{4}5/6,4/7,5/6,,
{4}3,4,2,5,
{4}3/4,2/5,3/4,,
{4}1,8,1,8,
{4}1/8,2/7,3/6,,
{2}7h[4:1]/8h[4:1],1h[4:1]/2h[4:1],
{4}8b,8b,
{2}8bqq4[1:1],{1},
{4}5,6,7,8,
{4}1,2,3,4,
{4}6h[4:1],5,3h[4:1],4,
{4}4/5,3/6,2/7,1/8,
{1}1bw5[4:7],,,
E
&inote_4=(184.0){1},
{8}1/8,,1/8,,2,7,2,,
{8}1/2,,7/8,,,2,2h[1:1],,
{4}1,8,7,6,
{8}1,8,2,7,,,,,
{8}1/8,,1/8,,7,2,7,,
{8}7/8,,1/2,,,7,7h[1:1],,
{4}8,1,2,3,
{4}3b/4b,3b/4b,
{2}5w1[4:3],{1},
{4}3,4,5/6,5/6,
{4}6,5,3/4,3/4,
{4}3,5/6,6,3/4,
{4}3/4,5/6,7/8,1b/2b,
{4}6,5,3/4,2/3,
{4}3,4,5/6,6/7,
{4}5,2/3,4,6/7,
{4}5/6,3/4,1/2,7b/8b,
{4}1,2,3-7[8:1],,
{4}8,7,6-2[8:1],,
{4}4,3,2-6[8:1],,
{4}5,6,7-3[8:1],,
{4}1,3,2v4[8:1],,
{4}8,6,7v5[8:1],,
{1}1s5[2:1],
{8}2,1,8,7,,,2/7,,
{8}3,,4,,3,4,2,,
{8}6,,5,,6,5,7,,
{8}2,,1,,2,1,3,,
{8}7,,8,,7,8,6,,
{8}3,4,3,,6,5,6,,
{8}2,1,2,,7,8,7,,
{4}7/8,1/6,2/5,3/4,
{8}1,8,1,8,2b/7b,,,,
{8}3h[2:1],,,4,4,,1b,,
{8}6h[2:1],,,5,5,,8b,,
{8}3h[2:1],,,4,4,,8b,,
{8}6h[2:1],,,5,5,,1b,,
{4}2,3/4,7,5/6,
{4}3,4/5,6,4/5,
{8}1h[2:1],,,8,8,,,,
{8}2,1,8,7,,,1b,,
{4}1/2,7/8,1/8,3/6,
{8}3,4,5,6,,2,1,8,
{2}7-4[8:1],2-5[8:1],
{8}8b,,1b,,,2/7,2/7,,
{4}7/8,1/2,1/8,3/6,
{8}7,8,1,2,,6,5,4,
{4}3h[4:3],1,7,5,
{4}2/4,5/7,3b/6b,1b/8b,
{4}1/2,7/8,1/5,3/7,
{8}8,4,6,2,,1,5,3,
{2}7qq5[8:1],2pp4[8:1],
{8}8b,,1b,,,2/7,2/7,,
{4}7/8,1/2,4/8,2/6,
{8}8,4,6,2,,1,5,3,
{2}7-5[8:1],2-4[8:1],
{4}5b/6b,5b/6b,
{2}4w8[4:3],{1},
{4}1,8h[2:1],7,1,
{4}8,1h[2:1],2,8,
{4}3/4,3/4,5/6,5/6,
{8}2,1,8,7^4[16:3],,,,,
{8}1/2,,7/8,,4/5,3/6,2/7,1b^4[8:7]/8b^5[8:7],{1},,
E
&inote_5=
(184.0){1},
{4}3h[4:1],1,6h[4:1],8,
{4}3h[4:1],1,6h[4:1],8,
{4}3h[4:1],2,6h[4:1],7,
{4}3h[4:1],2,6h[4:1],7,
{8}3h[4:1],1,2,,6h[4:1],8,7,,
{8}3h[4:1],1,2,,6h[4:1],8,7,,
{8}4,3,2,1,8,7,6,5,
{8}3b-1[8:1]/6b-8[8:1],,3b/6b,,4/5,,4qq4[2:1]/5pp5[2:1],4/5,
{4},,,2b/7b,
{8}2,2-5[8:1],,1-6[8:1],,2-5[8:1],,1-6[8:1],
{8},2-5[8:1],,1-6[8:1],,2,3,4,
{2}5q2[8:1]/6^1[8:1],3q8[8:1]/4^7[8:1],
{4}1h[8:1]/2h[8:1],7h[8:1]/8h[8:1],1h[8:1]/2h[8:1],,
{8}7,7-4[8:1],,8-3[8:1],,7-4[8:1],,8-3[8:1],
{8},7-4[8:1],,8-3[8:1],,7,6,5,
{2}3^8[8:1]/4p7[8:1],5^2[8:1]/6p1[8:1],
{1}4qq1[2:1]/5pp8[2:1],
{8}1h[4:1]/8h[4:1],,,4/5,3h[4:1]/6h[4:1],,,7/8,
{8},4/5,,1/2,3h[4:1]/8h[4:1],,,,
{8}5h[4:1]/6h[4:1],,,3/4,3h[4:1]/4h[4:1],,,7/8,
{8},1/2,,3/4,2h[4:1]/5h[4:1],,,,
{8}3h[4:1]/4h[4:1],,,5/6,5h[4:1]/6h[4:1],,,1/2,
{8},7/8,,5/6,4h[4:1]/7h[4:1],,,,
{4}3^6[4:1],6^1[4:1],1^4[4:1],4w8[2:1],
{4},,,2b/7b,
{4}6/5pp2[8:3],6,1,8,
{4}3/4qq7[8:3],3,8,1,
{4}6/5pp2[8:3],6,1,8,
{4}3/4qq7[8:3],3,8,1,
{4}6/5pp2[8:3],6,1,8,
{4}3/4qq7[8:3],3,8,1,
{2}5h[4:1]/7h[4:1],2h[4:1]/4h[4:1],
{8}2/7,1/8,2/7,1/8,2-5[8:1]/7-4[8:1],,2b/7b,,
{8}3qq5[8:3],,,7,7-4[8:1],,7,,
{8}3qq5[8:3],,,7,7-4[8:1],,7,,
{8}3qq5[8:3],,,7,7-4[8:1],,7,,
{8}1/2,3/8,4/7,5^3[8:1]/6^8[8:1],,,,,
{8}6pp4[8:3],,,2,2-5[8:1],,2,,
{8}6pp4[8:3],,,2,2-5[8:1],,2,,
{8}8,7,6,5,4,3,2,1,
{8}7-4[8:1],2q5[8:3],7,2,,,7b,,
{4}3-8[8:1],4-7[8:1],3-1[8:1],4-6[8:1],
{8}3-8[8:1],3-6[8:1],,,,1,2,3,
{2}5^2[8:1]/6p1[8:1],3q8[8:1]/4^7[8:1],
{4}1-4[8:1]*-6[8:1],1-5[8:1],1^4[8:1]*^6[8:1],1,
{4}6-1[8:1],5-2[8:1],6-8[8:1],5-3[8:1],
{8}6-1[8:1],6-3[8:1],,,,8,7,6,
{2}3q8[8:1]/4^7[8:1],5^2[8:1]/6p1[8:1],
{4}8b^3[8:1]*^5[8:1],8bw4[8:1],8b,,
{4}6^1[8:1],5qq3[8:1],6^1[8:1],5qq3[8:1],
{8}6^1[8:1],6q3[8:1],,,,7,6,5,
{2}3q8[8:1]/4<8[8:1],5>1[8:1]/6p1[8:1],
{4}8-3[8:1]*-5[8:1],8-4[8:1],8^3[8:1]*^5[8:1],8,
{4}3^8[8:1],4pp6[8:1],3^8[8:1],4pp6[8:1],
{8}3^8[8:1],3p6[8:1],,,,2,3,4,
{2}5>1[8:1]/6p1[8:1],3q8[8:1]/4<8[8:1],
{8}4b-1[8:1]/6b-1[8:1],,4b/6b,,4/6,,5pp5[2:1]*qq5[2:1],5,
{4},,,4b/7b,
{8}2,2-5[8:1],,6-1[8:1],,2-5[8:1],,6-1[8:1],
{8},2-5[8:1],,6-1[8:1],,2,3,4,
{2}5q2[8:1]/6^1[8:1],3q8[8:1]/4^7[8:1],
{8}1/2,3/8,4/7,5h[8:3]/6h[8:3],,,,,
{16}8,7,6,5,1,2,3,4,5,6,7,8,1w5[1:2],,
{8}1b,{1},,,
E
