&title=極上スマイル
&artist=Wake Up, Girls!
&wholebpm=143
&demo_seek=58.4
&demo_len=13.8
&lv_1=1
&lv_2=4
&lv_3=6
&lv_4=7+
&lv_5=10+
&des_4=rioN
&des_5=はっぴー
&inote_1=(143.0){1},,,
{1}1,
{1}2,
{1}3,
{1}4,
{1}5,
{1}6,
{1}7,
{1}8,
{1}8,
{1}7,
{1}6,
{1}5,
{1}4,
{1}3,
{1}2,
{1}1,
{1}8-5[1:1],,
{1}4-1[1:1],,
{1}8h[1:1],,
{1}1h[1:1],,
{1}2-6[1:1],,
{1}7-3[1:1],,
{1}2,
{1}1,
{1}1/8,
{1}1/8,
{2}1,1,
{1}1,
{2}2,2,
{1}2,
{2}3,3,
{1}3,
{2}4,4,
{1}4b,
{2}5,5,
{1}5,
{2}6,6,
{1}6,
{2}7,7,
{1}7,
{2}8,8,
{2}1/8,1/8,
E
&inote_2=(143.0){1},,,
{2}1,1,
{4}1,1,1,,
{2}2,2,
{4}2,2,2,,
{2}3,3,
{4}3,3,3,,
{1}4-1[4:3],,
{2}8,8,
{4}8,8,8,,
{2}7,7,
{4}7,7,7,,
{2}6,6,
{4}6,6,6,,
{1}5-8[4:3],,
{1}1h[2:1]/8h[2:1],
{1}2h[2:1]/7h[2:1],
{1}3h[2:1]/6h[2:1],
{1}4h[2:1]/5h[2:1],
{2}4/5,4/5,
{2}3/6,3/6,
{4}2/7,,1/8,1/8,
{1}1b/8b,
{2}1,2,
{2}3,4,
{2}5,6,
{2}7,8,
{2}1/8,2,
{2}1/8,7,
{1}1-4[4:3]/8-5[4:3],,
{2}3,4,
{4}3,3,3/4,,
{2}6,5,
{4}6,6,5/6,,
{2}7,8,
{4}7,7,7/8,,
{2}2,1,
{4}2,2,1/2,,
{2}3,4,
{4}5,5,4/6,,
{2}6,5,
{4}4,4,3/5,,
{2}2,1,
{4}8,8,1/7,,
{2}1/8,2/7,
{4}1/8,1/8,2b/7b,
E
&inote_3=(143.0){1},,,
{4}3,3,4,4,
{4}3,4,2/5,,
{4}6,6,5,5,
{4}6,5,4/7,,
{4}2,3,4,5,
{4}7,6,5,4,
{2}2h[4:3],7h[4:1],
{4}1/8,2/7,3/6,4/5,
{4}3,4,3,4,
{4}2,3,4/5,,
{4}6,5,6,5,
{4}7,6,4/5,,
{4}6,7,8,1,
{4}3,2,1,8,
{2}7h[4:3],2h[4:1],
{4}1/8,2/7,3/6,4/5,
{4}3h[2:1],,4,3/4,
{4}6h[2:1],,5,5/6,
{4}3h[2:1],,4,2/5,
{4}6h[2:1],,5,4/7,
{2}5/6,3/4,
{4}4/5,4/5,2/7,,
{2}2/4,5/7,
{4}4/5,3/6,2/7,1/8,
{4}2h[2:1],,1,1/2,
{4}7h[2:1],,8,7/8,
{4}2h[2:1],,1,3/8,
{4}7h[2:1],,8,1/6,
{2}7b/8b,1/2,
{4}1/8,,2/7,3/6,
{1}4-1[2:1]/5-8[2:1],
{1}1^4[2:1]/8^5[2:1],
{4}3/4,3/4,5/6,5/6,
{4}3/4,3/4,2/5,1b/8b,
{4}7,6,5,4,
{1}3>6[2:1],
{4}5/6,5/6,3/4,3/4,
{4}5/6,5/6,4/7,1b/8b,
{4}2,3,4,5,
{1}6<3[2:1],
{4}3/4,3/4,5/6,5/6,
{4}3/4,5/6,4/7,1b/8b,
{4}2,4,6,8/1w5[4:3],{1},
{4}5/6,5/6,3/4,3/4,
{4}5/6,3/4,2/5,1b/8b,
{2}5/6,3/4,
{4}5/7,2/4,1b/8b,
E
&inote_4=(143.0){1},,,
{8}5,,4,,5,4,5,,
{4}1/3,6/8,4/5,2b/7b,
{8}3,,4,,6,5,6,,
{4}1/3,6/8,4/5,2b/7b,
{4}1,1/2,8,7/8,
{4}1/3,6/8,2/4,5/7,
{8}3h[4:3],,,6,6h[4:1],,,,
{4}1/8,2/7,3/6,4/5,
{4}2/8,1/3,1/7,6/8,
{4}3/4,4/5,5/6,2b/7b,
{8}5/6,,5/7,,6,5,6,,
{4}3/4,2/4,5/6,3b/8b,
{4}2h[4:1],4,7h[4:1],5,
{4}1h[4:1],8h[4:1],7h[4:1],6h[4:1],
{2}4qq2[4:1],5<4[4:3],{1},
{8}6h[8:3],,,5,5,,4/7,,
{8}3h[8:3],,,4,4,,2/5,,
{8}7-4[4:1],,,2,2,,1/8,,
{8}2-5[4:1],,,7,7,,1/8,,
{2}3/4,5/6,
{8}1/8,,2/7,,4,5,4,,
{8}3,4,2/5,,6,5,4/7,,
{4}1/8,2/7,3/6,4/5,
{8}2h[8:3],,,4,3/4,,2/5,,
{8}7h[8:3],,,5,5/6,,4/7,,
{8}3h[8:3],,,4,4/5,,7/8,,
{8}6h[8:3],,,5,4/5,,1/2,,
{8}7b/8b,,,3,3/4,,,6,
{8}5/6,,,4,5,4,5,4,
{1}5<4[2:1],
{1}1w5[2:1],
{4}4/5,7,4/5,2,
{8}4/3h[4:1],,6,5,6,,1b/2b,,
{8}7/8,,6,5,6,,3/4,,
{4}4/8,2/6,4/8,2/6,
{4}4/5,7,4/5,2,
{8}5/6h[4:1],,3,4,3,,8b,,
{8}1/2,,3,4,3,,5/6,,
{1}8/4^1[2:1]*^7[2:1],
{4}4/5,2,4/5,7,
{8}3,4,3,4,2,,7b/8b,,
{8}4/5,,1/8,2/7,3/6,,4,5,
{4}4h[4:1],6h[4:1],2h[4:1],8,
{4}4/5,7/8,4/5,1/2,
{8}6,5,6,5,7,,1b/2b,,
{8}1/8,1b/8b,,2/7,2/7,1b/8b,,,
{4}6b/7b,2b/3b,4b/8b,
E
&inote_5=(143.0){1},
{4}1/8,4/5,2/7,4/5,
{4}3/6,4/5,1/8,2b/7b,
{16}5h[4:1],,,,4h[16:3],,,5,4,,4,,5,,5,,
{8}1,1s5[4:1],1,,,,2b/7b,,
{4}1/7^4[8:1],8,8/2^5[8:1],1,
{8}3/5,3,4/6,6,3/5,,2b/6b,,
{4}4h[4:1],5pp6[4:1],,,
{4}5h[4:1],4qq3[4:1],,,
{8}8^5[8:1],,,1,1^4[8:1],,,,
{8}2b/7b,,1b/8b,2b/7b,8b/1b-4[8:1],,8b,,
{16}5h[4:1],,,,4h[16:3],,,5,4,,4,,5,,5,,
{8}2,4,7,5,3/6,,2b/7b,,
{16}5h[4:1],,,,4h[16:3],,,5,4,,4,,5,,5,,
{8}2,4,7,5,3/6,,3b/8b,,
{16}4h[4:1],,,,5h[16:3],,,4,5,,6,,4,,3,,
{8}7,8,1,2,1,8,2^4[8:1]/7^5[8:1],,
{4},1^4[4:1]/8^5[4:1],,,
{8}4/5,4/5,2/7,,1/8,,3/7-4[8:1],,
{4}8-3[8:1],7-4[8:1],8-3[8:1],7-4[8:1],
{4}1-4[8:1],8-5[8:1],1-4[8:1],8-5[8:1],
{4}2-5[8:1],1-6[8:1],2-5[8:1],1-6[8:1],
{4}2-5[8:1],6^3[8:1],,1b/8b,
{4}3h[2:1],4,4h[2:1],5,
{8}5h[8:3],,6,6,4/7,,1^3[8:1]/8^6[8:1],,
{4},7h[4:1],2,4/5,
{4}1b/8b,2/7,3/6,4/5,
{4}6/5^2[8:1],1,3/4^7[8:1],8,
{4}6/5^2[8:1],1,3/4^7[8:1],8,
{4}2/1^6[8:1],5,7/8^3[8:1],4,
{4}2/1^6[8:1],5,7/8^3[8:1],4,
{8}2/7,,,7/8,1/6,,,1/2,
{8}3/8,,,5/6,4/7,2/5,3qq8[2:1]/4pp7[2:1],,
{4},,,5qq2[2:1]/6pp1[2:1],
{4},,,2b/7b,
{2}3/4q1[8:1]*^7[8:1],6/5^2[8:1]*p8[8:1],
{8}2/4h[8:3],,5,5,2/7,2/7,1b/2b,,
{8}1,1w5[4:1],1,,,,5qq3[8:1]/7-5[8:1],,
{4},5qq3[8:1]/7-5[8:1],,4/5,
{2}3/4q1[8:1]*^7[8:1],6/5^2[8:1]*p8[8:1],
{8}7/8,,2/8,,5/3h[4:1],5,8b,,
{2}1^4[8:1]*^6[8:1],8^3[8:1]*^5[8:1],
{4}4-8[8:1],5-1[8:1],4-8[8:1],5b,
{2}2/4q1[8:1]*^7[8:1],7/5^2[8:1]*p8[8:1],
{8}2/4h[8:3],,5,5,2/7,2/7,1b/8b,,
{4}3qq2[4:1]/6pp7[4:1],,,3/5,
{4}5/6,3/5,5/6,4/5,
{2}2/4q1[8:1]*^7[8:1],7/5^2[8:1]*p8[8:1],
{8}2/4q1[8:1]*^7[8:1],,,,5/7,,1b/8b,1/8,
{8}2/7,2/7,,4/5,4/5,1/8,,4/8,
{4}6/7,2/3,4b/8b,
E
