&title=少女幻葬戦慄曲 ~ Necro Fantasia
&artist=どぶウサギ
&wholebpm=182
&demo_seek=1
&demo_len=21.5
&lv_1=3
&lv_2=6
&lv_3=8
&lv_4=10+
&lv_5=13+
&des_4=畳返し
&des_5=rioN
&inote_1=(182.0){1},8,
{1}7,
{1}6,
{1}5,
{1}4,
{1}3,
{1}2,
{1}1,
{1}1,
{1}2,
{1}3,
{1}4,
{1}5,
{1}6,
{1}7,
{1}8,
{1}8h[1:1],,
{1}7h[1:1],,
{1}6h[1:1],,
{1}5h[1:1],,
{2}4,4,
{1}4,
{2}3,3,
{1}3,
{2}2,2,
{1}2,
{2}1,1,
{1}1b,
{1}1-5[4:3],,
{1}8-4[4:3],,
{1}2-6[4:3],,
{1}7-3[4:3],,
{2}2,2,
{1}2,
{2}1,1,
{1}1,
{2}8,8,
{1}8,
{2}7,7,
{1}7h[1:3],,,,
{2}6,6,
{1}6,
{2}5,5,
{1}5,
{2}4,4,
{1}4,
{2}3,3,
{1}3,
{2}2,2,
{1}2,
{2}1,1,
{1}1,
{1}1/8,
{1}1/8,
{2}1,1,
{1}1,
{2}2,2,
{1}2,
{2}3,3,
{1}3,
{2}4,4,
{1}4,
{2}5,5,
{1}5,
{2}6,6,
{1}6,
{2}7,7,
{1}7,
{2}8,8,
{1}8b,
{4}1,1,1,,
{2}2,2,
{4}3,3,3,,
{2}4,4,
{4}5,5,5,,
{2}6,6,
{4}7,7,7,,
{1}8,
{4}8,8,8,,
{2}7,7,
{4}6,6,6,,
{2}5,5,
{4}4,4,4,,
{4}5,5,5,5,
E
&inote_2=(182.0){1},
{4}1,1,1,,
{4}1,1,1,,
{4}8,8,8,,
{4}8,8,8,,
{4}7,7,7,,
{4}7,7,7,,
{4}6,6,6,,
{1}4b/5b,
{4}5,5,5,,
{4}6,6,6,,
{4}7,7,7,,
{4}8,8,8,,
{4}1,1,1,,
{4}2,2,2,,
{4}3,3,3,,
{1}4h[2:1]/5h[2:1],
{1}4-1[4:3],,
{1}5-8[4:3],,
{1}3-8[4:3],,
{1}6-1[4:3],,
{1}2-5[4:3],,
{1}7-4[4:3],,
{1}1-5[4:3],,
{1}8-4[4:3],,
{2}1,1,
{2}2,2,
{1}3h[4:3]/4h[4:3],,
{4}5,5,5,,
{4}6,6,6,,
{4}7,7,7,,
{1}1h[4:3]/8h[4:3],
{4}8,8,8,,
{4}7,7,7,,
{1}5h[4:3]/6h[4:3],,
{4}4,4,4,,
{4}3,3,3,,
{4}2,2,2,,
{1}1h[2:5]/8h[2:5],,,
{4}2,2,3,,
{4}3,3,4,,
{4}4,4,5,,
{4}5/6,5/6,5/6,,
{4}3/4,3/4,3/4,,
{4}5,4,5,,
{1}3h[2:1]/6h[2:1],
{4}5,5,6,,
{4}6,6,7,,
{4}7,7,8,,
{4}8,8,1,,
{4}1/2,1/2,1/2,,
{4}7/8,7/8,7/8,,
{1}1h[1:1]/8h[1:1],,
{4}8,8,1/8,,
{4}7,7,7/8,,
{4}6,6,5/6,,
{4}5,5,4/5,,
{4}3/4,3/4,3/4,,
{4}5/6,5/6,5/6,,
{4}4,5,4,,
{1}5h[2:1]/6h[2:1],
{4}4,4,4/5,,
{4}3,3,3/4,,
{4}2,2,1/2,,
{4}1,1,1/8,,
{4}7/8,7/8,7/8,,
{4}1/2,1/2,1/2,,
{1}1-4[4:3]/8-5[4:3],,
{4}4,4,4,4,
{4}3,3,3/4,,
{4}2,2,2,2,
{4}1,1,1/8,,
{4}8,8,8,8,
{4}7,7,7/8,,
{4}6,6,6,,
{1}4b/5b,
{4}5,5,6,6,
{4}7,7,1/8,,
{4}1,1,2,2,
{4}3,3,4/5,,
{4}4,4,5,5,
{4}4,5,4,5h[4:7],,,{1},,
E
&inote_3=(182.0){1},
{4}3,3,3/4,,
{4}6,6,5/6,,
{4}4,5,3,6,
{4}4/5,4/5,3/6,,
{4}3,4,3/4,,
{4}6,5,5/6,,
{4}4/5,3/6,2/7,1/8,
{4}1,8,2/7,,
{4}2,2,1/2,,
{4}7,7,7/8,,
{4}1,8,2,7,
{4}1/8,1/8,2/7,,
{4}2,1,1/2,,
{4}7,8,7/8,,
{4}1/8,2/7,3/6,4/5,
{4}4,5,3/6,,
{4}2,2,1/2,,
{4}7,7,7/8,,
{4}2,2,2/3,,
{4}7,7,6/7,,
{4}3,3,3/4,,
{4}6,6,5/6,,
{4}3,3,2/3,,
{4}6,6,6/7,,
{4}2,1/2,1/2,,
{4}7,7/8,7/8,,
{4}2,2/3,2/3,,
{4}7,6/7,6/7,,
{4}3,3/4,3/4,,
{4}6,5/6,5/6,,
{4}3,2/3,2/3,,
{4}6,6/7,6/7,,
{4}1,2,3,3/4,
{4}8,7,6,5/6,
{4}7h[8:3]/8h[8:3],,,1h[8:3]/6h[8:3],
{4},,1,1,
{4}8,7,6,5/6,
{4}1,2,3,3/4,
{4}1h[8:3]/2h[8:3],,,1/2,
{4}3h[8:3]/8h[8:3],,,3/8,
{4}4,3,2,1/2,
{4}5,6,7,7/8,
{4}5h[8:3]/6h[8:3],,,4h[8:3]/7h[8:3],
{4},,4,4,
{4}5,6,7,7/8,
{4}4,3,2,1/2,
{4}3h[8:3]/4h[8:3],,,3/4,
{4}2h[8:3]/5h[8:3],,,2b/5-8[4:3],{1},
{1}1>8[4:5],,
{4}8,1,2,3/4,
{4}1,8,5/7,,
{4}4,3,2,1/8,
{4}5,6,7,1/8,
{4}5,4,3,1/2,
{4}4,5,6/8,,
{4}2,1,1/2,1/2,
{4}7,8,7/8,7/8,
{4}3,4,3/4,3/4,
{4}6,5,5/6,5/6,
{4}2,1,1/2,3/8,
{4}7,8,7/8,1/6,
{1}2b/7^2[4:3],
{4},,1,1,
{4}2,2,1,1,
{4}2,1,3/8,,
{4}6,6,5,5,
{4}6,5,4/7,,
{4}7,7,8,8,
{4}7,8,1/6,,
{4}3,3,4,4,
{4}3,4,2/5,,
{4}7,7,8,8,
{4}7,8,1/6,,
{4}3,3,4,4,
{4}3,4,2/5,,
{4}2,2,1,1,
{4}2,1,1/2,1/2,
{1}8b/3<7[1:1],,
{4}7h[4:1]/8h[4:1],,7/8,1/6,
{4}1h[4:1]/2h[4:1],,1/2,3/8,
{4}5h[4:1]/6h[4:1],,5/6,4/7,
{4}3h[4:1]/4h[4:1],,3/4,2/5,
{4}7h[2:1],,8,1/6,
{4}2h[2:1],,1,3/8,
{4}6h[2:1],,5,4/7,
{4}3h[2:1],,4,2/5,
{4}6h[4:3],,5,4,
{4}3h[4:3],,4,5,
{4}7h[4:3],,8,1,
{4}2h[4:3],,1,8,
{4}7/8,7/8,1/2,1/2,
{4}1/8,2/7,3/6,
{1}5/4>5[4:7],,,
E
&inote_4=(182.0){1},
{4}8,2/3,5/6,8,
{8}1/7,,1/3,,8,7,6,,
{4}1,6/7,3/4,1,
{8}2/8,,6/8,,1,2,3,,
{4}5,2/3,7/8,5,
{8}4/6,,2/4,,5,6,7,,
{4}4,6/7,1/2,4,
{1}2>6[4:1],
{4}8,5/6,2/3,8,
{8}1/7,,5/7,,8,1,2,,
{4}1,3/4,6/7,1,
{8}2/8,,2/4,,1,8,7,,
{4}5,7/8,2/3,5,
{8}4/6,,6/8,,5,4,3,,
{4}4,1/2,6/7,4,
{1}5<1[4:1],
{8}6h[4:1],,,5h[8:3]/7h[8:3],,,,,
{4}3,2,1,8,
{8}7h[4:1],,,6h[8:3]/8h[8:3],,,,,
{8}5h[4:1],,,4h[8:3]/6h[8:3],,,,,
{8}3h[4:1],,,2h[8:3]/4h[8:3],,,,,
{4}6,7,8,1,
{8}2h[4:1],,,1h[8:3]/3h[8:3],,,,,
{8}4h[4:1],,,3h[8:3]/5h[8:3],,,,,
{8}6h[4:1],,,5/7,,6,5,,
{4}3,2,1,8,
{8}7h[4:1],,,6/8,,7,6,,
{8}5h[4:1],,,4/6,,5,4,,
{8}3h[4:1],,,2/4,,3,4,,
{4}6,7,8,1,
{8}2h[4:1],,,1/3,,2,3,,
{1}2-7[8:3]/6-3[8:3],
{8}2/5,,3h[2:1],4,,4,4,,
{8}4/7,,6h[2:1],5,,5,5,,
{8}4/8,,,3/6,,,
{4}4q1[4:3]/5p8[4:3],{1},
{8}2/7,,1-3[4:1],8-6[4:1],,,,,
{8}3/6,,5-7[4:1],4-2[4:1],,,,,
{8}2/7,,1-3[4:1],8-6[4:1],,,,,
{8}3/6,,,4/5,,,2b/7b,,
{8}1/6,,7h[2:1],8,,8,8,,
{8}3/8,,2h[2:1],1,,1,1,,
{8}1/5,,,2/7,,,
{4}4qq1[4:3]/5pp8[4:3],{1},
{8}2/7,,1-5[4:1],8-4[4:1],,,,,
{8}3/6,,5-1[4:1],4-8[4:1],,,,,
{8}2/7,,1-5[4:1],8-4[4:1],,,,,
{8}2/7,,,1/8,,,2b/7b,,
{4},8<1[2:1],,,{1},
{8}2h[4:3],,,,4,,4,3,
{8}6h[4:3],,,,8,,8,7,
{8}3h[4:3],,,,5,,5,4,
{8}7h[4:3],,,,1,,1,8,
{8}3h[4:3],,,,5,,5,4,
{8}6h[4:3],,,,4,,4,5,
{1}4q3[2:1]/5<2[2:1],
{8}7h[4:3],,,,5,,5,6,
{8}3h[4:3],,,,1,,1,2,
{8}6h[4:3],,,,4,,4,5,
{8}2h[4:3],,,,8,,8,1,
{8}6h[4:3],,,,4,,4,5,
{8}3h[4:3],,,,1,,1,2,
{1}1>8[1:1],
{4},,3/6,4/5,
{4}1h[4:1],2h[4:1],3h[4:1],4,
{4}8h[4:1],7h[4:1],6h[4:1],5,
{4}2h[4:1],3h[4:1],4h[4:1],5,
{4}7h[4:1],6h[4:1],5h[4:1],4,
{8}3,3h[8:1],4h[4:1],,5h[4:1],,6,,
{8}6,6h[8:1],5h[4:1],,4h[4:1],,3,,
{8}2,2h[8:1],3h[4:1],,4h[4:1],,5,,
{1}4>7[2:1]/5p6[2:1],
{4}8h[4:1],7h[4:1],6h[4:1],5,
{4}1h[4:1],2h[4:1],3h[4:1],4,
{4}7h[4:1],6h[4:1],5h[4:1],4,
{4}2h[4:1],3h[4:1],4h[4:1],5,
{8}1,1h[8:1],8h[4:1],,7h[4:1],,6,,
{8}8,8h[8:1],1h[4:1],,2h[4:1],,3,3<8[8:5],{1},
{4}8w4[4:1],,,2b/6b,
{8}1,2,3,,6/8,,3/5,,
{8}8,7,6,,1/3,,4/6,,
{8}2,3,4,,1/7,,4/6,,
{8}7,6,5,,2/8,,3/5,,
{8}1/8,2,3,,6/8,,3/5,,
{8}1/8,7,6,,1/3,,4/6,,
{8}1/2,3,4,,1/7,,4/6,6>2[8:3],
{8},,,,,1,1b,,
{8}8,7,6,,1/3,,4/6,,
{8}1,2,3,,6/8,,3/5,,
{8}1,8,7,,2/4,,5/7,,
{8}8,1,2,,5/7,,2/4,,
{8}1/2,8,6/7,,2/4,,5/7,,
{8}7/8,1,2/3,,5/7,,2/4,2>1[8:13],,,,,,,{1},,
E
&inote_5=(182.0){1},
{8}5/7,6,3,4/2-5[8:1],,2,6,5/7-4[8:1],
{8},7,2,1/3-8[8:1],,3,6,7,
{8}6/8,1,2,3/1-5[8:1],,1,8,7,
{16}6/8,,2,,1/3,,5,,3,4,3,,2/5,,1/8,,
{8}5/7,6,3,4/2-5[8:1],,2,6,5/7-4[8:1],
{8},7,2,3,2/4,3,5/7,6,
{8}1/3,2,6,8/7-3[8:1],,7,1,2h[8:5],
{8},,,,
{641}8,,,,,,,,,,,,,,,,,,,,
{639}7,,,,,,,,,,,,,,,,,,,,6,,,,,,,,,,,,,,,,,,,,
{641}5,,,,,,,,,,,,,,,,,,,,4,,,,,,,,,,,,,,,,,,,,
{639}3,,,,,,,,,,,,,,,,,,,,2,,,,,,,,,,,,,,,,,,,,
{641}1,,,,,,,,,,,,,,,,,,,,
{8}8b,,
{8}2/4,3,6,5/7-4[8:1],,7,3,4/2-5[8:1],
{8},2,7,8/6-1[8:1],,6,3,2,
{8}1/3,8,7,6/8-4[8:1],,8,1,2,
{16}1/3,,7,,6/8,,4,,6,5,6,,4/7,,1/8,,
{8}2/4,3,6,5/7-4[8:1],,7,3,4/2-5[8:1],
{8},2,7,6,5/7,6,2/4,3,
{8}6/8,7,3,1/2-6[8:1],,2,8,7h[8:5],
{8},,,,
{641}1,,,,,,,,,,,,,,,,,,,,
{639}2,,,,,,,,,,,,,,,,,,,,3,,,,,,,,,,,,,,,,,,,,
{641}4,,,,,,,,,,,,,,,,,,,,5,,,,,,,,,,,,,,,,,,,,
{639}6,,,,,,,,,,,,,,,,,,,,7,,,,,,,,,,,,,,,,,,,,
{641}8,,,,,,,,,,,,,,,,,,,,
{8}1b,,
{8}4/7,6,5,3/8,6,5,1/2,,
{8}2/5,3,4,1/6,3,4,7/8,,
{8}3/8,2,1,4/7,2,1,5/6,,
{8}1/6,7,8,2/5,7,8,3/4,,
{8}2/5,6,5,4/7,3,4,1/8h[4:1],,
{4}6-1[8:1],3-8[8:1],5-1[8:1],4,
{8}1/6,7,8,3/8,2,1,1/8,,
{16}3,4,3,4,2,,6,5,6,5,7,,1b/8b,,,,
{16}2/5,,3,4,3,,2/5,,6,,5,,4/7,,2,,
{16}4/7,,6,5,6,,4/7,,3,,4,,2/5,,7,,
{16}1/6,,7,8,7,,1/6,,2,,1,,3/8,,6,,
{16}3/8,,2,1,2,,3/8,,7,,8,,1/6,,2,,
{16}4/7,,3,4,3,,2/5,,4/7,,3/6,,8/1h[4:1],,8,,
{8}3-8[8:1],3,6-1[8:1],6,4-8[8:1],4,5,5,
{16}4/7,,6,5,6,,2/5,,3,4,3,,7,8,7,,
{16}2/5,,3,4,3,,4/7,,6,5,6,,2,1,2,,
{8}7-2[8:1],,7,3-6[8:1],,3,8-5[8:1],,
{8}8-3[8:1],,8,4-7[8:1],,4,8,,
{8}7^4[8:1],8,1,2^7[8:1],3,4,5^2[8:1],6,
{8}7,8,1,2,1/3,7,6/8,,
{8}2-7[8:1],,2,6-3[8:1],,6,1-4[8:1],,
{8}1-6[8:1],,1,5-2[8:1],,5,8-5[8:1],,
{8}8-3[8:1],,8,4-7[8:1],,4,2,,
{8}6/8b,,,1b/3,,,2b/7b,,
{8}7^2[8:1],,7,3^6[8:1],,3,8-4[8:1],,
{8}8^3[8:1],,8,4^7[8:1],,4,8,,
{8}2^5[8:1],1,8,7^2[8:1],6,5,4^7[8:1],3,
{8}2,1,8,7,6/8,2,1/3,,
{8}2^7[8:1],,2,6^3[8:1],,6,1-5[8:1],,
{8}1^6[8:1],,1,5^2[8:1],,5,8-4[8:1],,
{8}8^3[8:1],,8,4^7[8:1],,4,1w5[8:1],,
{8}1b,,,4b/8b,,,
{4}1b/5bp1[1:1]*q1[1:1],{1},
{8},,5/2-7[8:1],,2/6-3[8:1],,1/6,1h[4:1],
{8},7^4[8:1],2,7,2-5[8:1],5-2[8:1],2,6,
{8},,4/7-2[8:1],,7/3-6[8:1],,3/8,8h[4:1],
{8},2^5[8:1],7,2,7-4[8:1],4-7[8:1],7,3,
{8},,1-5[8:1]/2-6[8:1],,1/2,,3/4,1h[4:1]/6h[4:1],
{8},,7-3[8:1]/8-4[8:1],,7/8,,5/6,3h[4:1]/8h[4:1],
{8},,4-8[8:1]/5-1[8:1],,4/5,,3/6,1b/8b,
{16},,7,,6,,5/7,,3,4,3,,2/5,,8,,
{8}1/6,,8/1-4[8:1],,1/5-8[8:1],,2/5,2h[4:1],
{8},8^5[8:1],3,8,1-6[8:1],6-1[8:1],1,5,
{8},,1/8-5[8:1],,8/4-1[8:1],,4/7,7h[4:1],
{8},1^4[8:1],6,1,8-3[8:1],3-8[8:1],8,4,
{8},,5-1[8:1]/6-2[8:1],,5/6,,3/7,1h[4:1]/8h[4:1],
{8},,3-7[8:1]/4-8[8:1],,3/4,,2/6,1b/8b,
{16},,2,,3,,2/4,,6,5,6,,4/7,,1b/8b,,
{16},,3,4,3,,6,5,6,,3,4,2,,6,5,
{8}7,,5/2-5[8:1],,2/7-3[8:1],,1/7,1h[4:1],
{8},8-5[8:1],5-8[8:1],8-3[8:1],4,4-1[8:1]*-7[8:1],,,
{8},,4/7-4[8:1],,7/2-6[8:1],,2/8,8h[4:1],
{8},1-4[8:1],4-1[8:1],1-6[8:1],5,5-2[8:1]*-8[8:1],,,
{8},,3/2-6[8:1],,2/1-5[8:1],,1/8,8,
{8},,6/7-3[8:1],,7/8-4[8:1],,1/8,1,
{8},,3/4-8[8:1],,4/5-1[8:1],,5/6,6,
{16},,2,,3,,2/4,,6,5,6,,4/7,,3,,
{8}2/4,,8/3-8[8:1],,3/6-2[8:1],,4/6,4h[4:1],
{8},5-8[8:1],8-5[8:1],5-2[8:1],1,1^4[8:1]*^6[8:1],,1,
{8},,1/6-1[8:1],,6/3-7[8:1],,3/5,5h[4:1],
{8},4-1[8:1],1-4[8:1],4-7[8:1],8,8^3[8:1]*^5[8:1],,8,
{8},,3/2-6[8:1],,2/8-4[8:1],,6/8,6,
{8},,6/7-3[8:1],,7/1-5[8:1],,1/3,3,
{16},,7,,6,,5/7,,3,4,3,,2/5,,1b/8b,,
{16},,2/7,,3/6,,4/5,,4,5,3,6,1b,,,,
{16}2/5,,3,4,3,,5/2-5[8:1],,6,,2,,6,,4/7-4[8:1],,
{8}3,7,3,1/6-1[8:1],2,3/6,4,5,
{16}4/7,,6,5,6,,4/7^4[8:1],,3,,7,,1,,3,4,
{16}3,,5/6,,1/8,,2/7,,6,5,6,,3/4,,1/8,,
{16}4/7,,6,5,6,,4/7^4[8:1],,3,,7,,2,,5/3^8[8:1],,
{16}6,,3,,7,,1/6,,3,4,3,,6,5,6,,
{16}1/3,,2,,6/8,,7,,4,5,4,,5/6,,3/4,,
{16},,4/5,,3/6,,2/7,,
{641}1,,,,,,,,,,,,,,,,,,,,
{639}2,,,,,,,,,,,,,,,,,,,,3,,,,,,,,,,,,,,,,,,,,
{641}4,,,,,,,,,,,,,,,,,,,,5,,,,,,,,,,,,,,,,,,,,
{639}6,,,,,,,,,,,,,,,,,,,,7,,,,,,,,,,,,,,,,,,,,
{641}8,,,,,,,,,,,,,,,,,,,,
{8}1b,,
{16}4/7,,6,5,6,,4/7-4[8:1],,3,,7,,3,,5/2-5[8:1],,
{8}6,2,6,8/3-8[8:1],7,3/6,5,4,
{16}2/5,,3,4,3,,5/2^5[8:1],,6,,2,,8,,6,5,
{16}6,,3/4,,1/8,,2/7,,3,4,3,,5/6,,1/8,,
{16}2/5,,3,4,3,,5/2^5[8:1],,6,,2,,7,,4/6^1[8:1],,
{8}3,6,2,3/8,1/6,2/4,5/7,1b>8[8:13]/8b<1[8:13],,,,,,,{1},,
E
