&title=スリップフリップ
&artist=tilt-six feat.串伊トモミ
&wholebpm=143
&demo_seek=41
&demo_len=14.2
&lv_1=3
&lv_2=4
&lv_3=8
&lv_4=10+
&lv_5=13+
&des_4=ロシェ@ペンギン
&des_5=はっぴー
&inote_1=(143.0){1},,,,,
{1}1,
{1}2,
{1}3,
{1}4,
{2}5,5,
{1}5,
{2}6,6,
{1}6,
{2}7,7,
{1}7,
{2}8,8,
{1}8,
{1}8,
{1}7,
{1}6,
{1}5,
{1}4,
{1}3,
{1}2,
{1}1b,
{2}1,1,
{1}1,
{2}2,2,
{1}2,
{2}3,3,
{1}3,
{2}4,4,
{1}4,
{2}5,5,
{1}5,
{2}6,6,
{1}6,
{2}7,7,
{1}7,
{2}8,8,
{1}8,
{1}1/8,
{1}1/8,
{1}2-6[4:3],,
{1}7-3[4:3],,
{1}1-5[4:3],,
{1}6h[1:1],,
{1}5h[1:1],,
{1}4h[1:1],,
{1}3h[1:1],,
{4}2,2,2,,
{2}1,1,
{4}8,8,8,,
{2}7,7,
{4}6,6,6,,
{2}5,5,
{4}4,4,4,,
{1}4/5,
{4}6,6,6,,
{2}7,7,
{4}8,8,8,,
{2}1,1,
{4}2,2,2,,
{2}3,3,
{4}4,4,4,,
{2}4/5,4/5,
{4}5,5,5,,
{4}6,6,6,,
{4}7,7,7,,
{4}8,8,8,,
{4}1,1,1,,
{4}2,2,2,,
{4}3,3,3,,
{4}4,4,4,4b,
E
&inote_2=(143.0){1},1,
{1}1,
{1}8,
{1}8,
{2}1,1,
{2}2,2,
{2}3,3,
{1}4h[2:1]/5h[2:1],
{2}5,5,
{2}6,6,
{2}7,7,
{2}8,1/8,
{2}1,1,
{2}2,2,
{2}3,3,
{2}4,4/5,
{2}5,5,
{4}5,5,5,,
{2}4,4,
{4}4,4,4,,
{2}3,3,
{4}3,3,3,,
{2}2,2,
{1}1/2,
{4}8,8,8,,
{4}7,7,7,,
{4}6,6,6,,
{4}5,4,5,,
{4}4,4,4,,
{4}3,3,3,,
{4}2,2,2,,
{1}1h[2:1],
{4}1,1,1,,
{4}2,2,2,,
{4}3,3,3,,
{4}4,5,4,,
{4}5,5,5,,
{4}6,6,6,,
{4}7,7,7,,
{1}8h[2:1],
{1}8-5[4:3],,
{1}1-4[4:3],,
{2}8,7,
{2}6,5,
{2}4,3,
{2}2,1,
{2}8,8,
{2}1/8,1/8,
{2}7,7,
{1}7h[2:1]/8h[2:1],
{2}6,6,
{2}5/6,5/6,
{4}4,5,4,,
{2}4/5,3b/6b,
{4}4,4,4/5,,
{4}3,3,3/4,,
{4}2,2,1/2,,
{4}1,8,1,,
{4}8,8,1/8,,
{4}7,7,7/8,,
{4}6,6,5/6,,
{1}4h[2:1]/5h[2:1],
{4}5,5,4/5,,
{4}6,6,5/6,,
{4}7,7,7/8,,
{4}8,1,8,,
{4}1,1,1/8,,
{4}2,2,1/2,,
{4}3,3,3/4,,
{1}4h[2:1]/5h[2:1],
{1}4-1[4:3],,
{1}5-8[4:3],,
{2}4,3,
{2}2,1,
{2}8,7,
{2}6,5,
{1}4/5,
E
&inote_3=(143.0){1},2q5[8:5],
{1}7p4[8:5],
{1}3qq5[8:5],
{1}6pp4[8:5],
{8}3,,4,,5,,6,5,
{8}6,,5,,4,,3,4,
{4}3,2/4,6,5/7,
{4}3>6[16:5],,,1b/8b,
{8}2,,3/4,,4/5,,6,5,
{8}7,,5/6,,4/5,,3,4,
{8}2,,3/4,,4/5,,6,5,
{4}7,7/8,2,1/2,
{8}3,,1/2,,1/8,,7,8,
{8}6,,7/8,,1/8,,2,1,
{4}3,2/4,3/5,4/6,
{8}7,7,1,1,8-4[8:1],,,,
{4}3,3^6[4:1],,,
{8}7,,7/8,,1,8,1,,
{8}2,,1/2,,8,1,8,,
{4}7,4/6,2,3/5,
{4}6,6^3[4:1],,,
{8}2,,1/2,,8,1,8,,
{8}7,,7/8,,1,8,1,,
{4}3/4,5/7,2/6,4b/8b,
{2}3-6[8:1],7-4[8:1],
{4}3,1/2,1/8,7/8,
{2}6-1[8:1],2-7[8:1],
{4}6,4^1[4:1]/5^8[4:1],,,
{8}1/8,,1/2,,3,4,2,,
{8}1/8,,7/8,,6,5,7,,
{8}8,8,1/2,,1,1,7/8,,
{8}4,4,5,5,4/5,,2b/7b,,
{2}6-3[8:1],2-5[8:1],
{4}6,7/8,1/8,1/2,
{2}3-8[8:1],7-2[8:1],
{4}3,4^1[4:1]/5^8[4:1],,,
{8}1/8,,7/8,,6,5,7,,
{8}1/8,,1/2,,3,4,2,,
{8}1,1,8,8,2,2,7,7,
{8}1,8,1,8,1,,
{4}4bw8[8:5],{1},
{4}2,3,4,5/6,
{4}7,6,5,3/4,
{4}2,1/2,7,7/8,
{4}6,7,8,1/2,
{4}3,2,1,7/8,
{4}6,5,4,3/6,
{4}7,7/8,2,1/2,
{4}3h[2:1],,4,2/5,
{4}6h[2:1],,5,4/7,
{4}8h[2:1],,1,2/7,
{4}3h[4:1],4,6h[4:1],5,
{4}7h[2:1],,8,1/6,
{4}2h[2:1],,1,3/8,
{4}4h[2:1],,5,2/7,
{4}7/8,5/6,3/4,1/2,
{2}8^5[16:3],4^1[16:3],
{4}8,5/6,1,3/4,
{2}1^4[16:3],5^8[16:3],
{4}1,3^8[4:1]/4p7[4:1],,,
{8}5/6,,4/5,,3,4,2,,
{8}3/4,,4/5,,6,5,7,,
{8}8,8,1,1,1/8,,3/6,,
{8}4,4,5,5,4/5,,2b/7b,,
{1}1>8[2:1],
{4}1/2,3/4,5/6,7/8,
{1}8<1[2:1],
{4}7/8,5q2[4:1]/6^1[4:1],,,
{8}3/4,,4/5,,6,5,7,,
{8}5/6,,4/5,,3,4,2,,
{8}1,1,8,8,2,2,7,7,
{8}1,8,1,8,1,,
{4}4bqq1[4:3]/5bpp8[4:3],{1},
{4}2,1,2,3/8,
{4}7,8,7,1/6,
{4}2,3/8,7,1/6,
{4}7,5,6,4/8,
{4}2,4,3,1/5,
{4}2,1/3,7,6/8,
{8}1,8,1,8,2,7,3,6,
E
&inote_4=(143.0){1},2qq6[2:1],
{1}7pp3[2:1],
{1}2pp6[2:1],
{1}7qq3[2:1],
{16}1/8,,,,1/8,,,,3/4,,,4/5,,,5/6,,
{16}1/8,,,,1/8,,,,5/6,,,4/5,,,3/4,,
{8}2,2,7,7,1,1,8<1[2:1],8,
{4},,,1b/8b,
{16}3h[16:3],,,4h[16:3],,,5h[16:3],,,6,,,7/8,,,,
{16}6h[16:3],,,5h[16:3],,,4h[16:3],,,3,,,1/2,,,,
{16}1h[16:3],,,2h[16:3],,,3h[16:3],,,4,,,5/6,,,,
{16}8h[16:3],,,7h[16:3],,,6h[16:3],,,5,,,3/4,,,,
{16}3h[16:9],,,6,,,7,,,8,,,1/7,,,,
{16}6h[16:9],,,3,,,2,,,1,,,2/8,,,,
{16}4h[16:9],,,7,,,8,,,1,,,2/8,,,,
{8}4,5,4,5,1h[4:1],,8b,,
{4}2,3/4,7,5/6,
{8}3,4,5,6h[2:1],,8,,8,
{8},2,,1/2,,7,,7/8,
{8},3,,3/4,,4/5,4/5,,
{4}7,5/6,2,3/4,
{8}6,5,4,3h[2:1],,1,,1,
{8},4,5,4,5,4,5qq1[2:1],4,
{4},,,2b/7b,
{8}6,5,4/6,,3,4,3/5,,
{4}2^5[8:1],8,6^1[8:1],4,
{8}2,1,2/8,,7,8,1/7,,
{1}3pp7[2:1]*qq7[2:1],
{4}6/8,1^4[4:1]/5pp7[4:1],,,
{4}1/3,4qq2[4:1]/8^5[4:1],,,
{8}1,8,1,8,,1>8[8:5]/8<1[8:5],,,
{4},,,2b/7b,
{8}3,5,4/6,,6,4,3/5,,
{2}2-5[8:1]*-6[8:1],7-3[8:1]*-4[8:1],
{8}2,8,1/7,,7,1,2/8,,
{4}1^4[4:1]/7^4[4:1],,,3/8,
{4}1/5,3qq1[4:1]/7^4[4:1],,,
{4}4/8,2^5[4:1]/6pp8[4:1],,,
{8}1,8,2,7,3,6,4<1[2:1]*q2[2:1],5,
{4},,,2b/7b,
{16}7h[16:3],,,8h[16:3],,,1h[16:3],,,2,,,3/4,,,,
{16}2h[16:3],,,1h[16:3],,,8h[16:3],,,7,,,5/6,,,,
{16}4h[16:3],,,3h[16:3],,,2h[16:3],,,1,,,2/8,,,,
{16}5h[16:3],,,6h[16:3],,,7h[16:3],,,8,,,1/7,,,,
{16}3h[8:3],,,1,,,6h[8:3],,,8,,,3,,,,
{16}6h[8:3],,,8,,,3h[8:3],,,1,,,6,,,,
{16}4h[8:3],,,2,,,8h[8:3],,,6,,,4,,,,
{16}5h[8:3],,,7,,,1h[8:3],,,3,,,5,,,,
{4}1-4[8:1]/5-8[8:1],,3/7,1/5,
{8}4,3,2,1^4[8:1]/5^8[8:1],,,,,
{8}2,1,8,7,6h[4:1],,4,,
{8}5,6,7,8,1-4[8:1]*-5[8:1],,,,
{4}4-1[8:1]/8-5[8:1],,2/6,4/8,
{8}5,6,7,4^1[8:1]/8^5[8:1],,,,,
{8}7,8,1,2,3h[4:1],,5,,
{8}4,5,6,7-3[8:1],,1,1<2[8:3],,
{4},1<2[8:3],,1,
{8}8,1,8,1p2[4:1],,,,,
{8}5,4,2/5,,4,5,4/7,,
{8}8,1,2,3-7[8:1]*-8[8:1],,,,,
{4}6/8,1pp2[4:1]/5pp6[4:1],,,
{4}1/3,4qq3[4:1]/8qq7[4:1],,,
{8}4,8,4,8^5[4:1],,4p1[2:1],,,
{4},,,2b/7b,
{2}4q2[4:1],8<4[4:1],
{1}2pp6[2:1]*qq6[2:1],
{2}5p7[4:1],1>5[4:1],
{1}7pp3[2:1]*qq3[2:1],
{4}2/4,3,5/7,6,
{4}1/3,2,6/8,7,
{8}2,2,7,7,1,1,8<1[2:1]*p1[2:1],8,
{4},,,2b/7b,
{16}3/1h[16:9],,,5,,,7,,,5,,,4/6,,,,
{16}6/8h[16:9],,,4,,,2,,,4,,,3/5,,,,
{16}6/4h[16:9],,,8,,,2,,,8,,,1/7,,,,
{16}3/5h[16:9],,,1,,,7,,,1,,,2/8,,,,
{16}3/1h[16:3],,,5,,,6/8h[16:3],,,4,,,2/6,,,,
{16}6/8h[16:3],,,4,,,3/1h[16:3],,,5,,,3/7,,,,
{16}6/4h[16:3],,,1,,,2/8h[16:3],,,5,,,3/7,,,,
{16}1/5,,,2/6,,,3/7,,,4/8w4[8:1],,,,,,,
E
&inote_5=(143.0){1},
{16}3h[16:3],,,4h[16:3],,,5qq2[8:3],,,,,,,,,,
{16}6h[16:3],,,5h[16:3],,,4pp7[8:3],,,,,,,,,,
{16}3h[16:3],,,4h[16:3],,,5qq2[8:3],,,,,,,,,,
{16}6h[16:3],,,5h[16:3],,,4,,4-1[8:1]*-7[8:1],,,,4b,,,,
{16}8-3[8:1]*-5[8:1],,,,8,,,,4h[16:3],,,3,,,2/5,,
{16}1-4[8:1]*-6[8:1],,,,1,,,,5h[16:3],,,6,,,4/7,,
{16}6-1[8:1],,6,,3-8[8:1],,3,,5,,5,,
{641}4,,,,,,,,,,,,,,,,,,,,
{639}3,,,,,,,,,,,,,,,,,,,,2,,,,,,,,,,,,,,,,,,,,
{641}1,,,,,,,,,,,,,,,,,,,,8,,,,,,,,,,,,,,,,,,,,
{639}7,,,,,,,,,,,,,,,,,,,,6,,,,,,,,,,,,,,,,,,,,
{641}5,,,,,,,,,,,,,,,,,,,,
{4}4b/8b,,4-8[8:1]/5-1[8:1],4b/5b,
{4}1/6-1[8:1],6/2-5[8:1],2/7-2[8:1]*-4[8:1],7,
{4}8/3-8[8:1],3/7-4[8:1],7/2-5[8:1]*-7[8:1],2,
{4}1/6-1[8:1],6/2-5[8:1],2/7-2[8:1]*-4[8:1],7,
{4}8/3-8[8:1],3/7-4[8:1],7/2-5[8:1]*-7[8:1],2,
{4}4/7-4[8:1],7/8-3[8:1],8/4-1[8:1]*-7[8:1],4,
{4}5/2-5[8:1],2/1-6[8:1],1/5-2[8:1]*-8[8:1],5,
{4}4/7-4[8:1],7/8-3[8:1],8/4-1[8:1]*-7[8:1],4,
{8}2-5[8:1],2,7-4[8:1],7,1-5[8:1],1,8b,,
{4}7/5-1[8:1]*-7[8:1],5,2/4-2[8:1]*-8[8:1],4,
{4}7/5-1[8:1]*-7[8:1],5,2/4-2[8:1]*-8[8:1],4,
{8}7/5-1[8:1]*-7[8:1],4,5,,2/4-2[8:1]*-8[8:1],5,4,,
{8}7/5-1[8:1]*-7[8:1],4,5,,2/4-2[8:1]*-8[8:1],5,4,,
{4}2/5-2[8:1]*-8[8:1],5,7/4-1[8:1]*-7[8:1],4,
{4}2/5-2[8:1]*-8[8:1],5,7/4-1[8:1]*-7[8:1],4,
{8}2/5-2[8:1],4,5/6,8,7/4-7[8:1],5,3/4,1,
{16}1,8,2,7,3,6,4,5,
{641}4,,,,,,,,,,,,,,,,,,,,
{639}3,,,,,,,,,,,,,,,,,,,,2,,,,,,,,,,,,,,,,,,,,
{641}1,,,,,,,,,,,,,,,,,,,,8,,,,,,,,,,,,,,,,,,,,
{639}7,,,,,,,,,,,,,,,,,,,,6,,,,,,,,,,,,,,,,,,,,
{641}5,,,,,,,,,,,,,,,,,,,,
{4}4b/8b,
{4}1^4[8:1]/6^1[8:1],6/1-5[8:1],1/4-1[8:1]*-7[8:1],4,
{4}3^8[8:1]/8^5[8:1],3/8-4[8:1],8/5-2[8:1]*-8[8:1],5,
{8}1^4[8:1]/6^1[8:1],,6/1-5[8:1],,1/4-8[8:1],,4,6,
{8}5,3>6[4:1],4,5,,,4/8,,
{4}4/5V71[8:1],2v4[8:1],5<1[8:1],3,
{8}4V28[8:1],,7v5[8:1],,4>8[8:1],,6,7,
{8}8,2,1,7/2>6[4:1],,6<2[4:1],,2>2[2:1],
{4},,,4b/8b,
{4}3^8[8:1]/8^5[8:1],3/8-4[8:1],8/5-2[8:1]*-8[8:1],5,
{4}1^4[8:1]/6^1[8:1],6/1-5[8:1],1/4-1[8:1]*-7[8:1],4,
{8}3^8[8:1]/8^5[8:1],,3/8-4[8:1],,8/5-1[8:1],,5,3,
{8}4,6<3[4:1],5,4,,,1/5,,
{4}5/6-2[8:1]*V82[8:1],6,4/3-7[8:1]*V17[8:1],3,
{4}5/6-2[8:1]*V82[8:1],6,4/3-7[8:1]*V17[8:1],3,
{16}4/5,,4/6,,3/6,,2/6,,2/7,,2/8,,1pp1[4:1],8,1,8,
{4}1<2[4:1],,5w1[8:1],5b,
{4}8/3-8[8:1],3/7-4[8:1],7/3^6[8:1]*^8[8:1],3,
{4}1/6-1[8:1],6/2-5[8:1],2/6^1[8:1]*^3[8:1],6,
{4}8/3-8[8:1],3/7-4[8:1],7/3^6[8:1]*^8[8:1],3,
{4}1/6-1[8:1],6/2-5[8:1],2/6^1[8:1]*^3[8:1],6,
{4}8/3-8[8:1],3/4-7[8:1],4/8^3[8:1]*^5[8:1],8,
{4}1/6-1[8:1],6/5-2[8:1],5/1^4[8:1]*^6[8:1],1,
{4}8/3-8[8:1],3/4-7[8:1],4/8^3[8:1]*^5[8:1],8,
{8}6-1[8:1],6,3-8[8:1],3,5-1[8:1],5,4b,,
{16}2h[8:3]/5h[8:3],,,,,,,,3,4,1,6,2,5,8,7,
{8}8-2[8:1],8,6-4[8:1],6,3-7[8:1],3,,,
{8}1h[16:1]/5h[16:1],2h[16:1]/6h[16:1],1h[16:1]/5h[16:1],4h[16:1]/8h[16:1],5/1>6[8:1],,1s5[8:3]/8z4[8:3],,
{16},,,,,,,,1/8,2/7,3/6,4/5,3h[8:1]/6h[8:1],,,,
{16}4h[8:3]/7h[8:3],,,,,,,,6,5,8,3,7,4,1,2,
{8}1-7[8:1],1,3-5[8:1],3,6-2[8:1],6,,,
{8}4h[16:1]/8h[16:1],3h[16:1]/7h[16:1],4h[16:1]/8h[16:1],1h[16:1]/5h[16:1],4h[16:1]/8h[16:1],4/8,,2/7,
{8}4/5,3/6,2/7,1/8,3-8[8:1]/6-1[8:1],,3b/6b,,
{4}4p8[8:1]/8^5[8:1],4q8[8:1]/8^3[8:1],4p8[8:1]/8^5[8:1],4/8,
{4}1^4[8:1]/5q1[8:1],1^6[8:1]/5p1[8:1],1^4[8:1]/5q1[8:1],1/5,
{8}4p8[8:1]/8^5[8:1],,4q8[8:1]/8^3[8:1],,4/8^5[8:1],,8,2,
{8}1,7pp2[4:1],8,1,,,2/5,,
{8}6/5-1[8:1]*V71[8:1],4/7,5,,3/4-8[8:1]*V28[8:1],2/5,4,,
{8}6/5-1[8:1]*V71[8:1],4/7,5,,3/4-1[8:1],2/5,4,7,
{8}8,2,1,2/7<3[4:1],,3>7[4:1],,7<7[2:1],
{4},,,1b/5b,
{4}4/5qq2[8:3],,8h[4:1],7,
{8}3h[4:1]/4h[4:1],,,3/4,2/5,3/4,,,
{4}5/4pp7[8:3],,1h[4:1],2,
{16}7h[16:3],,,6h[16:3],,,5,,4/7,,5/6,,,,,,
{8}3-6[8:1],3,2-5[8:1],2,1-4[8:1],1,6-3[8:1],6,
{8}7-4[8:1],7,8-5[8:1],8,4-1[8:1],4,5,5,
{8}6,5/7,3,2/4,7,6/8,2,1/3,
{16}7,8,6,1,5,2,4,3,
{641}4,,,,,,,,,,,,,,,,,,,,
{639}5,,,,,,,,,,,,,,,,,,,,6,,,,,,,,,,,,,,,,,,,,
{641}7,,,,,,,,,,,,,,,,,,,,8,,,,,,,,,,,,,,,,,,,,
{639}1,,,,,,,,,,,,,,,,,,,,2,,,,,,,,,,,,,,,,,,,,
{641}3,,,,,,,,,,,,,,,,,,,,
{4}4b/8b,
{4}1^4[8:1]/5^8[8:1],1/5-1[8:1],5-8[8:1],5/4-1[8:1],
{4}4/3^6[8:1]*^8[8:1],3-7[8:1],3/6>1[8:1],6,
{4}4^1[8:1]/8^5[8:1],8/4-8[8:1],4-1[8:1],4/5-8[8:1],
{4}5/6^1[8:1]*^3[8:1],6-2[8:1],6/3<8[8:1],3,
{4}2^5[8:1]/6^1[8:1],2/6-2[8:1],6-1[8:1],6/5-2[8:1],
{4}5/4^1[8:1]*^7[8:1],4-8[8:1],4/7<2[8:1],7,
{4}3^8[8:1]/7^4[8:1],7/3-7[8:1],3-8[8:1],3/4-7[8:1],
{8}4/5^2[8:1]*^8[8:1],,5-1[8:1],,5/2>7[8:1],,2/8b,8b,
E
