&title=りばーぶ
&artist=高橋菜々×岡部啓一(MONACA)
&wholebpm=120
&demo_seek=60.7
&demo_len=16.4
&lv_1=2
&lv_2=3
&lv_3=7
&lv_4=9+
&lv_5=11
&des_4=mai-Star
&des_5=rioN
&inote_1=(120.0){1},,,,,,
{1}1,
{1}1,
{1}2,
{1}2,
{1}3,
{1}3,
{1}4h[1:1],,
{1}5,
{1}5,
{1}6,
{1}6,
{1}7,
{1}7,
{1}8h[1:1],,
{1}8-5[4:3],,
{1}1-4[4:3],,
{1}5-8[4:3],,
{1}4-1[4:3],,
{1}8b,
{2}8,8,
{1}8,
{2}7,7,
{1}7,
{2}6,6,
{1}6,
{2}5,5,
{1}4/5,
{2}4,4,
{1}4,
{2}3,3,
{1}3,
{2}2,2,
{1}2,
{1}1h[1:1],,
{2}1,1,
{1}1,
{2}2,2,
{1}2,
{2}3,3,
{1}3,
{2}4,4,
{1}4/5,
{2}5,5,
{1}5,
{2}6,6,
{1}6,
{2}7,7,
{1}7,
{1}8h[1:1],,
{1}8-4[4:3],,
E
&inote_2=(120.0){1},,,,,,
{2}4,4,
{1}4h[2:1],
{2}5,5,
{1}5h[2:1],
{2}3,3,
{1}3h[2:1],
{1}3-6[4:3],,
{2}8,8,
{1}8h[2:1],
{2}1,1,
{1}1h[2:1],
{2}7,7,
{1}7h[2:1],
{1}7-2[4:3],,
{4}1,1,1,,
{4}2,2,2,,
{4}3,3,3,,
{1}4h[2:1],
{4}5,5,5,,
{4}6,6,6,,
{4}7,7,7,,
{1}8h[2:1],
{1}1b/8b,
{4}8,8,7,,
{4}7,7,6,,
{4}6,6,5,,
{1}4h[2:1]/5h[2:1],
{4}4,4,3,,
{4}3,3,2,,
{1}3-8[4:3],,
{4}1,1,2,,
{4}2,2,3,,
{4}3,3,4,,
{1}4h[2:1]/5h[2:1],
{4}5,5,6,,
{4}6,6,7,,
{1}6-1[4:3],,
{1}1/8,
{1}1/8,
{1}1/2,
{1}1/2,
{1}7/8,
{1}7/8,
{1}1-4[4:3]/8-5[4:3],,
{4}5,5,4/5,,
{4}3,3,3/4,,
{4}2,2,1/2,,
{1}8h[2:1],
{4}7,7,7/8,,
{4}6,6,5/6,,
{1}4-1[4:3]/5-8[4:3],,
{1}2h[1:2]/7h[1:2],,,
E
&inote_3=(120.0){1},
{2}3/4,3/4,
{2}5/6,5/6,
{4}4,3,2,1,
{4}8,7,6,5,
{4}4/5,4/5,4b/5b,,
{4}3,4,3,4,
{4}3,3,3/4,,
{4}6,5,6,5,
{4}6,6,5/6,,
{2}2/4,5/7,
{4}4,5,4,5,
{1}4^1[4:3]/5^8[4:3],
{2},1/8,
{4}2,1,2,1,
{4}2,2,1/2,,
{4}7,8,7,8,
{4}7,7,7/8,,
{2}1/3,6/8,
{4}1,8,1,8,
{1}1^4[4:3]/8^5[4:3],
{2},4/5,
{4}3,3,3/4,6,
{4}6,5/6,3,3,
{4}2/4,6,6,5/7,
{4}4/5,4/5,3/6,3/6,
{4}3h[2:1],4,4,6h[2:1],
{4}5,5,7h[2:1],8,
{4}8,2h[2:1],1,1,
{4}1/8,1/8,2/7,,
{4}4/5,4/5,4b/5b,,
{4}3,4,3,3/4,
{4}6,5,6,5/6,
{4}3h[4:1],4,6h[4:1],5,
{1}4^1[2:1]/5^8[2:1],
{4}2,1/2,7,7/8,
{4}1/2,7/8,1/2,7/8,
{1}1w5[4:5],,
{4}6,5,7,5/6,
{4}3,4,2,3/4,
{4}7h[4:1],5,2h[4:1],4,
{1}4^1[2:1]/5^8[2:1],
{4}7,6/8,2,1/3,
{4}7/8,1/2,7/8,1/2,
{1}8w4[4:5],,
{2}3h[2:1],4h[2:1],
{2}5h[2:1],6,
{2}6h[2:1],5h[2:1],
{2}4h[2:1],3,
{4}3,3,4,4,
{4}6,6,5,4^1[1:1]/5^8[1:1],{1},
{4},,4/5,4/5,
{4}6,5/6,3,3/4,
{4}6,5/7,3,2/4,
{4}2,1/2,7,7/8,
{4}1/8,1/8,2b/7b,,
{4}2,1/2,7,7/8,
{4}2,1/3,7,6/8,
{1}2h[2:1]/7h[2:1],
{8}1,1,1,,8,8,8,,
{2}1b^4[4:5]/8b^5[4:5],{1},,
E
&inote_4=(120.0){1},,,,,
{8}1,1,8,8,2b/7b,,1b,,
{2}2-4[8:1],1-5[8:1],
{1}8<2[2:1],
{2}7-5[8:1],8-4[8:1],
{1}1>7[2:1],
{2}1-3[8:1]*-7[8:1],8-2[8:1]*-6[8:1],
{2}3^1[8:1],6^8[8:1],
{1}2qq7[2:1],
{4}8b,2b/7b,3b/6b,4b/5b,
{2}4-1[8:1],5-8[8:1],
{1}1v4[8:3]/8v5[8:3],
{2}4-1[8:1],8-5[8:1],
{4}4,3,2,1,
{2}7h[4:1]/8h[4:1],1h[4:1]/2h[4:1],
{4}8h[4:1],6h[4:1],4h[4:1],2-5[4:1],
{4}1-6[4:1],,,2/7,
{4}6,7,8,2b/7b,
{4}3h[2:1],4,2,6h[2:1],
{4}5,7,4h[4:1],5h[4:1],
{8}3,3,6,6,2,2,7,7,
{1}1v8[8:3],
{4}3/4,4/5,5/6,1/2,
{4}1/8,7/8,2/7,1/8,
{2}2-5[8:1],8-5[8:1],
{1}5w1[2:1],
{8}8,8,1,1,2b/7b,,,,
{4}3h[4:1],2,6h[4:1],7,
{4}3h[4:3],1,7,5,
{2}6^3[4:1],2q7[4:1],
{1}8pp3[2:1],
{8}2h[4:1],1,1,,7h[4:1],8,8,,
{4}1/8,2/3,4/5,6/7,
{1}1pp4[4:3]/8qq5[4:3],
{4},4/5,3/6,4/5,
{4}6h[4:1],7,3h[4:1],2,
{4}6h[4:3],8,2,4,
{2}3^6[4:1],7p2[4:1],
{1}1qq6[2:1],
{8}7,7,8,8,1,1,2,2,
{4}7/8,5/6,3/4,1/2,
{1}7-4[2:1]/8-3[2:1],
{8}1/8,1/8,2/7,2/7,1b/8b,,3/6,,
{4}3h[4:3],4,,4,
{4}4h[4:3],5,,5,
{4}5h[2:1],6,6h[2:1],7,
{1}7V53[2:1],
{4}7,8,1,2,
{4}3/4,5/6,2/3,6/7,
{1}1^4[2:1]/8^5[2:1],
{8}1/8,1/8,3/6,3/6,1b/8b,,2/7,,
{4}4h[4:1],1,5h[4:1],8,
{4}4h[4:1],2^7[4:1],,,
{4}4h[4:1],3,5h[4:1],6pp2[8:5],{1},
{4}7-5[8:1],8-4[8:1],1-5[8:1],2-4[8:1],
{4},5,5/6,3/4,
{8}3/6,5,4,6,3,7,2,8,
{8}1,8,1,8,2,7,1,8,
{4}2b>8[2:3]/7b<1[2:3],,,{1},,
E
&inote_5=(120.0){1},
{8}2,1,2,1,3/8,,7,8,
{8}7,8,1/6,,1,1,8,8,
{8}1,2,3,4,5,6,7,8,
{16}1,2,3,4,5,6,7,8,1,2,3,4,5,6,7,8,
{8}1/5,2/6,3/7,4/8,1b/5b,,,,
{8}4,5,4,5,2,1,2,1,
{8}2>7[4:1],,1,,8,,1,8,
{4}7^4[8:1],8,2^5[8:1],1,
{8}7^4[8:1],,8,,2^5[8:1],,1,1,
{8}8,7p2[8:1],,8,1,2q7[8:1],,1,
{16}8,,2,,7,,3,,6,,4,5,4,,4/5,,
{1}3>5[2:1]/6<4[2:1],
{4}4/5,3/6,2/7,1/8,
{8}5,4,5,4,7,8,7,8,
{4}7<2[4:1],8,1,1/8,
{2}2-7[8:1]/3-6[8:1],6-3[8:1]/7-2[8:1],
{2}2q7[8:1]/3^6[8:1],6^3[8:1]/7p2[8:1],
{8}1,3v6[8:1],,1,8,6v3[8:1],,8,
{16}1,,7,,2,,6,,3,,5,4,5,,4/5,,
{1}3<8[2:1]/6>1[2:1],
{4}1/8,2/7,3/6,4/5,
{8}7h[2:1],6,5,4,3,,2h[2:1],1,
{8}8,7,6,,5h[2:1],6,7,8,
{4}1^4[4:1],4^7[4:1],7^2[4:1],2^5[4:1],
{1}5pp1[2:1],
{8}2h[2:1],3,4,5,6,,7h[2:1],8,
{8}1,2,3,,4h[2:1],3,2,1,
{4}8^5[4:1],5^2[4:1],2^7[4:1],7^4[4:1],
{1}4qq8[2:1],
{8}4/8,3/7,2/6,1/5,1,8,2,7,
{8}1b-4[8:1]*-6[8:1],,,,8,1,7,2,
{8}8b-3[8:1]*-5[8:1],,,,,,3/6,2/7,
{2}1p4[8:1]/8^5[8:1],1^4[8:1]/8q5[8:1],
{2}7^4[8:1]/8p3[8:1],1q6[8:1]/2^5[8:1],
{8}8,7,6,5,4,3,2,1,
{4}8-5[8:1],8-3[8:1],8-4[8:1],8^2[8:1]*^6[8:1],
{1}8bw4[2:1],
{8}1/5,2/6,3/7,4/8,8,1,6,3,
{8}8b-3[8:1]*-5[8:1],,,,1,8,3,6,
{8}1b-4[8:1]*-6[8:1],,,,,,3/6,2/7,
{2}1V35[8:1]/8v6[8:1],1v3[8:1]/8V64[8:1],
{2}1v7[8:1]/2V46[8:1],7V53[8:1]/8v2[8:1],
{8}1,2,3,4,5,6,7,8,
{4}1-4[8:1],1-6[8:1],1-5[8:1],1^3[8:1]*^7[8:1],
{1}1bw5[2:1],
{8}4/8,1/5,2/6,3/7,4qq1[2:1]/8qq5[2:1],,,,
{2},1pp4[2:1]/5pp8[2:1],
{8},,,,2/7,,1,8,
{4}2-5[8:1],7-4[8:1],3-8[8:1],6-1[8:1],
{1}4>5[2:1],
{8}4,4,5,5,3,3,6,6,
{4}1/2,7/8,3/4,5/6,
{1}1>8[2:1]/8<1[2:1],
{8}1/8,2/7,3/6,4/5,1-5[8:1],,1^4[8:1]*^6[8:1],,
{4}1b,,8-4[8:1],8^3[8:1]*^5[8:1],
{8}8b,,2/7,2/7,,,1/8,1/8,
{4}1-6[8:1]/2-5[8:1],1/2,7-4[8:1]/8-3[8:1],7/8,
{1}1b>8[2:1]/8b<1[2:1],
{8}1,1,8,8,2,2,7,7,
{4}1-4[8:1]*-6[8:1],1,8-3[8:1]*-5[8:1],8,
{1}1pp4[2:1]/8qq5[2:1],
{8}1/5,2/6,3/7,4/8,1/5,4/8,3/7,2/6,
{1}5/1bw5[4:7],,,
E
