&title=ひみつをちょーだい
&artist=アルスマグナ
&wholebpm=160.0
&lv_1=2
&lv_2=4
&lv_3=6
&lv_4=7+
&lv_5=9+
&des_4=はっぴー
&des_5=某S氏
&inote_1=(160.0){1},1,
{1}1,
{1}8,
{1}8,
{1}1,
{1}1,
{1}8,
{1}8b,
{1}1,
{1}2,
{1}3,
{1}4,
{1}5,
{1}6,
{1}7,
{1}8,
{1}1,
{1}1,
{1}1h[1:1],,
{1}2,
{1}2,
{1}2h[1:1],,
{1}3,
{1}3,
{1}3h[1:1],,
{1}4,
{1}4,
{1}5,
{1}5,
{1}4-1[4:3],,
{1}8-5[4:3],,
{1}4,
{1}5,
{1}6,
{1}7h[1:1],,
{2}8,8,
{1}8,
{2}1,1,
{1}1,
{2}2,2,
{1}2,
{2}3,3,
{1}3,
{1}4/5,
{1}4/5,
{1}4/5,
{1}4/5,
{2}6,6,
{1}6,
{2}7,7,
{1}7,
{1}8,
{1}8,
{1}1,
{1}1,
{1}8,
{1}8,
{1}1,
{1}1b/8b,
E
&inote_2=(160.0){1},
{2}1,1,
{1}1,
{2}8,8,
{1}8,
{2}1,1,
{1}1/2,
{2}8,8,
{1}7/8,
{1}1-4[4:3],,
{1}8-5[4:3],,
{1}4-1[4:3],,
{1}5-8[4:3],,
{2}1,1,
{2}2,2,
{1}3h[2:1]/4h[2:1],
{1}3h[2:1]/4h[2:1],
{2}5,5,
{2}6,6,
{1}7h[2:1]/8h[2:1],
{1}7h[2:1]/8h[2:1],
{2}8,8,
{2}7,7,
{1}5h[2:1]/6h[2:1],
{1}5h[2:1]/6h[2:1],
{2}4,4,
{1}3h[2:1],
{2}2,2,
{2}1,1/8,
{1}2h[2:1],
{1}4h[2:1],
{1}5h[2:1],
{1}7h[2:1],
{2}8,7/8,
{2}1,1/2,
{2}3,4,
{1}4-1[4:3]/5-8[4:3],,
{4}1,1,2,2,
{4}3,3,4,4,
{4}5,5,6,6,
{1}7h[2:1],
{4}8,8,7,7,
{4}6,6,5,5,
{4}4,4,3,3,
{1}2h[2:1],
{2}1/2,1/2,
{2}3/4,3/4,
{2}5/6,5/6,
{2}7/8,7/8,
{1}7h[2:1]/8h[2:1],
{1}5h[2:1]/6h[2:1],
{1}3h[2:1]/4h[2:1],
{1}1h[2:1]/2h[2:1],
{2}1,1,
{1}2h[2:1]/8h[2:1],
{2}8,8,
{1}1h[2:1]/7h[2:1],
{2}1,8,
{1}2h[2:1]/7h[2:1],
{2}2/8,1/7,
{1}1b/8b,
E
&inote_3=(160.0){1},
{4},3/4,,3/4,
{1}4h[8:3]/5h[8:3],
{4},5/6,,5/6,
{1}4h[8:3]/5h[8:3],
{4},3/6,,3/6,
{1}2h[8:3]/7h[8:3],
{4}1/8,1/8,2/7,3/6,
{4}4/5,4/5,,,
{4}3,3,4,3,
{4}6,6,5,6,
{4}3,3,4,3,
{4}6,6,5/7,,
{4}7,7,8,7,
{4}2,2,1,2,
{4}7,7/8,2,1/2,
{4}8,1/8,2/7,,
{4}6,5/6,5/6,,
{4}7,6,5,4,
{2}3h[2:1],4,
{2}6h[2:1],5,
{4}3,3/4,3/4,,
{4}2,3,4,5,
{2}6h[2:1],5,
{2}3h[2:1],4,
{4}4/5,3/6,3/6,,
{4}3,4,5,6,
{2}7h[2:1],8,
{2}2h[2:1],1,
{4}3,4,3,3,
{4}6,5,6,6,
{4}2,4,3,3,
{4}7,5,6,5/6,
{2}3h[2:1],4h[2:1],
{2}5h[2:1],6,
{2}6h[2:1],5h[2:1],
{2}4h[2:1],3,
{4}3,3,2/4,,
{4}6,6,5/7,,
{4}4,3,2,1,
{4}8,7,6,5b,
{4},,4/5,4/5,
{4}6,5/6,3,3/4,
{4}2,1/2,7,7/8,
{4}2,1/2,7,7/8,
{4}1,1/8,1/8,,
{4}6,5,6,6,
{4}3,4,3,3,
{4}4/5,3/6,2/7,1/8,
{4}2/7,,4/5,4/5,
{4}6,6,4/5,4/5,
{4}3,3,3/4,3/4,
{4}6,6,5/6,5/6,
{4}4/5,4/5,3/6,,
{1}6^3[8:3],
{1}2^7[8:3],
{1}6q3[8:3],
{4}1/8,1/8,2b/7b,,
{4},5/6,,5/6,
{4}4h[8:3]/7h[8:3],,,4/5,
{4},3/4,,3/4,
{4}2h[8:3]/5h[8:3],,,4/5,
{4},4/5,,4/5,
{4}3h[8:3]/6h[8:3],,,4/5,
{4}7,8,1,2,
{4}3,4/5,
E
&inote_4=(160.0){1},
{4},5/6,,5/6,
{1}5^2[8:3]/6^1[8:3],
{4},3/4,,3/4,
{1}3^8[8:3]/4^7[8:3],
{4},4/5,,4/5,
{1}4^1[8:3]/5^8[8:3],
{4}2/7,1/8,2/7,1/8,
{1}1^4[4:1]/8^5[4:1],
{4}2/8,3,1/7,6,
{4}2/8,3,1/7,6,
{4}7/8,1/6,1/2,3/8,
{8}7/8,,1/6,,2/7,2/7,,,
{4}2/8,7,1/3,4,
{4}2/8,3/4,2/5,1/6,
{4}7,1b/2b,3,7b/8b,
{8}3/6,,1b/8b,,4/5,4/5,4/5,,
{4}6,5/6,3,3/4,
{4}6,5/7,3,2/4,
{8}5h[4:1]/6h[4:1],,,5/6,4/7,,4/5,,
{8}3h[4:1]/4h[4:1],,,3/4,2/5,,4/5,,
{4}2,1/2,7,7/8,
{4}2,1/3,7,6/8,
{8}1h[4:1]/2h[4:1],,,1/2,3/8,,4/5,,
{8}7h[4:1]/8h[4:1],,,7/8,1/6,,4/5,,
{4}7,7/8,3,3/4,
{4}2,1/2,6,5/6,
{8}1h[4:1]/8h[4:1],,,1/8,2/7,,4/5,,
{8}4h[4:1]/5h[4:1],,,4/5,3/6,,2/7,,
{4}6h[4:1],5,3h[4:1],4,
{4}7/8,1/6,2/5,3/4,
{4}7h[4:1],8,2h[4:1],1,
{4}3/4,2/5,1/6,7b/8b,
{8}3h[8:3],,,4,4,,1/7,,
{8}6h[8:3],,,5,5,,2/8,,
{8}3h[8:3],,,4,4,,1/7,,
{8}6h[8:3],,,5,5,,2/8,,
{4}4/7,5qq3[4:1]/6pp8[4:1],,,
{4}2/5,3qq1[4:1]/4pp6[4:1],,,
{4}1/8,2/7,3/6,4/5,
{1}4^1[4:3]/5^8[4:3],
{4},,4/5,4/5,
{4}5/4h[4:3],6,7,8,
{4}4/8h[4:3],3,2,1,
{4}7/8,7/8,1/2,1/2,
{4}1-4[4:1]/8-5[4:1],,,4/7,
{4}5-2[4:1]/6-1[4:1],,,2/5,
{4}3-8[4:1]/4-7[4:1],,,5/6,
{4}3/4,4/6,3/5,4/5,
{4}2b/7b,,1/8,1/8,
{4}6/8,6/8,1/8,1/8,
{4}1/3,1/3,1/8,1/8,
{4}7h[4:1],5h[4:1],4h[4:1],2qq7[2:1],{1},
{4}2h[1:1],,4,4,
{4}7h[1:1],,5,5,
{4}2h[2:1],,4,4/5,
{4}1/8,2/7,3/6,4b/5b,
{4}5/6,8,5/6,2pp5[2:1],{1},
{4}3/4,1,3/4,7qq4[2:1],{1},
{4}5/6,8,5/6,2pp5[2:1],{1},
{4}7/8,1/6,1/2,3/8,
{2}1^4[4:1]/8^5[4:1],,
E
&inote_5=
(160.0){1},
{4}3h[4:1],1,6h[4:1],8,
{8}6,5,4,3^6[8:1],,,,,
{4}7h[4:1],5,2h[4:1],4,
{8}2,1,8,7^2[8:1],,,,,
{4}4h[4:1],2,5h[4:1],7,
{8}4/5,3/6,2/7,1^4[8:1]/8^5[8:1],,,,,
{2}2h[4:1]/4h[4:1],6h[4:1]/8h[4:1],
{8}1/5,2/6,3/7,4b-1[8:1]/8b-5[8:1],,,,,
{8}2,1,3/8,,7,8,1/6,,
{4}4-6[8:1],3-7[8:1],2-8[8:1],,
{4}5/4h[4:1],1,4/5h[4:1],8,
{8}5/4h[4:1],,1,,4/5,4/5,,,
{8}7,8,1/6,,2,1,3/8,,
{4}5-3[8:1],6-2[8:1],7-1[8:1],,
{4}4/5h[4:1],8b,5/4h[4:1],1b,
{8}4/5h[4:1],,8b,,5/4h[4:1],1b,1b,,
{4}1,1/2-5[8:1],1b,,
{4}8,4/6,1,3/5,
{8}4h[2:1],,,7,7-3[8:1],,1,,
{8}5h[2:1],,,2,2-6[8:1],,8,,
{4}7-4[8:1],8-3[8:1],7b,,
{8}1,2,3/5,,8,7,4/6,,
{4}2h[4:3]/1<3[4:1],,,8,
{4}7h[4:3]/8>6[4:1],,,1-5[8:1],
{4}8-6[8:1],2-4[8:1],1b,,
{8}8,7,4/6,5,1,2,3/5,4,
{8}6^3[8:1],,,1-5[8:1],1,,8,,
{8}3^6[8:1],,,8-4[8:1],8,,1,,
{8}6,7,8,1,2,3,4,5h[8:7],
{4}6,3,7,1b,
{8}3,2,1,8,7,6,5,4h[8:7],
{4}3,6,2,8b,
{4}2^5[8:1],8,7^4[8:1],1-5[8:1],
{8}7-4[8:1],,2-5[8:1],,7,8b,8b,,
{4}7^4[8:1],1,2^5[8:1],8-4[8:1],
{8}2-5[8:1],,7-4[8:1],,2,1b,1b,,
{8}1h[4:1],,4h[4:1],,7h[4:1],8b,8b,,
{8}8h[4:1],,5h[4:1],,2h[4:1],1b,1b,,
{4}1h[4:1],8h[4:1],7h[4:1],6h[4:1],
{1}5w1[4:3],
{2},4b-1[8:1]/5b-8[8:1],
{2}4-2[8:1]/5-1[8:1],4-8[16:1]/5-7[16:1],
{2}5-2[8:1]/6-8[8:1],3-1[8:1]/4-7[8:1],
{2}2-5[8:1]/8-6[8:1],1-3[8:1]/7-4[8:1],
{4}1qq7[4:1]/8pp2[4:1],,,4/5,
{8}4/6h[4:1],,8,8,,1/8,2/7,,
{8}5/3h[4:1],,1,1,,1/8,2/7,,
{8}4/6h[4:1],,8,8,,1/8,2/7,,
{4}1/2,7/8,5/6,3/4,
{8}4/6,5,4/6,,3/5,4,3/5,,
{8}5/7,6,5/7,,2/4,3,2/4,,
{4}1^4[4:1],4^7[4:1],7^2[4:1],2qq5[2:1],
{4},,,8,
{8}7/8,,6,5,6,,3/7,,
{8}1/2,,3,4,3,,2/6,,
{8}7/8,,6,5,6,,3/7,,
{8}2,1,8,7,5/6,,3/4,,
{4}5/6h[4:1],8,4/3h[4:1],1,
{8}3,4,5,6^3[8:1]/7p2[8:1],,,,,
{4}1/2h[4:1],4,8/7h[4:1],5,
{8}7,8,1,2^7[8:1]/3p6[8:1],,,,,
{4}3/5h[4:1],7,6/4h[4:1],2,
{8}4/5,3/6,2/7,1<5[8:1]/8>4[8:1],,,,,
{8}4/7,6,5,4,2/6,3,4,,
{8}4/8,3/7,2/6,1b^4[8:1]/5b^8[8:1],,,,
E
