&title=welcome to maimai!! with マイマイマー
&artist=Hiro feat.越田Rute隆人
&wholebpm=163
&demo_seek=50.1
&demo_len=25.6
&lv_1=3
&lv_2=6
&lv_3=8
&lv_4=9+
&lv_5=12+
&des_4=mai-Star
&des_5=某S氏
&inote_1=(163.0){1},,,
{1}1,
{1}1,
{1}1,,
{1}8,
{1}8,
{1}8,,
{1}1,
{1}2,
{1}3,
{1}4,
{1}5,
{1}6,
{1}7,
{1}8,
{1}1h[1:1],,
{1}2h[1:1],,
{1}3h[1:1],,
{1}4h[1:1],,
{1}4,
{1}3,
{1}2,
{1}1,
{1}8,
{1}7,
{1}6,
{1}5,
{2}5,5,{1},
{2}6,6,{1},
{2}7,7,{1},
{2}8,8,{1},
{2}1,1,{1},
{2}2,2,{1},
{2}3,3,{1},
{2}4,4,{1},
{1}4/5,
{1}4/5,
{2}4,4,
{1}4,
{1}4/5,
{1}4/5,
{2}5,5,
{1}5,,
{1}4-1[4:3],,
{1}8-5[4:3],,
{1}6-3[4:3],,
{1}2-7[4:3],,
{1}8h[1:1],,
{1}7h[1:1],,
{1}6h[1:2],,,,
{2}5,5,
{1}5,
{2}6,6,
{1}6,
{2}7,7,
{1}7,
{2}8,8,
{1}8,
{2}1,1,
{1}1,
{2}2,2,
{1}2,
{2}3,3,
{1}3,
{2}4,4,
{1}4,
{2}5,5,
{2}4,4,{1},
{1}5b,
E
&inote_2=(163.0){1},,,
{1}1,
{1}8,
{1}1,
{1}2h[2:1],
{1}1,
{1}8,
{1}1,
{1}2h[2:1],
{2}1,1,
{2}2,2,
{1}3-7[4:3],,
{2}8,8,
{2}7,7,
{1}6-2[4:3],,
{2}1,1,
{2}2,2,
{2}3,3,
{2}4,4,
{2}5,5,
{2}6,6,
{1}7h[1:1],,
{2}8,8,
{2}7,7,
{2}6,6,
{2}5,5,
{1}4h[1:1]/3h[1:1],
{2},3,
{1}1h[1:1]/2h[1:1],,
{4}1,1,2,,
{4}8,8,7,,
{2}1/2,1/2,
{2}7/8,7b/8b,
{4}6,6,5,,
{4}3,3,4,,
{2}5/6,5/6,
{2}4/3,4/3,
{4}1,2,1,,
{4}8,7,8,,
{2}1/2,1/2,
{2}7/8,7b/8b,
{4}6,5,6,,
{4}3,4,3,,
{2}5/6,6/5,
{1}4h[2:1]/3h[2:1],
{1}1/8,
{1}2/7,
{4}1,1,1,8,
{4}8,8,,,
{1}1/8,
{1}2/7,
{4}1,1,1,8,
{4}8,8,,,
{1}1b,
{1}1-6[4:3],,
{1}8-3[4:3],,
{1}2-5[4:3],,
{1}7-4[4:3],,
{1}3-8[4:3],,
{1}6-1[4:3],,
{1}4-7[4:3],,
{1}5-2[4:3],,
{4}1,2,2,,
{4}8,7,7,,
{2}1/2,8/1,
{4}7/8,7/8,8b/7b,,
{4}5,6,6,,
{4}4,3,3,,
{2}6/5,4/5,
{4}3/4,4/3,3/4,,
{4}1,2,1,,
{4}8,7,8,,
{2}7/8,1/8,
{4}1/2,1/2,1b/2b,,
{4}4,3,4,,
{4}5,6,5,,
{2}5/6,5/4,
{1}3h[2:1]/4h[2:1],
{4}1,2,3,4,
{4}5,6,7,8,{1},
{1}1b/8b,
E
&inote_3=(163.0){1},,,
{1}1>5[2:1],
{1}8<4[2:1],
{1}1-4[2:1]/8-5[2:1],
{8}4h[2:1]/5h[2:1],,,,,4/5,4/5,,
{1}2<6[2:1],
{1}7>3[2:1],
{1}4-1[2:1]/5-8[2:1],
{8}1h[2:1]/8h[2:1],,,,,1/8,1b/8b,,
{4}2,1,3/8,,
{4}4,5,3/6,,
{4}7,8,1/6,,
{8}3/4,,5/6,,4,5,4,,
{4}7,8,6/1,,
{4}5,4,6/3,,
{4}2,1,8/3,,
{8}6/5,,4/3,,5,4,5,,
{4},3/4,5/4,5/6,
{1}4q5[4:3],
{4},5/6,5/4,4/3,
{8}2h[4:1],,1,1,,,7/8,,
{4}6,6/5,3,3/4,
{4}7,7/5,2,2/4,
{1}3>6[1:1],
{4},,2/7,8/1,
{4},5/6,5/4,3/4,
{1}5p4[4:3],
{4},4/3,5/4,6/5,
{8}7h[4:1],,8,8,,1>8[8:7],,,{1},
{8}1/8,,,,8,8<1[8:7],,,{1},
{1}8b/1b,
{4}3,3,4/3,6,
{8}6,,6/5,,4,5,4,,
{4}6/5,4/3,2/1,7/8,
{8}1h[4:1],,7h[4:1],,8,8,8b,,
{4}2,2,2/1,7,
{8}7,,7/8,,1,8,1,,
{4}7/8,1/2,3/4,6/5,
{4}4h[4:1],5h[4:1],4,7/2,
{4}3,4,5/2,6,
{8}5,,4/7,,5,4,5,,
{4}3/4,5/6,8/7,1/2,
{4}8h[4:1],1h[4:1],8,8b/1b,
{4}2,1,3/8,7,
{8}8,,1/6,,8,1,8,,
{4}7/2,6/3,4/5,3^1[8:3]/6^8[8:3],
{8},,,,,8/1,8b/1b,,
{1}2^5[2:1],
{1}7^4[2:1],
{4}6/4,3/5,4/2,3/5,
{8}6/4,,7/5,,,8/1,1/8,,
{1}7^4[2:1],
{1}2^5[2:1],
{4}5/3,6/4,5/7,6/4,
{4}5/3,4/2,6/3,8/1,{1},
{2}3h[2:1],5h[2:1],
{4}4h[2:1],,5,4,
{2}3h[2:1],5h[2:1],
{2}4h[2:1],6,
{2}6h[2:1],4h[2:1],
{4}5h[2:1],,4,5,
{2}6h[2:1],4h[2:1],
{2}5h[2:1],3,
{2}3h[2:1],6h[2:1],
{4}5,4,4/3,,
{4}3,3,4,4,
{4}5,5,6/5,,
{2}4h[2:1],7,
{2}6h[2:1],1>8[4:5],{1},,
{4}8,7,6/5,1,
{8}2,,3/4,,5,4,5,,
{4}3/4,6/5,7/8,1/2,
{8}8h[4:1],,2h[4:1],,1,1,1b,,
{4}2,1,8/7,7,
{8}8,,2/1,,8,1,8,,
{4}1/2,8/7,6/5,3/4,
{4}4h[4:1],5h[4:1],4,2/7,
{8}3,5,3,,5/4,,6,4,
{8}6,,4/5,,5,4,5,,
{4}3/4,5/6,7/8,1/2,
{8}8h[4:1],,1h[4:1],,8,1,8,,
{8}2,1,2,,1/8,,7,8,
{8}7,,8/1,,1,8,1,,
{4}8/1,7/2,6/3,4^1[8:3]/5^8[8:3],
{8},,,,,1/8,1b/8b,,
{4}2/6,3/7,4/8,7/3,
{4}6/2,1/5,3/6,7h[1:1]/2h[1:1],
{8},,,,,,,7b/2b,
{1}7b/2b,
E
&inote_4=(163.0){1},
{2}4,3,
{4}4,3,2,1b,
{1}2h[4:3]/7h[4:3],
{1}3h[4:3]/6h[4:3],
{1}1h[4:3]/8h[4:3],
{8}6h[2:1],,,,,8b,8b,,
{1}2h[4:3]/7h[4:3],
{1}3h[4:3]/6h[4:3],
{1}1h[4:3]/8h[4:3],
{8}6h[2:1],,,,,8b,8b,,
{4}3,2,1/8,,
{4}6,7,8/1,,
{4}3/6,2/7,8/1,,
{8}3h[2:1]/6h[2:1],,,,,8b,8b,,
{4}3h[4:1],4h[4:1],5,,
{4}6h[4:1],5h[4:1],4,,
{4}2h[4:1],1h[4:1],8,,
{4}6h[2:1]/3h[2:1],,,8b/1b,
{4}3,3,3,3/4,
{4}3/4,5/6,4/3,5/6,
{4}6,6,6,6/5,
{4}6/5,3/4,5/6,3/4,
{8}4h[2:1]/5h[2:1],,,,,,3,2,
{8}1,,8/7,,7,7,,6<3[2:1],{1},
{8},1,8,,2b/7b,,8b/1b,,
{4}1,3h[2:1],4,4,
{4}5/6,1,4/3,8,
{4}6h[4:3],5,5,5,
{4}2/1,5,7/8,4,
{1}4>5[4:3]/5<4[4:3],
{16},,,,,,1/8,,1/8,,,2/7,,,
{8}6/3>6[8:5],{1},
{4}8b/1b,7/2,6/3,4/5,
{8}4/3,,3,4,3,,6/5,,
{8}6,5,6,,6/3,,8/1,,
{4}1/2,8/3,7/4,6/5,
{8}8/7,,6/1,,5/2,1b,1b,,
{8}3,4,3,4,4/3,,6,5,
{8}6,5,5/6,,7/5,,6/5,,
{4}4/3,2/1,7/8,6/5,
{8}3/6,,1/8,1/8,1-4[8:1]/8-5[8:1],,,,
{8}2/5,3,4,3,5/2,,7/4,6,
{8}5,6,4/7,,1,5,3,7,
{8}1,5,2,6,3,7,4,8,
{4}2/7,4/5,6b/3b,1b/8b,
{8}3/8,2,1,2,3/8,,6/1,7,
{8}8,7,6/1,,8,4,6,2,
{2}7-4[8:1]/8-4[8:1],1-5[8:1]/2-5[8:1],
{8}3h[2:1]/6h[2:1],,,,,1b,1b,,
{4}6,6,6,6h[1:1],
{4}5,5,5h[4:1],,
{4}2b/1b,8b/3b,4b/7b,8b/7b,
{8}1b/6b,,5b/2b,,,1b,1b,,
{4}3,3,3,3h[1:1],
{4}4,4,4h[4:1],,
{4}7b/4b,3b/8b,1b/2b,5b/2b,
{4}1b/6b,7b/8b,8/1,1h[2:1]/8h[2:1],{1},
{1}2^7[2:1],
{1}7^2[2:1],
{1}2^7[2:1],
{1}7^2[2:1],
{1}2^7[2:1],
{1}6q3[2:1],
{1}2^7[2:1],
{1}6q3[2:1],
{4}2h[4:1],3h[4:1],4h[4:1],7h[4:1],
{4}6h[4:1],5h[4:1],1,8h[4:1],
{4}2h[4:1],7h[4:1],3h[4:1],6h[4:1],
{4}4h[4:1],5,2/7,,
{2}1h[4:1]/8h[4:1],7h[4:1]/2h[4:1],
{8}2h[2:1],,,,8h[8:3],,,1<2[8:7],{1},
{4}8b,1,1,1,
{4}2-5[8:1],8,7-4[8:1],1,
{4}1-5[8:1],7,8-4[8:1],2,
{4}3/2,3/1,3/8,3/7,
{8}6/5,,4/3,,7/2,1b,1b,,
{4}3-8[8:1],5,6-1[8:1],4,
{4}4-8[8:1],6,5-1[8:1],3,
{4}7/8,1/2,6/3,8/1,
{16}8/1,,,8/1,,,1/8,,2,,7,,8b/1b,,,,
{4}1h[2:1],8h[2000:501],,7-4[8:1],
{4}2-5[8:1],,4/3,5/6,
{4}3h[4:1],4h[4:1],5h[4:1],6h[4:1],
{8}2h[4:1],,7,,1b/8b,8b/1b,1b/8b,,
{4}2^7[8:1],6q3[8:1],,1^4[8:1],
{4}8^5[8:1],,4,8/1,
{4}5/1,6/2,3/7,4/8,
{8}7h[2:1]/2h[2:1],,,,,1b,1b,,
{4}2b/1b,8b/3b,7b/4b,8b/7b,
{4}6b/1b,5b/2b,8b/1b,6h[4:3]/3h[4:3],
{8},,,,,,,8b/1b,
{1}1b/8b,
E
&inote_5=(163.0){1},
{2}1,2,
{4}1b/8b,2b/7b,3b/6b,4b/5b,
{4}2h[4:1]/7h[4:3],,2,2,
{4}6h[4:1]/3h[4:3],,6,6,
{4}1h[4:1]/8h[4:3],,1,1,
{8}2h[4:1],,4h[4:1],,6h[4:1],8,8,,
{4}7h[4:1]/2h[4:3],,7,7,
{4}3h[4:1]/6h[4:3],,3,3,
{4}8h[4:1]/1h[4:3],,8,8,
{8}7h[4:1],,5h[4:1],,3h[4:1],1,1,,
{8}8,7,6,5,4,3h[4:1],,2h[4:1],
{8},1-5[8:1],,,,6,7,8<1[8:5],{1},
{8}2h[4:1],,4h[4:1],,6h[4:1],8,8,,
{8}1,2,3,4,5,6h[4:1],,7h[4:1],
{8},8-4[8:1],,,,3,2,1h[8:3],
{8},2>7[8:3],2,,,,,,
{8}7h[4:1],,5h[4:1],,3h[4:1],1,1,,
{4}2^5[8:1],8,7^4[8:1],1,
{4}1/2^5[8:1],8,8/7^4[8:1],1,
{4}3^8[8:1],5,6^1[8:1],4,
{4}4/3^8[8:1],5,5/6^1[8:1],4,
{4}2^5[8:1],1,7^4[8:1],8,
{4}5/2^5[8:1],8,4/7^4[8:1],1,
{1}3>6[2:1],
{8},5,4,5,3,6,2,7,
{8}1-5[8:1],8,1,,6-2[8:1],5,6,,
{8}3-7[8:1],4,3,,8-4[8:1],1,8,,
{8}5-1[8:1],6,5/7,,7-3[8:1],8,7/1,,
{8}2-6[8:1],1,8/2,,4-8[8:1],3,2/4,,
{8}1-6[8:1],2,3,4,5-2[8:1],6,7,8,
{16}8/1,,,,,,1/5,,3/7,,,6/2,,,
{8}4>8[8:3]/8<4[8:3],{1},
{4}1b/8b,7/2,6/3,5/4,
{8}4,5,6/2,3/7,6/2,,5,4,
{8}3/7,2/6,3/7,,4,5,6,7,
{4}8-4[8:1],8-3[8:1],8-5[8:1],8^3[4:1],
{8}3^6[4:1],,6-2[4:1],,8,1b,1b,,
{8}4,5,6/8,7/1,2/8,,5,4,
{8}1/3,8/2,1/7,,4,5,6,7,
{4}7/8-4[8:1],1,2/1-5[8:1],8,
{8}1-4[8:1]/8-5[8:1],,1/8,,8b/1b,7b/2b,3b/6b,,
{8}5,4,3/7,2/6,3/7,,4,5,
{8}6/2,3/7,6/2,,5,4,3,2,
{4}1-5[8:1],1-6[8:1],1-4[8:1],1^6[4:1],
{8}6^3[4:1],,3-7[4:1],,1,8,8,,
{8}5,4,3/1,2/8,7/1,,4,5,
{8}8/6,7/1,2/8,,5,4,3,2,
{4}1-6[4:1],6-3[4:1],3-8[4:1],8<1[2:1],
{8},,,,,8b,1b,,
{4}7h[4:3]/2h[4:1],,4,4,
{4}3h[4:3]/6h[4:1],,5,5,
{8}2/7h[8:1],4,6/3h[8:1],5,1/8h[8:1],4,7/2h[8:1],5,
{8}3/6h[8:1],4,1h[4:1]/8h[4:1],,,8b,1b,,
{4}2h[4:3]/7h[4:1],,5,5,
{4}3h[4:1]/6h[4:3],,4,4,
{8}7/2h[8:1],5,3/6h[8:1],4,8/1h[8:1],5,2/7h[8:1],4,
{8}6/3h[8:1],5,8h[4:1]/1h[4:1],,,,,,
{1}2^5[4:1]/6^1[4:1],
{2}3>7[8:5],5,
{2}6<2[8:5],4,
{2}3>7[8:5],5,
{2}6<2[8:5],4,
{1}4h[2:1]/3>7[8:5],
{1}5h[2:1]/6<2[8:5],
{2}3-7[4:1],6-2[4:1],
{1}4-8[4:1],
{1}5q2[8:5]/6<2[8:5],
{1}3>7[8:5]/4p7[8:5],
{1}5q2[8:5]/6<2[8:5],
{1}3>7[8:5]/4p7[8:5],
{2}2h[8:3]/8h[8:7],6h[8:7],
{8}4h[4:3],,,,2h[4:1],,,2>8[8:5]/8<2[8:5],{1},
{4}1b/8b,2/7,6/3,4/5,
{8}3,4,7-3[8:1]/8-4[8:1],6/1,7b/8b,,6,5,
{8}1-5[8:1]/2-6[8:1],3/8,2b/1b,,4,5,6,7,
{4}8p4[8:1],8v3[8:1],8^5[8:1],8^3[4:1],
{8}3^6[4:1],,6-2[4:1],,8,1b,1b,,
{8}6,5,1-4[8:1]/2-7[8:1],8/3,1b/2b,,3,4,
{8}7-2[8:1]/8-5[8:1],1/6,7b/8b,,3,4,5,6,
{4}7-2[8:1],3/7,1-6[8:1],4/1,
{4}5/4h[4:1],5p4[4:1],,,
{8}1h[8:1],3h[8:1],5h[8:1],7h[8:1],1,,8v6[8:1],8v2[8:1],
{8}8-4[8:1],,,,5,4,3,2,
{4}1q5[8:1],1v6[8:1],1^4[8:1],1^6[4:1],
{8}6^3[4:1],,3-7[4:1],,1,8,8,,
{8}6,5,1^6[8:1]/2^5[8:1],8/3,1b/2b,,3,4,
{8}7^4[8:1]/8^3[8:1],6/1,8b/7b,,5,4,3,2,
{4}1q6[4:1],6q3[4:1],3q8[4:1],8<1[2:1],
{8},,,,,8b,1b,,
{8}2b/7h[8:1],5,6b/3h[8:1],4,1b/8h[8:1],5,7b/2h[8:1],4,
{8}3b/6h[8:1],5,8b/1h[8:1],4,2b/7h[8:1],5,6b/3h[8:1],4,
{641}3,,,,,,,,,,,,,,,,,,,,
{639}4,,,,,,,,,,,,,,,,,,,,5,,,,,,,,,,,,,,,,,,,,
{641}6,,,,,,,,,,,,,,,,,,,,7,,,,,,,,,,,,,,,,,,,,
{639}8,,,,,,,,,,,,,,,,,,,,1,,,,,,,,,,,,,,,,,,,,
{641}2,,,,,,,,,,,,,,,,,,,,3,,,,,,,,,,,,,,,,,,,,
{639}4,,,,,,,,,,,,,,,,,,,,5,,,,,,,,,,,,,,,,,,,,
{641}6,,,,,,,,,,,,,,,,,,,,7,,,,,,,,,,,,,,,,,,,,
{639}8,,,,,,,,,,,,,,,,,,,,1,,,,,,,,,,,,,,,,,,,,
{641}2,,,,,,,,,,,,,,,,,,,,3,,,,,,,,,,,,,,,,,,,,
{639}4,,,,,,,,,,,,,,,,,,,,5,,,,,,,,,,,,,,,,,,,,
{641}6,,,,,,,,,,,,,,,,,,,,7,,,,,,,,,,,,,,,,,,,,
{639}8,,,,,,,,,,,,,,,,,,,,1,,,,,,,,,,,,,,,,,,,,
{641}2,,,,,,,,,,,,,,,,,,,,
{8}3,8b/1b,
{1}2b/7b,
E
