&title=The Other self
&artist=GRANRODEO [PV]
&wholebpm=150.0
&lv_1=2
&lv_2=4
&lv_3=6
&lv_4=9
&lv_5=10+
&des_4=はっぴー
&des_5=mai-Star
&inote_1=
(150.0){1},,,
{1}1,
{1}1,
{1}8,
{1}8,
{1}1,
{1}8,
{1}1,
{1}8/1,
{1}1,
{1}1,
{1}2,
{1}2,
{1}3,
{1}3,
{1}4,
{1}4,
{1}5,
{1}5,
{1}6,
{1}6,
{1}7,
{1}7,
{1}8,
{1}8,
{1}1h[1:1],,
{1}1h[1:1],,
{1}8h[1:1],,
{1}8h[1:1],,
{1}1-4[4:3],,
{1}5,
{1}5,
{2}6,6,
{1}6,
{1}7,
{1}7,
{2}8,8,
{1}8,
{1}1,
{1}1,
{2}2,2,
{1}2,
{1}3,
{1}3,
{2}4,4,
{1}4,
{1}5,
{1}5b,
{1}4-1[4:3],,
{1}8-5[4:3],,
E
&inote_2=
(150.0){1},,,
{2}2,2,
{2}3,3,
{2}4,4,
{2}5,5,
{2}6,6,
{2}7,7,
{1}8/1,,
{2}1,1,
{1}1/2,
{2}3,3,
{1}3/4,
{2}5,5,
{1}5/6,
{2}7,7,
{1}7/8,
{2}8,8,
{1}7/8,
{2}6,6,
{1}5/6,
{2}4,4,
{1}3/4,
{2}2,2,
{1}1/2,
{1}8h[2:1]/7h[2:1],
{1}8/7,
{1}6h[2:1]/5h[2:1],
{1}6/5,
{1}4h[2:1]/3h[2:1],
{1}4/3,
{1}2h[2:1]/1h[2:1],
{1}2/1,
{2}8,1,
{1}8b/1b,
{2}1,1,
{4}2,2,2,,
{2}3,3,
{4}4,4,4,,
{2}5,5,
{4}6,6,6,,
{2}7,7,
{4}8,8,8,,
{2}2/1,2/1,
{4}1,1,1,,
{2}8/7,8/7,
{4}8,8,8,,
{2}1,2,
{2}3,4,
{2}5,6,
{2}7,8,
{1}1-5[4:3],,
{1}4-8[4:3],,
E
&inote_3=
(150.0){1},,,
{4}3,4,4/3,,
{4}6,5,6/5,,
{4}3,2,1,8,
{4}7,6,5/4,,
{4}6,5,6/4,,
{4}3,4,5/3,,
{4}6,7,8,1,
{4}2,3,5/4,,
{1}4-1[4:1]/5-8[4:1],
{1}1^4[4:1]/8^5[4:1],
{4}3,3,3/4,4/3,
{4}6,6,6/5,6/5,
{4}3,3,4/2,4/2,
{4}6,6,7/5,7/5,
{4}2,2,1/2,2/1,
{4}7,7,7/8,7/8,
{1}1-4[4:1]/8-5[4:1],
{1}4^1[4:1]/5^8[4:1],
{4}2,3,4,5/6,
{4}7,6,5,3/4,
{4}1,2,3,5/4,
{4}8,7,6,5/4,
{4}5/4,6/3,7/2,8/1,
{1}1b/8b,
{4}3h[2:1],,4,4,
{4}6h[2:1],,5,5,
{4}2h[2:1],,3,3,
{4}7h[2:1],,6,6,
{4}2h[2:1],,1,1,
{4}7h[2:1],,8,8,
{4}3,4,2/5,5/2,
{4}6,5,7/4,7/4,
{4}4/3,3/4,6/5,6/5,
{4}5/4,4/5,7b/2b,,
{4}3,4,5,8/7,
{4}6,5,4,2/1,
{4}8,7,6,5,
{1}3-8[4:1]/4-7[4:1],
{4}1,2,3,4,
{4}5/6,5/4,3/4,,
{2}5-8[4:1],4-1[4:1],
{4}8,1,7b/2b,,
{4}6,5,4,2/1,
{4}3,4,5,8/7,
{4}1,2,3,4,
{1}5-2[4:1]/6-1[4:1],
{4}7,6,5,1/8,
{4}2,3,4,8/1,
{4}8/7,8/7,5/6,5/6,
{4}4/3,3/4,1/2,1/2,
{1}8b/1b,
{4}1,1,8,8,
{4}2,3,4,5,
{4}6,7,
{2}8/1s5[4:5],{1},,
E
&inote_4=
(150.0){1},
{8}6/5,6/5,,,,,4/3,4/3,
{16},,,,,,,2/7,,,,,4/5,,,,
{8}3,3,4,3,5,2,4/3,,
{8}6,6,5,6,4,7,6/5,,
{8}3,3,4,3,5,2,4/3,,
{8}6,6,5,7,5/6,,8/3,,
{8}2,2,1,2,8,3,2/1,,
{8}7,7,8,7,1,6,7/8,,
{4}1/8,2/7,6/3,4/5,
{8}7,8,1,2,1,8,2/7,,
{8}4h[16:3]/5h[16:3],,,3/6,,,7/2,7/2,
{8},,,,,5/4,4/5,,
{16}7h[16:3],,,6h[16:3],,,5,,5,,,,4/7,,,,
{16}2h[16:3],,,3h[16:3],,,4,,4,,,,2/5,,,,
{16}8h[16:3],,,7h[16:3],,,6,,6,,,,7/8,,,,
{16}1h[16:3],,,2h[16:3],,,3,,3,,,,1/2,,,,
{4}8/7,5/6,4/3,1/2,
{8}7/8,,,1/8,2/7,,,,
{8}1h[16:3]/8h[16:3],,,2/7,,,5/4,4/5,
{8},,,,,7/2,2/7,,
{16}6h[16:3],,,7h[16:3],,,8,,8,,,,1/6,,,,
{16}3h[16:3],,,2h[16:3],,,1,,1,,,,3/8,,,,
{16}5h[16:3],,,6h[16:3],,,7,,7,,,,1/8,,,,
{16}4h[16:3],,,3h[16:3],,,2,,2,,,,1/8,,,,
{8}4/5,,7/8,1/6,,3/8,,7b/2b,
{4},,,4/5,
{16}7/8,,,1/6,,,5/2h[4:1],,,,3,,3,,,,
{16}1/2,,,3/8,,,4/7h[4:1],,,,6,,6,,,,
{16}7/8,,,1/6,,,5/2h[4:1],,,,3,,3,,,,
{16}1/2,,,3/8,,,4/7^2[8:1],,,,,,,,,,
{16}3/4,,,2/5,,,6/1h[4:1],,,,2,,2,,,,
{16}6/5,,,4/7,,,3/8h[4:1],,,,7,,7,,,,
{16}2h[16:3],,,3h[16:3],,,4,,7h[16:3],,,6h[16:3],,,5,,
{16}1h[16:3],,,2h[16:3],,,3,,8h[16:3],,,7h[16:3],,,6,,
{16}4h[16:3],,,3h[16:3],,,2,,5h[16:3],,,6h[16:3],,,7,,
{16}1/8,,,1/8,,,2/7,,2b/7b,,,,,,,,
{16}6h[16:3],,,7h[16:3],,,8-4[8:1],,,,1,,1b,,,,
{16}3h[16:3],,,2h[16:3],,,1-5[8:1],,,,8,,8b,,,,
{16}6h[16:3],,,7h[16:3],,,8-4[8:1],,,,1,,1h[2:1],,,,
{8}8h[4:1],,,2b/7b,2b/7b,,,,
{8}8/7,,1/2,3/8,,6,5,4,
{16}3h[16:3],,,4h[16:3],,,5-1[8:1],,,,,,,,,,
{2}7-4[8:1]/8-3[8:1],1-6[8:1]/2-5[8:1],
{16}8/1,,,8/1,,,2/7,,7b/2b,,,,,,,,
{16}4h[16:3],,,3h[16:3],,,2-6[8:1],,,,7,,7b,,,,
{16}5h[16:3],,,6h[16:3],,,7-3[8:1],,,,2,,2b,,,,
{8}2/1,,6/5,4/7,,2/5,,1^4[4:1]/8^5[4:1],
{8},,,,,3,4,5,
{16}6h[16:3],,,5h[16:3],,,4,,,,5/1,,,,,,
{8}1h[16:3]/2h[16:3],,,7/4,,6,5,4,
{16}3h[16:3],,,4h[16:3],,,5,,,,4/8,,,,8/1,,
{4}1-5[8:1]/8-4[8:1],,2/7,4/5,
{1}1/8<3[2:1],
{16}1h[16:3],,,2h[16:3],,,3,,,,3/4,,2/5,,,,
{16}8h[16:3],,,7h[16:3],,,6,,,,6/5,,7/4,,,,
{8}1h[4:1]/8h[4:1],,,2/7,7/2,,4/5,,
{1}8b/1b,
E
&inote_5=
(150.0){1},
{16}4,5,4,5,,,3,4,3,,,,5,4,5,4,
{16},,6,5,6,,,,3-8[8:1]/6-1[8:1],,,,,,,,
{16}2/7,,2,1,,1,2h[8:3],,,,3,,3,,,,
{16}2/7,,7,8,,8,7h[8:3],,,,6,,6,,,,
{16}2/4,,,4/5,,,5/7,,,,7/6,,4/5,,2/3,,
{8}1h[4:1]/8h[4:1],,,2/7,1b/8b,,,,
{16}2/7,,2,1,,1,2h[8:3],,,,3,,8,,,,
{16}2/7,,7,8,,8,7h[8:3],,,,6,,1,,,,
{8}4/3,3,3,3,5/6,6/5,4/3,3/4,
{16}3/6,,1,8,1,,6/3,,8,1,8,,7b/2b,,,,
{16}3,4,3,4,,,5h[4:1]/2h[4:1],,,,,,1,,1-3[8:1],,
{8},8-4[8:1],,1-5[8:1],,8-6[8:1],,1b,
{16},,,,,,2,,3h[2:1],,,2,,,1,,
{16}8h[8:3],,,,,,1,,2-4[8:1],,,,
{357}2/1-5[8:1],,,,,,,,,,,,,,,,,,,,,,,,,,,,,,,,,,,,,,,,,,,,,,,,,,,,,,,,,,,,,,,,,,,,,,,,,,,,,,,,,,,,,,,,,
{1000}1,
{8},,3,5,6,4,2/7,3p6[8:1],
{8},7^2[8:1],,5p4[4:1],,,,,
{4}8v3[8:1],2,1v6[8:1],7,
{8}1h[4:1]/8h[4:1],,,1,1b,,,,
{16}6,5,6,5,,,4h[4:1]/7h[4:1],,,,,,4,,4-2[8:1],,
{8},5-1[8:1],,4-8[8:1],,5-7[8:1],,4b,
{8},,8,,4,5,3,6,
{8},1,8,2,7-5[8:1],,7/8-4[8:1],,
{16}8,,,,,,3,,3,,,2,,,1,,
{4}8-5[8:1],1v4[8:1],1v6[8:1],,
{8}1/8,,7,2,,6/3,3^6[4:1]/6-3[4:1],8/1,
{4},,,1b,
{16}1/5,,,2/6,,,3/7h[4:1],,,,8,,6/1,,,,
{16}4/8,,,3/7,,,6/2h[4:1],,,,1,,3/8,,,,
{16}6/2,,,7/3,,,4/8h[4:1],,,,7,,6/1,,,,
{16}3/7,,,2/6,,,5/1h[4:1],,,,2,,8/3,,7/4,,
{16}5/6,,,7/5,,,5/8h[4:1],,,,1,,7/2,,,,
{16}3/4,,,2/4,,,4/1h[4:1],,,,8,,7/2,,,,
{16}6/7,,,8/5,,,1/4,,2-5[8:1]/3-7[8:1],,,,,,,,
{16}2/3,,,1/4,,,5/8,,6-1[8:1]/7-3[8:1],,,,,,,,
{16}1/8,,,3/2,,,5/7,,8/1,,,7/6,,,1/3,,
{16}7/8,,,4/3,,,5/6,,1-4[8:1]/2-5[8:1],,,,1b/2b,,,,
{16}6/3,,2,1,,7,8,,7/2,,5/4,,1b,,,,
{16}3/6,,7,8,,2,1,,2/7,,5/4,,8b,,,,
{16}2/7,,3,4,,6,5,,,,1/2-6[8:1],,8,,7,,
{8}5h[8:3],,,4,4-1[8:1],,8b,,
{8}8/7,1/6,4/3,6/1,,2/5,6/3,7/4,
{16}3/6,,1,8,,8,1^4[8:1],,,,8^5[8:1],,8,,,,
{16}4,,,8/7,,,1b/6b,,4/5,,,1/2,,,3b/8b,,
{16}5/4,,,3/6,,,8/1,,2-5[8:1]/7-4[8:1],,,,2b/7b,,,,
{16}5/3,,2,1,,7,8,,3/4,,5/6,,8b/1b,,,,
{16}6/4,,7,8,,2,1,,6/5,,3/4,,1b/8b,,,,
{8}2-6[8:1],,4,4-8[8:1],,1,,2<5[2:1]/7>4[2:1],
{8},7/2,,,,,,,
{16}2h[16:3],,,4,,,2-6[8:1]/4-8[8:1],,,,2/4,,,,,,
{16}7h[16:3],,,5,,,5-1[8:1]/7-3[8:1],,,,5/7,,,,,,
{16}5/4,,,2/7,,,1/6,,,,3/8,,,1b,,,
{16}2b/8b,,,3b/7b,,,4b/6b,,5-1[8:1],,,,1<3[4:1],,,,
{16}2,,,2h[16:3],,,1-5[8:1],,,,1,,,,,,
{16}7,,,7h[16:3],,,8-4[8:1],,,,8,,,,,,
{16}7/8,,,1/2,,,6/5,,,,3,,4,,3,,
{8}2h[4:1]/5h[4:1],,,1/6,7-3[8:1]/8-4[8:1],,7/8,,
{16}3h[16:3],,,4h[16:3],,,5h[4:1],,,,1b,,,,,,
{16}6h[16:3],,,5h[16:3],,,4h[4:1],,,,8>5[8:3],,,,,,,,,,,
E
