&title=Pursuing My True Self
&artist=目黒 将司
&wholebpm=119
&demo_seek=58.2
&demo_len=21.9
&lv_1=2
&lv_2=4
&lv_3=7
&lv_4=10+
&lv_5=11+
&des_4=rioN
&des_5=Techno Kitchen
&inote_1=(119.0){1},,,,,
{1}1,
{1}1,
{1}8,
{1}8,
{1}1,
{1}1,
{1}8,
{1}8,
{2}1,1,
{2}2,2,
{2}3,3,
{2}4,4,
{2}5,5,
{2}6,6,
{2}7,7,
{2}8,8,
{1}1h[1:1],,
{1}8h[1:1],,
{1}1h[1:1],,
{1}8h[1:1],,
{2}8,8,
{2}7,7,
{2}6,6,
{1}5/4,
{2}4,4,
{2}3,3,
{2}2,2,
{1}1/8,,
{1}1-4[4:3],,
{1}5-8[4:3],,
{2}1,1,
{1}2/1,
{2}3,3,
{1}4/3,
{2}5,5,
{1}6/5,
{2}7,7,
{1}8/7,
{4}8,8,
{2}8,{1},
{4}7,7,
{2}7,{1},
{4}6,6,
{2}6,{1},
{4}5,5,
{2}5,{1},
{4}4,4,
{2}4,{1},
{4}3,3,
{2}3,{1},
{4}2,2,
{2}2,{1},
{4}1,1,
{2}1,{1},
{1}1b,
{1}8-4[4:3],,
{1}5-1[4:3],,
E
&inote_2=(119.0){1},,,
{4}4,4,4,,
{4}5,5,5,,
{4}4,4,
{2}3h[1:1],{1},
{4}2,2,3,,
{4}3,3,4,,
{4}5,5,
{2}6h[1:1],{1},
{4}7,7,6,,
{4}6,6,5,,
{4}4,4,,4,
{4},3,,3,
{4},2/1,,2/1,
{4}2,2,2,,
{4}8,8,,8,
{4},7,,7,
{4},6/5,,6/5,
{4}6,6,6,,
{1}4-1[2:1],
{2},8,
{1}8-5[2:1],
{2},3,
{1}3-7[2:1],
{2},6,
{2}5,4,
{1}4b/5b,
{4}3,3,2,2,
{4}1,1,8/1,,
{2}8/7,8/7,
{2}5/6,6/5,
{4}6,6,7,7,
{4}8,8,1/8,,
{2}2/1,2/1,
{2}3/4,4/3,
{1}3h[1:1],,,
{4}5,5,5,,
{4}4,4,4b,,
{4}5,5,,5,
{4},6,,6,
{4},8/7,,8/7,
{4}7,7,7,,
{4}1,1,,1,
{4},2,,2,
{4},4/3,,4/3,
{4}3,3,3,,
{4}6,6,7,7,
{4}8,8,8/1,,
{2}2/1,2/1,
{2}3/4,4/3,
{4}3,3,2,2,
{4}1,1,1/8,,
{2}8/7,8/7,
{2}6/5,6/5,
{4}7,7,6,6,
{4}5,5,4/5,,
{2}4/3,4/3,
{2}1/2,2/1,
{4}2,2,3,3,
{4}4,4,4/5,,
{2}5/6,6/5,
{2}7/8,8/7,
{1}1h[1:1],,,
{4}1,1,8/2,,
{4}8,8,1/7,
E
&inote_3=(119.0){1},
{8}4,4,5,5h[8:3],,,4,,
{8}6,5,4,3/6,,,,,
{8}5,5,4,4h[8:3],,,5,,
{8}3,4,5,6/3,,,,,
{8}1/2,,3/4,,6,5,6,,
{8}7/8,,6/5,,3,4,3,,
{8}2,1,8,7/2,,,,,
{8}7,8,1,7/2,,,,,
{8}1/2,,7/8,,6,5,6,,
{8}7/8,,2/1,,3,4,3,,
{8}2,1,8,7/2,,,,,
{8}7,8,1,7/2,,,,,
{4}3,3/4,6,6/5,
{8}7,,7/8,,1,2,3/4,,
{4}6,5/6,3,4/3p6[8:3],
{4},,,4/5,
{8}2,3,4/5,,3/4,,5/6,,
{8}7,6,5/4,,5/6,,3/4,,
{8}2,1,3/8,,4/7,,5/6q3[8:3],,
{4},,,3b/6b,
{8}5/4,,3,4,3,,2/5,,
{8}6,5,6,,7,8,7,,
{8}4/5,,6,5,6,,7/4,,
{8}3,4,3,,2,1,2,,
{8}8/1,,7,8,7,,6/1,,
{8}2,1,2,,4,5,4,,
{8}6/3,,2,1,2,,3>6[16:9],,
{4},,,2b/7b,
{8}2/5,,7/4,,3,4,3,,
{8}6,5,6,,2-4[8:1]/7-5[8:1],,,,
{4}2b/7b,,6,7/5,
{8}3,,4/2,,5,4,5,,
{8}7/4,,2/5,,6,5,6,,
{8}3,4,3,,1^4[4:1]/8^5[4:1],,,,
{8},,6,5,4,3,,,
{8}3,4,5,6,,,
{4}5<4[4:3],{1},
{8},,,,,4/3,5/2,,
{4},,,8/2,
{8},,,,,5/6,4/7,,
{4},,,7/1,
{8}6/5,,3,4,3h[4:1],,1,,
{8}8,7,6,,1,8,7,,
{8}3/4,,6,5,6h[4:1],,8,,
{8}1,2,3,,8,1,2,,
{8}5/6,,7,8,7h[4:1],,6,,
{8}8,7,6,,7,6,4/5,,
{8}4/3,,2,1,2h[4:1],,3>6[16:9],,
{4},,,2b/7b,
{8}2/5,,7/4,,2,1,2,,
{8}7,8,7,,1^3[8:1]/8^6[8:1],,,,
{4}8b/1b,,6,5/7,
{8}3,,4/2,,1,8,1,,
{8}7/4,,5/2,,6,5,6,,
{8}3,4,3,,4-2[8:1]/5-7[8:1],,,,
{8},,8,7,6,5,,,
{8}1,2,3,4,,,8/1,,
{8}5/2,,7/4,,3,4,2,,
{8}6,5,7,,1-4[8:1]/8-5[8:1],,,,
{4}7b/2b,,6,5/7,
{8}3,,2/4,,5,4,5,,
{8}4/7,,5/2,,6,5,6,,
{8}3,4,3,,4^1[4:1]/5^8[4:1],,,,
{8},,2,3,4,5/6,,,
{8}7,6,5,4/3,,,
{4}1>8[4:3],{1},
{8}1,1,8,8h[8:3],,,1,,
{8}7,8,1,2/7,,,,,
{8}8,8,1,1h[8:3],,,8,,
{8}2,1,8,7/2,
E
&inote_4=(119.0){1},
{16}4,,4,,4,5,,5,,,,,6/3,,,,
{16}4,,4,,4,5,,5,,,,,,,,,
{16}5,,5,,5,4,,4,,,,,3/6,,,,
{16}5,,5,,5,4,,4,,,,,,,,,
{8}8,7,6,5,4,3,2,1,
{8}6,5,4,3,2,1,8,7,
{16}6,,6,,6,5,,5,,,,,4/7,,,,
{16}6,,6,,6,5,,4/7,,,,,,,,,
{8}1,2,3,4,5,6,7,8,
{8}3,4,5,6,7,8,1,2,
{16}3,,3,,3,4,,4,,,,,5/2,,,,
{16}3,,3,,3,4,,2/5,,,,,,,,,
{16}5,,5,,5,,3,4,3,,6,5,6,,4/5,,
{16}3,,2,,1,,8,1,8,,8,1,,,,,
{16}7,8,7,,2,1,2,,7,8,7,,2,1,2,,
{16}7/8,,,1/2,,,1-4[8:1]/8-5[8:1],,,,,,,,,,
{16}3,,6,,4,,4,5,,3/6,,5,4,,3/6,,
{16}7,,2,,7/2,,1,8,1,,8,8,,,,,
{16}2,1,2,,7,8,,8/1,,2/7,,8,1,,8/1,,
{16}2/3,,,7/6,,,4-8[8:1]/5-1[8:1],,,,,,,,,,
{16},,,,1,,2,,3h[16:3],,,4h[16:3],,,5,,
{4}6-4[8:1],3-7[8:1],,8,
{16},,,,8,,7,,6h[16:3],,,5h[16:3],,,4,,
{4}3-5[8:1],6-2[8:1],,1,
{16},,,,1,,8,,2h[16:3],,,7h[16:3],,,4,,
{4}6^1[8:1],3^8[8:1],,5,
{16},,,,8,,1,,8h[16:3],,,1h[16:3],,,8,,
{4}8<2[4:1],,,1b,
{16},,2/1,,7/8,,,,6h[16:3],,,5h[16:3],,,4,,
{16}3h[16:3],,,4h[16:3],,,5,,7-3[8:1],,,,1,,,,
{2}2p5[4:1],7q4[4:1],
{2}1p3[4:1],8q6[4:1],
{16},,5/6,,3/4,,,,2h[16:3],,,1h[16:3],,,8,,
{16}7h[16:3],,,8h[16:3],,,1,,2-6[8:1],,,,8,,,,
{8},8,7,6,5,4/3,,1,
{8}2,3,4,5/6,,,
{4}8<1[4:3],{1},
{16}2,,2,,4,3,,6/5,,,,,1b/7b,,,,
{16}2,,2,,4,3,,8-4[8:1],,,,,,,,,
{16}7,,7,,5,6,,3/4,,,,,2b/8b,,,,
{16}7,,7,,5,6,,1-5[8:1],,,,,,,,,
{16},,,,7,,6,,5h[16:3],,,4h[16:3],,,3,,
{4}2-4[8:1],8-6[8:1],1-5[8:1],,
{16},,,,2,,3,,4h[16:3],,,5h[16:3],,,6,,
{4}7-5[8:1],1-3[8:1],8-4[8:1],,
{16},,,,2,,1,,7h[16:3],,,8h[16:3],,,1,,
{4}2^5[8:1],7^4[8:1],1s5[4:1],,
{16},,,,7,,8,,2h[16:3],,,1h[16:3],,,8,,
{4}7<2[4:1],,,7b/2b,
{16},,8/1,,4/5,,,,2/3,,,2/4,,,5/2,,
{16}2/5,,,3/6,,,4/7,,5-2[8:1]/8-5[8:1],,,,,,,,
{2}1p4[4:1],8q5[4:1],
{2}2^7[4:1],6q3[4:1],
{16},,5/4,,8/1,,,,6/7,,,5/7,,,4/7,,
{16}4/7,,,3/6,,,5/2,,1-4[8:1]/4-7[8:1],,,,,,,,
{2}7q6[4:1],2p3[4:1],
{4}8z4[8:3],,,1b,
{16},,4/5,,8/1,,,,4/5,,3,4,3,,6,5,
{16}6,,3,4,2,,6,5,7,,,,2/7,,,,
{8}1-5[4:1],,,8,7v6[4:1],,,1,
{8}2v3[4:1],,,7,8-4[8:1],,1,,
{16},,1/8,,5/4,,,,8/1,,2,1,2,,7,8,
{16}7,,2,1,3,,7,8,6,,,,3/6,,,,
{8},5h[8:1],6h[8:1],7h[8:1],8h[8:1],1h[4:1],,4h[8:1],
{8}3h[8:1],2h[8:1],1h[8:1],8,,,
{4}1>8[4:3],{1},
{16}4/3,,2/5,,3,4,,5/2-5[8:1],,,,,8b,,,,
{16}3/4,,2/5,,3,4,,5/1,,,8b,,8b,,,,
{16}6/5,,7/4,,6,5,,4/7-4[8:1],,,,,1b,,,,
{16}5/6,,7/4,,6,5,,4b/8b,
E
&inote_5=(119.0){1},
{16}8/2,,8/2,,1,1,,8/2^4[8:1],,,,,,,,,
{16}4/6,,4/6,,5,5,,6/4,,,,,5,6,7,8,
{16}1,,1,,1,8,,2^4[8:1]/7^5[8:1],,,,,,,,,
{16}6/3,,6/3,,4,5,,3/6,,,,,7/8,,2/1,,
{16}5,4,5,4h[16:3],,,6h[938:587],,,,8,,8,,,,
{16}2h[4:3],,8,,4,4,,6,,,8,,8,,,,
{16}7/4,,7/4,,6,5,,4/7,,,1/8,,1/8,,,,
{16}2/5,,5/2,,3,4,,5/2,,,2/1,,8/1,,7/8,,
{16}4,5,4,5h[16:3],,,3,,3h[2:1],,1,,1,,,,
{16}7h[4:3],,1,,5,5,,3,,,1,,1,,,,
{16}2/5,,5/2,,3,4,,2/5,,,1/8,,1/8,,,,
{16}7/4,,7/4,,6,5,,4/7,,,8/1,,1/8,,,,
{16}5/7,,4/2,,,,3,4,3,,6,5,6,,2,4,
{16}2,,7,5,7,,1,4,1,,8,5,8,,1/8,,
{16}2,4,3,4,2,,8/1,,7,5,6,5,7,,1/8,,
{8}4/8,1/8,5/1,1/8,4^1[8:1]/8^5[8:1],4/8,,,
{16}2/4,,5/3,,6/4,,5/7,5/7,,2/4,,,6/8,,7/1,,
{16}8/2,,1/3,1/3,,8/6,6/8,,7,,1/3,1/3,,2,2,,
{16},2/4,3,,5/7,6,,3/1,,8h[16:3]/6h[16:3],,,,,2,4,
{16}3,,8/1,8/1,,7,5,6,,1^4[5000:469]/8^5[5000:469],1/8,,,,,,
{8}4^1[8:1],,8,8,7h[16:3]/1^4[8:1],,,6,
{16}6/4^1[8:1],,7,,7,7,,8h[16:3],1^4[8:1],,,,,,,,
{8}7/4>8[8:1],7,6,6,5h[4:1]/8>4[8:1],,,6,
{8}6/4>8[8:1],7,7,6h[8:3],8>4[8:1],,,,
{8}5^8[8:1],,1,1,2h[16:3]/8^5[8:1],,,3,
{16}3/5^8[8:1],,2,,2,2,,1h[16:3],8^5[8:1],,,,,,,,
{8}2/5<1[8:1],2,3,3,4h[16:3]/1<5[8:1],,,3,
{4}4^1[4:1]/5^8[4:1],,,2b/7b,
{16}1/8,,6/3,,1^6[8:1]/8^3[8:1],,,,1/8,,,4/5,,,1/8,,
{16}8/3,,,1/8,,,1/6,,8/1-6[8:1],,,,1/8-3[8:1],,,,
{16}8,,,,4,,6,,8h[16:3],,,2h[16:3],,,4,,
{4}6-3[8:1],8p1[4:1],3^6[8:1],,
{16}8/1,,3/6,,1^6[8:1]/8^3[8:1],,,,1/8,,,5/4,,,1/8,,
{16}6/1,,,8/1,,,8/3,,1-6[8:1]/8-3[8:1],,,,8/1,,,,
{8}3h[8:7],8-4[8:1],4-8[8:1],8,,,,6h[8:5],
{8}1-5[8:1],5-1[8:1],1,,,,8/4h[8:9],,
{8}7,1,6,2,5,3,6,2,
{16}7,,7,,7,8,,1^3[8:1]/6^4[8:1],,,,,,,,,
{16}5/2,,5/2,,3,4,,2h[16:5]/5h[16:5],,,,,,,,,
{16}2,,2,,2,1,,3^5[8:1]/8^6[8:1],,,,,,,,,
{16}7/4,,4/7,,6,5,,7h[16:5]/4h[16:5],,,,,,,,,
{8}7^4[8:1],,3,3,2h[16:3]/4^7[8:1],,,1,
{16}1/7^4[8:1],,2,,2,2,,3h[16:3],4^7[8:1],,,,,,,,
{8}2/7<3[8:1],2,1,1,8h[16:3]/3<7[8:1],,,1,
{8}1/7<3[8:1],2,2,1h[8:3],3<7[8:1],,,,
{8}2^5[8:1],,6,6,7h[16:3]/5^2[8:1],,,8,
{16}8/2^5[8:1],,7,,7,7,,6h[16:3],5^2[8:1],,,,,,,,
{8}7/2>6[8:1],7,8,8,1h[16:3]/6>2[8:1],,,8,
{4}2>8[4:1]/7<1[4:1],,,2b/7b,
{16}1/8,,3/6,,1^6[8:1]/8^3[8:1],,,,1/8,,,5/4,,,1/8,,
{16}1/6,,,8/1,,,8/3,,1/8-3[8:1],,,,8/1-6[8:1],,,,
{16}1,,,,5,,3,,1h[16:3],,,7h[16:3],,,5,,
{4}3-6[8:1],1q8[4:1],6^3[8:1],,
{16}8/1,,6/3,,1^6[8:1]/8^3[8:1],,,,1/8,,,5/4,,,1/8,,
{16}8/3,,,1/8,,,1/6,,1-6[8:1]/8-3[8:1],,,,8/1,,,,
{8}6h[8:7],1p4[8:1],4q1[8:1],1,,,,3h[8:5],
{8}8q5[8:1],5p8[8:1],8,,,,1b/2b,,
{16}1/8,,4/5,,7^2[8:1]/8^5[8:1],,,,8/7,,,3/4,,,8/7,,
{16}8/6,,,2/1,,,3/1,,8/7-3[8:1],,,,7/8-4[8:1],,,,
{16}8,,,,3,,1,,7h[16:3],,,5h[16:3],,,3,,
{4}1-4[8:1],7q6[4:1],4^1[8:1],,
{16}1/8,,5/4,,1^4[8:1]/2^7[8:1],,,,1/2,,,5/6,,,2/1,,
{16}3/1,,,8/7,,,8/6,,1-5[8:1]/2-6[8:1],,,,2/1,,,,
{8}6h[8:7],1p3[8:1],3q1[8:1],1,,,,3h[8:5],
{8}8q6[8:1],6p8[8:1],8,,,,1/5h[8:9],,
{8}2,8,3,7,4,6,3,7,
{16}2,,2,,2,1,,3^5[8:1]/8^6[8:1],,,,,,,,,
{16}7/4,,7/4,,6,5,,4/7,,,8/1,,1/8,,,,
{16}7,,7,,7,8,,1^3[8:1]/6^4[8:1],,,,,,,,,
{16}5/2,,5/2,,3,4,,5/2,
E
