&title=Axeria
&artist=AcuticNotes
&wholebpm=193
&demo_seek=71.34
&demo_len=10.66
&lv_1=4
&lv_2=6
&lv_3=8+
&lv_4=12+
&lv_5=14
&des_4=mai-Star
&des_5=Jack
&inote_1=(193.0){1},,,,,,,,,
{1}1,
{1}1,
{1}8,
{1}8,
{1}1,
{1}8,
{1}8/1,
{1}8/1,
{1}1b,
{2}1,1,
{1}1,
{2}2,2,
{1}2,
{2}3,3,
{1}3,
{2}4,4,
{1}4,
{2}5,5,
{1}5,
{2}6,6,
{1}6,
{2}7,7,
{1}7,
{2}8,8,
{1}8/1,
{2}8,8,
{1}8,
{2}7,7,
{1}7,
{2}6,6,
{1}6,
{2}5,5,
{1}5,
{2}4,4,
{1}4,
{2}3,3,
{1}3,
{2}2,2,
{1}2,
{2}1,1,
{1}1/8,
{1}1h[1:1],,
{2}1/8,8/1,
{1}1/8,
{1}8h[1:1],,
{2}8/1,1/8,
{1}8/1,
{2}8,8,
{2}7,7,
{2}6,6,
{2}5,5,
{2}4,4,
{2}3,3,
{2}2,2,
{2}1,1,
{1}8-5[4:7],,,,
{1}4-1[4:7],,,,
{2}1,1,
{2}2,2,
{2}3,3,
{2}4,4,
{2}5,5,
{2}6,6,
{2}7,7,
{2}8,8,
{2}1,8,
{1}8/1,
{2}8,1,
{1}8/1,
{2}1,8,
{1}2/7,
{1}1b,
E
&inote_2=(193.0){1},1-4[4:3],,,,
{1}8-5[4:3],,,,
{4}1,1,1,,
{2}1/2,1/2,
{4}8,8,8,,
{2}8/7,8/7,
{4}1,1,1,,
{2}1/2,2/1,
{1}8h[1:1],,
{4}1,1,1b,,
{4}8,8,8,,
{4}7,7,7,,
{4}6,6,6,,
{4}5,5,5,,
{4}4,4,4,,
{4}3,3,3,,
{4}2,2,2,,
{1}1h[2:1],
{4}1,1,1,,
{4}2,2,2,,
{4}3,3,3,,
{4}4,4,4,,
{4}5,5,5,,
{4}6,6,6,,
{4}7,7,7,,
{1}8h[2:1],
{4}7,7,,,
{4}7,7,,,
{4}5,5,,,
{4}5,5,,,
{4}3,3,,,
{4}3,3,,,
{4}1,1,,,
{4}1,1,,,
{4}1/2,2/1,,,
{4}2,2,,,
{4}4,4,,,
{4}4,4,,,
{4}6,6,,,
{4}6,6,,,
{4}8,8,,,
{4}8,8,,,
{1}1-6[4:3],,
{1}8-3[4:3],,
{1}2-6[4:3],,
{2}4/5,6/3,
{2}2/7,8b/1b,
{4}1,1,2,2,
{4}3,3,4,4,
{4}5,5,6,6,
{4}7,7,8/1,,
{4}8,8,7,7,
{4}6,6,5,5,
{4}4,4,3,3,
{4}2,2,1/8,,
{1}1-4[4:3]/8-5[4:3],,
{4}1,1,2,2,
{4}3,3,4,4,
{4}5,5,6,6,
{4}7,7,8,8,
{1}1-5[4:3],,
{4}6,6,6/5,,
{4}5,5,6/5,,
{4}4,4,4/3,,
{4}3,3,4/3,,
{4}2,2,2/1,,
{4}1,1,2/1,,
{4}8,8,7/8,,
{4}7,7,7/8,,
{4}8,8,1,1,
{4}2,2,3,3,
{4}4,4,5,5,
{4}6,6,8/7,,
{4}8,7,6,5,
{4}4,3,2,1,
{1}8-4[4:3],,
E
&inote_3=(193.0){1},4>5[4:9],,,,
{1}5<4[4:9],,,
{2},4/5,
{4}4,4,5/3,,
{4}5,5,6/4,,
{4}4,4,3/5,,
{4}5,5,6/4,,
{4}3,3,2/4,,
{4}6,6,5/7,,
{4}3,3,4,4,
{4}6,6,5,5,
{1}4-1[8:3]/5-8[8:3],
{4}1,1,2,4/3,
{4}8,8,7,6/5,
{4}1,1,2,3/4,
{4}8,8,7,6/5,
{4}2,1,2,3/4,
{4}7,8,7,6/5,
{4}2,1,2,4/3,
{4}6,5,6,4/7,
{4}8,7,6/5,4/7,
{4}1,2,3/4,2/5,
{4}8,7,5/6,4/7,
{4}1,2,3/4,5/2,
{4}4,3,2/1,3/8,
{4}5,6,8/7,1/6,
{4}4,3,1/2,3/8,
{4}5,4,6/3,,
{2}5/6h[2:3],4,
{4}5,5,5,,
{2}4/3h[2:3],5,
{4}4,4,4,,
{2}8/7h[2:3],1,
{4}8,8,8,,
{2}1/2h[2:3],8,
{4}1,1,1,,
{2}4b/5b,2/7,
{4}1,8,7/2,,
{4}6/5,6/5,7/4,,
{4}8,1,7/2,,
{4}3/4,3/4,2/5,,
{4}1,8,2/7,,
{4}4/5,5/4,6/3,,
{4}1/8,7/2,3/6,,
{1}7-4[2:1],
{1}2-5[2:1],
{1}8-4[2:1],
{1}1-5[2:1],
{1}8z4[4:5],,
{1}4/5,
{2},2b/7b,
{4}6/5,7/4,3h[4:1],4,
{4}4/3,5/2,6h[4:1],5,
{4}6/5,7/4,3h[4:1],4,
{4}3/4,2/5,6h[4:1],5,
{4}8/7,6/1,2h[4:1],1,
{4}1/2,3/8,7h[4:1],8,
{4}7/8,6/1,2h[4:1],1,
{1}8-4[2:1],
{1}2z6[4:5],,
{4}6,7/5,3,2/4,
{4}6,7/5,3,4/2,
{4}7,8/6,2,3/1,
{4}7,8/6,2,1/3,
{1}8<1[4:5],,
{2}6h[2:1],5h[2:1],
{4}4h[2:1],,3,3,
{2}3h[2:1],4h[2:1],
{4}5h[2:1],,6,6,
{2}7h[2:1],8h[2:1],
{4}1h[2:1],,2,2,
{2}2h[2:1],1h[2:1],
{2}8h[2:1],7,
{4}6h[4:3],5,5,4,
{4}3h[4:3],4,4,5,
{4}6h[4:3],5,5,4,
{4}3h[4:3],4,4,5,
{4}7h[4:3],8,8,1,
{4}2h[4:3],1,1,8,
{1}8b/1b,
E
&inote_4=(193.0){1},
{8}3,4,5,6,,,8,8,
{8},1,1,,7/2,,,,
{8}4,5,4,,3/6,,3,4,
{8},3/6,,6,5,,4/5,,
{8}7,8,1,2,,,3,5,
{8},6,4,,3/6,,,,
{8}8,1,8,,2/7,,8,1,
{8},2,7,1,8-4[8:1],,,,
{4}3h[8:1]/5h[8:1],7h[8:1]/1h[8:1],8h[8:3]/2h[8:3],,
{8},4/3,,2/5,3/4,,,,
{4}6h[8:1]/4h[8:1],8h[8:1]/2h[8:1],1h[8:3]/7h[8:3],,
{8},6/5,,4/7,5/6,,,,
{4}2h[8:1]/4h[8:1],8h[8:1]/6h[8:1],3h[8:3]/7h[8:3],,
{8},2/7,,1/8,2/7,,,,
{8}2/1,,8/7,,3/4,3/4,,5/6,
{8}5/6,,1/8,1/8,,3/6,,,
{4}1p4[8:1],7,8q5[8:1],2,
{8}1,,2,,3,,7,8-2[8:1],
{8},3,,6,5,,3/8,,
{8}8,,7,,6,,2,1-7[8:1],
{8},6,,
{556}3,,,,,,,,,,,,,,,,,,,,,,,,,,,,,,,,,,,,,,,,,,,,,,,,,,,,,,,,,,,,,,,,,,,,,
{833}4,,,,,,,,,,,,,,,,,,,,,,,,,,,,,,,,,,,,,,,,,,,,,,,,,,,,,,,,,,,,,,,,,,,,,,,,,,,,,,,,,,,,,,,,,,,,,,,,,,,,,,,,,,,,,,,,,,,,,,,,,,,,,,,,,,,,,,,,,,,,,,,,,,,,,,,,,,,,,,,,,,,,,,,,,,,,,,,,,,,,,,,,,,,,,,,,,,,,,,,,,,,,,,,,,
{4}6/1,
{8}8,,3,,6,,3,3-6[8:1],
{8},8,,5,5,,2/7,,
{8}4,,7,,2,,7,7-2[8:1],
{8},1,,4,4,,7/2,,
{8}7,8,6,,4/3,,6,5,
{8},3/8,,2/1,8<4[8:1],,1,,
{8}2,1,3,,5/6,,3,4,
{8},6/1,,7/8,1>5[8:1],,8,,
{8}4/6,7/3,8/2,,5/1,,2,2-6[8:1],
{8},7,,8,1/7,,2/6,,
{8}4h[1:1],,6,,,2,,,
{8}8,,5,5,4,4,,6,
{8}5h[8:1]/7h[8:1],,4h[8:1]/2h[8:1],,8/7,,2,1,
{8},7,8v3[8:1],,1v6[8:1],,,,
{8}2h[8:1]/4h[8:1],,5h[8:1]/7h[8:1],,2/1,,7,8,
{8},2,1v6[8:1],,8v3[8:1],,,,
{8}8h[8:1]/2h[8:1],,1h[8:1]/7h[8:1],,5/4,,2,1,
{8},6,5v2[8:1],,4v7[8:1],,,,
{8}7h[8:1]/1h[8:1],,2h[8:1]/8h[8:1],,4/5,,7,8,
{8},3,4/2,,1,2/8,,7,
{8}8/1,8/1,4/5,5/4,7/2,,,2-5[8:1],
{8},1,,7,7-4[8:1],,8,,
{8}3h[8:1]/5h[8:1],,1h[8:1]/7h[8:1],,2/7,,7,8<4[8:1],
{8},1,2,,7-5[8:1]/8-4[8:1],,,,
{8}4h[8:1]/6h[8:1],,2h[8:1]/8h[8:1],,3/6,,2,1>5[8:1],
{8},8,7,,1-5[8:1]/2-4[8:1],,,,
{8}2,5,7,4,1/8,,3/4,5/2,
{8},6/5,7/4,,
{12}3,
{995}4,,,,,,,,,,,,,,,,,,,,,,,,,,,,,,,,,,,,,,,,,,,,,,,,,,,,,,,,,,,,,,,,,,,,,,,,,,,,,,,,,,,
{12}3,6,
{995}5,,,,,,,,,,,,,,,,,,,,,,,,,,,,,,,,,,,,,,,,,,,,,,,,,,,,,,,,,,,,,,,,,,,,,,,,,,,,,,,,,,,
{12}6,
{1}2h[2:1],
{4}4,4,,,
{1}8h[2:1],
{4}6,6,,,
{1}7h[2:1],
{4}5,5,,,
{2}1^6[8:1],8^3[8:1],
{8}4/5,,,,3-6[8:1],,1b,1b,
{8},5,6/4,,1-6[8:1],6q3[8:1],,,
{8},8,7/1,,8,7/1,2/6,,
{8}4^1[8:1],8,7,6,5^8[8:1],2,3,4,
{8},6,5^2[8:1],6,7,8,1,,
{8}4,5/3,2/6,,8-3[8:1],3p6[8:1],,,
{8},1,8/2,,1,8/2,3/7,,
{8}5^8[8:1],1,2,3,4^1[8:1],7,6,5,
{8},3,4^7[8:1],3,2,1,8,,
{8}8/1,1/8-4[8:1],,2-6[8:1],,7-3[8:1],,1,
{8},2/7,,4/8,3/7,2/6,5b/1b,,
{8}5/4,4-8[8:1],,6-2[8:1],,3-7[8:1],,5,
{8},6/3,,1/5,2/6,3/7,4b/8b,,
{8}3,4,2/1,,6,5,7,8h[4:1],
{8},1,1h[4:1],,2,3,4,,
{1}4>5[1:1]/5p4[1:1],
{16},,,,,,,,,,1,8,1,,7,,
{8}1/8,7/2-5[8:1],,6-1[8:1],,4,,3,
{8}3h[8:3],,,1h[4:1],,7h[4:1],,5,
{16},,4,5,4,,6,,4h[4:1]/7h[4:1],,,,,,2h[4:1],,
{8},4h[4:1],,6h[4:1],,8,8,,
{8}1/8,2/7-4[8:1],,3-8[8:1],,5,,6,
{8}6h[2:1],,,,5,6,,3,
{1}4q7[2:1],
{8}1/2,8/3h[4:1],,4h[4:1],,7h[4:1],,8,
{8}5v8[8:1],6v3[8:1],,,,1/8,,2/7,
{16},,6,5,6,,4,,5,,8,,1,,,,
{8}4v1[8:1],3v6[8:1],,,,5/4,,3/6,
{16},,3,4,3,,5,,7/2,,,,,,,,
{16}6,5,6,5,6,,3,4,3,4,3,,2/7,,,,
{16}1,8,1,8,1,8,1,8,1,8,1,8,1,8,1,8q1[16:21],
{2}1>8[4:5],{1},,
E
&inote_5=(193.0){1},
{8}2^7[16:3],8^5[16:3],6^3[16:3],4^1[16:3],,,,,
{8},6,5,,3,4,,8,
{8},3,4,,6,5,,1,
{8},7,5,,2,4,,8,
{8}7^2[16:3],1^4[16:3],3^6[16:3],5^8[16:3],,,,,
{8},2,1,,7,8,,4/5,
{8},6,8,,3,1,,7/2,
{8},8/4,3/7,2-7[8:1]/6-3[8:1],,6/2,,4/8,
{8}1-4[8:1]/5-8[8:1],,5/1,,7,6,5,8/4,
{8},7-3[8:1],8,7,2,4,5,7,
{8}4-1[8:1]/8-5[8:1],,4/8,,2,3,4,1/5,
{8},2-6[8:1],1,2,7,5,4,2,
{8}3-6[8:1]/7-2[8:1],,3/7,,2,1,8,2/7,
{8},6-2[8:1],5,6,3-7[8:1],4,3,8,
{8}1^6[8:1]/8^3[10000:1259],,1/8,,4/5,5h[4:1]/4h[4:1],,,
{8}2^7[8:1],,2,6^3[8:1],,6,,,
{8}8/4,,1^4[8:1]/5^8[8:1],4^1[8:1]/8^5[8:1],,,,8/4,
{8}1-6[8:1],8,1,7-4[8:1],3,7,2-5[8:1],6,
{8}2,8-3[8:1],2,8,1^4[5000:627],5,6,7,
{8}8-3[8:1],1,8,2-5[8:1],6,2,7-4[8:1],3,
{8}7,1-6[8:1],7,1,8^5[8:1],4,3,2,
{8}1-5[8:1],5,1,7-3[8:1],3,7,2-6[8:1],6,
{8}2,8-4[8:1],4,8,1^4[8:1],8^5[8:1],1,8,
{8}2-7[8:1],7,2,6-3[8:1],3,6,2,3,
{16}4/5,,1-5[8:1]/8-4[10000:1251],7/2,3/6,,8/1,,,,6,,5,,4,,
{8}3^8[8:1],4,5,6^3[8:1],7,8,1^6[8:1],2,
{8}3,4^1[8:1],5,6,7-4[8:1],8-3[8:1],7,8,
{8}6^1[8:1],5,4,3^6[8:1],2,1,8^3[8:1],7,
{8}6,5^8[8:1],4,3,2-5[8:1],1-6[8:1],2,1,
{8}4^1[8:1],5,6,7^4[8:1],8,1,2^7[8:1],3,
{8}4,5^2[8:1],6,7,8-4[8:1],1-5[8:1],8,1,
{8}7-2[8:1],2,7,3-6[8:1],6,3,7,6,
{8}4/5,
{983}1,,,,,,,,,,,,,,,,,,,,,,,,,,,,,,,,,,,,,,,,,
{625}8,,,,,,,,,,,,,,,,,,,,,,,,,,
{983}7,,,,,,,,,,,,,,,,,,,,,,,,,,,,,,,,,,,,,,,,,6-2[8:1],,,,,,,,,,,,,,,,,,,,,,,,,,,,,,,,,,,,,,,,,
{625}5,,,,,,,,,,,,,,,,,,,,,,,,,,
{983}4,,,,,,,,,,,,,,,,,,,,,,,,,,,,,,,,,,,,,,,,,3-7[8:1],,,,,,,,,,,,,,,,,,,,,,,,,,,,,,,,,,,,,,,,,
{625}2,,,,,,,,,,,,,,,,,,,,,,,,,,
{983}1,,,,,,,,,,,,,,,,,,,,,,,,,,,,,,,,,,,,,,,,,
{8}6,3,,1/8,
{8}1-6[8:1]/2-5[8:1],,2/1,,7,6,5,4h[2:1],
{8},8-4[8:1],,8,3,4,5,6,
{8}7-4[8:1]/8-3[8:1],,7/8,,2,3,4,5h[2:1],
{8},1-5[8:1],,1,6,5,4/7,,
{8}3-8[8:1]/4-7[8:1],,4/3,,1,8,7,6h[2:1],
{8},2-6[8:1],,2,7,6,5,4,
{8}5-2[8:1]/6-1[8:1],,5/6,,8,1,2,3h[2:1],
{8},7-3[8:1],,7,2,6^3[8:1],,3/6,
{8}1-5[8:1],8-4[8:1],1,8,3,4,5,6h[2:1],
{8},2-6[8:1],,2,7,6,5,4,
{8}3-8[8:1]/7-4[8:1],,7/3,,1,2,3,4h[2:1],
{8},8-4[8:1],,8,3,4,5/2,,
{8}8-4[8:1],1-5[8:1],8,1,6,5,4,3h[2:1],
{8},7-3[8:1],,7,2,3,4,5,
{8}2-5[8:1]/6-1[8:1],,6/2,,8,7,6,5h[2:1],
{8},1-5[16:1],,1,
{12}4/8,
{995}7,,,,,,,,,,,,,,,,,,,,,,,,,,,,,,,,,,,,,,,,,,,,,,,,,,,,,,,,,,,,,,,,,,,,,,,,,,,,,,,,,,,
{12}6,1/5,
{995}2,,,,,,,,,,,,,,,,,,,,,,,,,,,,,,,,,,,,,,,,,,,,,,,,,,,,,,,,,,,,,,,,,,,,,,,,,,,,,,,,,,,
{24}3,,
{16}4/8,,3,,2,,1,8,,6,5,,2,,1/3,,
{16}8,,7,,6,,5,4,,2,1,,6,,5/7,,
{16}8,,1,,2,,3,4,,6,5,,2,,1/3,,
{16}2,,3,,4,,5,4,5,6,5,,7,,8/6,,
{16}7,,6,,5,,4,2,,5,7,,3,,2,,
{8}1^4[16:3],8,7,6,5^8[16:3],4,3,2,
{1}1,
{2},2b/7b,
{16}3,4,3,2,3,,5,4,5,4,5,,2,1,2,,
{16}6,5,6,7,6,,4,5,4,5,4,,7,8,7,,
{16}2,1,2,1,2,,6,5,6,7,6,,2,3,2,,
{16}7,8,7,8,7,,3,4,3,2,3,,7,6,7,,
{16}3,4,2,4,1,,7,8,7,6,7,,2,1,2,,
{16}6,5,7,5,8,,2,1,2,3,2,,7,8,7,,
{16}3,4,3,2,3,,6,5,6,7,6,,1,8,1-4[8:1],,
{8},1/5-8[8:1],,5/2-7[8:1],,2/6-3[8:1],,1/6,
{8}2,3-6[8:1],,3/7-2[8:1],,7/4-1[8:1],,4/8-5[8:1],
{16},,8/1-5[16:1],,,,1/5,,4-1[8:1]/8-5[8:1],7/3,2/6,,4/8,,,,
{16}2,6,2,6,2,,7,3,7,3,7,,4,3,2,1,
{16}7,8,6,8,5,,2,1,3,1,4,,8,7,6,5,
{16}3,4,3,2,3,,5,4,5,6,5,,1,2,3,4,
{16}6,5,6,7,6,,4,5,4,3,4,,6,7,8,1,
{1}6h[2:3]/2h[2:3],
{16},,,,,,,,,,1/5,4/8,3/7,,1/5,,
{8}6,6^3[4:1],3,3^8[4:1],,8^5[4:1],,5,
{8}4,3,2,1^4[4:1],,4^7[4:1],,7,
{8}8,1,2,3,3^6[8:1],,
{983}7,,,,,,,,,,,,,,,,,,,,,,,,,,,,,,,,,,,,,,,,,
{625}8,,,,,,,,,,,,,,,,,,,,,,,,,,
{983}1,,,,,,,,,,,,,,,,,,,,,,,,,,,,,,,,,,,,,,,,,
{8}2,
{8},4/5,,8/6,,3/1,,2/7,
{8}3^6[16:3],5^8[16:3],7^2[16:3],2,,6^3[16:3],4^1[16:3],2^7[16:3],
{8}7,,,,1,2-6[8:1],,8,
{8}7-3[8:1],,,,2,4,5,7,
{8},2/4,,7/5,,3/1,,6/8,
{8}7,6-3[8:1],,6/2-7[8:1],,2/5-8[8:1],,5/1-4[8:1],
{16},,1/8-4[16:1],,,,4/8,,1-4[8:1]/5-8[8:1],6/2,3/7,,1/5,,,,
{8}1-5[8:1],8,7-3[8:1],6,5-1[8:1],4,3,2,
{16}1,8,2,7,1,8,2,7,3,6,4,5,3,6,4,5,
{16}3h[2000:1],6h[2000:1],2h[2000:1],7h[2000:1],1h[2000:1],8h[2000:1],2h[2000:1],7h[2000:1],3h[2000:1],6h[2000:1],4h[2000:1],5h[2000:1],3h[2000:1],7h[2000:1],4h[2000:1],8h[2000:1],
{16}2h[2000:1],7h[2000:1],3h[2000:1],6h[2000:1],1h[2000:1],5h[2000:1],8h[2000:1],4h[2000:1],7h[2000:1]/3h[2000:1],8h[2000:1]/4h[2000:1],5h[2000:1]/1h[2000:1],2h[2000:1]/6h[2000:1],3h[2000:1]/7-3[1:3],8h[2000:1]/4h[2000:1],5h[2000:1]/1h[2000:1],6h[2000:1]/2h[2000:1],
{1}3h[2000:1]/7h[2000:1],,,,
E
