&title=Aiolos
&artist=xi
&wholebpm=205
&demo_seek=1.5
&demo_len=12.5
&lv_1=4
&lv_2=6
&lv_3=8+
&lv_4=12+
&lv_5=14
&des_4=mai-Star
&des_5=某S氏
&inote_1=(205.0){1},,,,
{1}1,
{1}1,
{1}8,
{1}8,
{1}1,
{1}8,
{1}8/1,,
{1}1,
{1}8,
{1}7,,
{1}8,
{1}1,
{1}2,,
{1}3,
{1}4,
{1}5,,
{1}6,
{1}5,
{1}4,,
{1}5b,,
{1}4-1[4:3],,
{1}8-5[4:3],,
{1}6-2[4:3],,
{1}3-7[4:3],,
{1}1/8,,
{2}1,1,
{1}1,
{2}8,8,
{1}8,
{1}8h[1:2]/1h[1:2],,,,
{4},8b,,,{1},,,
{2}1,1,
{1}1,
{2}2,2,
{1}2,
{2}3,3,
{1}3,
{2}4,4,
{1}4,
{2}5,5,
{1}5,
{2}6,6,
{1}6,
{2}7,7,
{1}7,
{2}8,8,
{1}8,
{2}1,8,
{1}1b,,,,
{1}8,
{1}7,
{1}6,
{1}5,
{1}4,
{1}3,
{1}2,
{1}1,
{1}2,
{1}3,
{1}4,
{1}5,
{1}6,
{1}7,
{1}8,
{1}8/1,
{1}1b,,
{1}8/1,
{1}1/8,
{2}7,7,
{2}6,6,
{2}5,5,
{2}4,4,
{2}3,3,
{2}2,2,
{1}8/1,
{1}8/1,
{2}2,2,
{2}3,3,
{2}4,4,
{2}5,5,
{2}6,6,
{2}7,7,
{2}1/8,8/1,
{1}8/1,
{1}1-5[4:3],,
E
&inote_2=(205.0){1},,
{2}1,1,
{2}2,2,
{2}3,3,
{2}4,4,
{2}5,5,
{2}6,6,
{2}7,7,
{2}8,8,
{1}8b/1b,,
{2}1/8,1/8,
{4}2,2,2,,
{2}3,3,
{4}4,4,4,,
{2}5,5,
{4}6,6,6,,
{2}7,7,
{4}8,8,8,,
{2}1/8,1/8,
{4}7,7,7,,
{2}6,6,
{4}5,5,5,,
{2}4,4,
{4}3,3,3,,
{2}2,2,
{4}1,1,1,,
{1}8b/1b,,
{4}1,1,2,2,
{2}1/2,1/2,
{4}3,3,4,4,
{2}4/3,4/3,
{4}5,5,6,6,
{2}6/5,6/5,
{4}7,7,8,8,
{2}8/7,8/7,
{1}1-4[4:3],,
{1}5-8[4:3],,
{1}4-1[4:3],,
{1}1h[1:1]/8h[1:1],,
{1}2h[1:1]/7h[1:1],,
{4},8b/1b,,,{1},
{4}1,1,8,8,
{4}1,8,1,8,
{1}1-5[4:3],,
{4}6,6,5,,
{4}5,
{627}5,,,,,,,,,,,,,,,,,,,,,,,,,,,,,,,,,,,,,,,,,,,,,,,,,,,,,,,,,,,,,,,,,,,,,,,,,,,,,,,,,,,,,,,,,,,,,,,,,,,,,,,,,,,,,,,,,,,,,,,,,,,,,,,,,,,,,,,,,,,,,,,,,,,,,,,,,,,,,
{999}4,,,,,,,,,,,,,,,,,,,,,,,,,,,,,,,,,,,,,,,,,,,,,,,,,,,,,,,,,,,,,,,,,,,,,,,,,,,,,,,,,,,,,,,,,,,,,,,,,,,,,,,,,,,,,,,,,,,,,,,,,,,,,,,,,,,,,,,,,,,,,,,,,,,,,,,,,,,,,,,,,,,,,,,,,,,,,,,,,,,,,,,,,,,,,,,,,,,,,,,,,,,,,,,,,,,,,,,,,,,,,,,,,,,,,,,,,,,,,,,,,,,,,,,,,,,,,,,,,,,,,,,,,,,,,,,,,,,,,,,,,,,,,,,,,,,,,,,,,,,,,,,,,,,,,,,,,,,,,,,,,,,,,,,,,,,,,,,,,,,,,,,,,,,,,,,,,,,,,,,,,,,,,,,,,,,,,,,,,,,,,,,,,,,,,,,,,,,,,,,,,,,,,,,,,,,,,,,,,,,,,,,,,,,,,,,,,,,,,,,,,,,,,,,,,,,,,,,,,,,,,,,,,,,,,,,,,,,,,,,,,,,,,,,,,,,,,,,,,,,
{4}4,
{4}4,3,,
{4}3,3,2,,
{4}2,2,1,,
{2}8/1,8/1,
{1}8-4[4:3],,
{4}3,3,4,,
{4}4,4,5,,
{4}5,5,6,,
{4}6,6,7,,
{4}7,7,8,,
{2}8/1,1/8,
{1}1-4[4:3]/8-5[4:3],,,,,
{4}8,8,7/8,,
{4}7,7,8/7,,
{4}6,6,6/5,,
{4}5,5,5/6,,
{4}4,4,4/3,,
{4}3,3,3/4,,
{4}2,2,2/1,,
{4}1/8,8/1,1/8,,
{4}1,1,1/2,,
{4}2,2,1/2,,
{4}3,3,3/4,,
{4}4,4,4/3,,
{4}5,5,5/6,,
{4}6,6,5/6,,
{4}7,7,7/8,,
{4}1/8,8/1,1/8,,
{1}2b/7b,,
{4}8,8,1,1,
{4}8,8,1,,
{4}1,1,8,8,
{2}7/2,8/1,
{4}8,8,7,7,
{4}6,6,5,5,
{4}4,4,3,3,
{4}2,2,8/1,,
{4}1,1,8,8,
{4}1,1,8,,
{4}8,8,1,1,
{2}2/7,8/1,
{4}1,2,3,4,
{4}5,6,7,8,
{4}1,1,8,8,
{1}2h[1:1]/7h[1:1],
{8},,,,,,,8b/1b,{1},
{1}1-4[4:3]/8-5[4:3],,
E
&inote_3=(205.0){1},,
{4}7,8,
{2}1-6[2:1],{1},
{4}2,1,
{2}8-4[2:1],{1},
{4}3,4,
{2}5-1[2:1],{1},
{4}7,6,
{2}4-1[2:1]/5-8[2:1],{1},
{1}2b/7b,,
{4}1,1,2,2,
{4}3,3,4,4,
{4}5,5,6,6,
{4}7,7,8,8,
{4}7,6,5,4,
{4}3,2,8/1,1/8,
{4}7/8,8/7,6/5,6/5,
{4}4/3,3/4,2/1,2/1,
{4}3,3,3,4/3,
{4}6,6,6,6/5,
{4}3,3,3,4/2,
{4}6,6,6,7/5,
{4}2,2,1/3,1/3,
{4}7,7,8/6,8/6,
{4}2,1/2,2,1/2,
{4}7,8/7,7,8/7,
{1}1>8[4:5],,
{4}1,2,3,5/4,
{4}6,7,8,1/2,
{4}3,5/4,6,8/7,
{4}1/2,8/3,7/4,6/5,
{4}8,7,6,5/4,
{4}3,2,1,8/7,
{4}6,4/5,3,2/1,
{4}7/8,1/6,5/2,3/4,
{2}6h[2:1],5,
{2}3h[2:1],4,
{2}7h[2:1],6,
{2}2h[2:1],3,
{2}8h[2:1],7,
{2}1h[2:1],2,
{1}7^4[2:1],
{8},2^5[2:1],,,,,,,
{8},6^1[2:1],,,,,,,
{8},3^8[2:1],,,,,,,
{4},8b/1b,,,{1},
{1}1q4[4:5],,
{4}7,6,5,4/3,
{4}2,3,4,6/5,
{4}8,7,6,5/4,
{4}1,2,3,5/4,
{1}6p8[2:1],
{1}3q1[2:1],
{4}8,7,6,5,
{4}4,3,2,1,
{4}4,5,6,8/7,
{4}5,4,3,2/1,
{4}5,6,7,8/1,
{4}4,3,2,8/1,
{1}2p4[2:1],
{1}7q5[2:1],
{4}1,2,3,4,
{4}5,6,7,8,
{8}7b/2b,,,,,,,8<1[8:15],{1},,,,
{4}6h[4:3],5,5,5,
{4}3h[4:3],4,4,4,
{4}7h[4:3],6,6,6,
{4}2h[4:3],3,3,3,
{4}7h[4:3],8,8,8,
{4}2h[4:3],1,1,1,
{4}7h[4:1],8,2h[4:1],1,
{4}8/1,7/2,6/3,5/4,
{4}6h[4:3],5,5,4,
{4}3h[4:3],4,4,5,
{4}7h[4:3],8,8,1,
{4}2h[4:3],1,1,8,
{4}7h[4:3],6,5,4,
{4}2h[4:3],3,4,5,
{4}6h[4:3],7,8,1,
{4}3h[4:3],2,1,8,
{1}7b/2b,,
{4}1,1,3,3,
{4}5,5,7,7,
{4}2,3/1,4,5/3,
{4}6,7/5,8,1/7,
{1}8z4[2:1],
{1}1s5[2:1],
{4}8,6,4,2,
{4}7,5,3,1,
{4}8,8,6,6,
{4}4,4,2,2,
{4}7,8/6,5,6/4,
{4}3,4/2,1,8/2,
{1}1s5[2:1],
{1}8z4[2:1],
{4}1,3,5,7,
{4}2,4,6,8,
{4}8/1,7/2,3/6,4^1[2:1]/5^8[2:1],{1},
{8}2/1,,,7/8,,,8/1,1/8,
{4},7b/2b,
E
&inote_4=(205.0){1},
{8},,,,4,4,5,5,
{16}1,,,1,,,2/8,,,,5,,4,,5,,
{8},1,2,3,4,5,6,,
{16}8,,,8,,,7/1,,,,4,,5,,4,,
{8},8,7,6,5,4,3,,
{8}1/8,,4/5,,3,7,2,6,
{8},1,8,,2/4,,8/6,,
{8}4,,5,,2,2,7,7,
{8},1,8,,8/2,,
{4}1q4[8:13]/7p4[8:13],{1},,
{8}2/4,3,,3,,3,,3,
{8},3,4,3,4,3,,6,
{2}6^4[8:1],2^8[8:1],
{4}5h[4:1],4h[4:1],5h[4:1],4,
{8}7/5,6,,6,,6,,6,
{8},6,5,6,5,6,,3,
{2}3^5[8:1],7^1[8:1],
{4}4h[4:1],5h[4:1],4h[4:1],5b,
{4}3/4,5/6,2/4,5/7,
{4}1/3,8/6,2/1,7/8,
{4}3/1,8/6,2/4,7/5,
{4}4/3,6/5,8/7,2/1,
{4}2h[4:3],4,,4,
{4}7h[4:3],5,,5,
{4}1h[4:3],5,5,5,
{8}5,1,6,2,7,3,8,4,
{1}1<5[2:1],
{8}3/4,3/4,5/6,5/6,1/2,1/2,8b/7b,,
{8}3,4,3,6,5,6,5,8,
{8}1,5,3,7,4,8,2,,
{8}7,8,7,2,1,2,1,4,
{8}8,4,7,3,6,2,5,,
{8}1,2,3,8,7,6,3,2,
{8}1,6,7,8,1,2,3,,
{8}6,5,7,4,8,1,3/6,,
{16}6,5,,,3,4,,,6,5,,,3,4,,,
{4}2/4,3,3,3,
{4}3,4/3,3/5,3/6,
{4}7/5,6,6,6,
{4}6,6/5,6/4,6/3,
{2}7/2-6[8:1],2/7-3[8:1],
{2}8/1-5[8:1],1/8-4[8:1],
{16}2,,1/2,,,1/2,,,1/2,,,1/2,,,1/2,,
{16}7,,7/8,,,7/8,,,8/7,,,7/8,,,7/8,,
{16}3,,3/4,,,3/4,,,4/3,,,4/3,,,4/3,,
{16}6,,5/6,,,6/5,,,6/5,,,6/5,,,6/5,,
{4},2q5[1:1]/8p5[1:1],,,{1},
{8}2,1,3,8,4,7,5,6,
{8}4/3,3/4,6/5,6/5,2/7,2/7,8b/1b,,
{16}8/7,,,8/1,,,2/1,,,,8/1,,6/3,,7/2,,
{8},4,6,2,8,1,7,,
{4}5-8[8:1],1,1-4[8:1],7,
{8}7-2[8:1],,3,,4b,4b,,,
{16}7/6,,,6/5,,,4/5,,,,1,,8,,1,,
{16}2/3,,,4/3,,,5/4,,,,8,,1,,8,,
{8}1,5,3,7,1,8,4,6,
{8}2,8,1,5,4-8[8:1],,,,
{16}1/2,,,8/1,,,8/7,,,,5/4,,7/2,,3/6,,
{8},5,3,7,1,8,2,,
{4}4-1[8:1],8,8-5[8:1],2,
{4}2-7[8:1],6,
{278}5b,,,,,,,,,,,,,,,,,,,,,,,,,,,,,,,,,,,5b,,,,,,,,,,,,,,,,,,,,,,,,,,,,,,,,,,,,,,,,,,,,,,,,,,,,,,,,,,,,,,,,,,,,,,,,,,,,,,,,,,,,,,,,,,,,,,,,,,,,,,,,
{16}1/2,,,1/8,,,8/7,,,,4,,5,,4,,
{16}7/8,,,8/1,,,2/1,,,,5,,4,,5,,
{8}4,8,2,6,4,5,1,7h[4:1],
{8},3,,3,,3,3/4,,
{8}2,1,3,8,4,7,5,5>6[8:13]/6<5[8:13],{1},,
{8}8,8,8,6,6,6,4,4,
{8}4,2,2,2,8-4[8:1],,1b,,
{8}3,3,,4,,5,,6,
{8},2,1,5,6,3h[4:1],,4,
{2}4h[2:1],5h[2:1],
{4}6h[4:1],5h[4:1],4h[4:1],3,
{8}6,6,,5,,4,,3,
{8},7,8,4,3,6h[4:1],,5,
{2}5h[2:1],4h[2:1],
{4}3h[4:1],4h[4:1],5h[1874:467],6b,
{4}2-6[8:1],8,7-3[8:1],1,
{4}1-5[8:1],7,8-4[8:1],2,
{4}1-3[8:1],4,8-6[8:1],5,
{4}5,7/8,3/4,2/1,
{4}2-5[8:1],6,6-1[8:1],3,
{4}3-8[8:1],7,7-4[8:1],5,
{4}5-2[8:1],1,1-6[8:1],2,
{4}2,1/3,8/4,5v2[8:5]/7v2[8:5],{1},
{8}3/4,3/4,5/2,2/5,1/6,1/6,7b/8b,,
{16}8/7,,,1/6,,,2/5,,,,1/8,,2/7,,6/3,,
{8},4,6,2,8,1,7/3,,
{4}6-1[8:1],2,2-5[8:1],7,
{8}7-4[8:1],,3,,6b/3-8[8:1],6b,,,
{16}1/2,,,8/3,,,7/4,,,,6,,5,,6,,
{16}7/8,,,6/1,,,2/5,,,,3,,4,,3,,
{8}5,1,7,3,8,1,5,4,
{8}6,3,7,2,8-4[8:1],,,,
{16}1/2,,,3/8,,,7/4,,,,3/6,,2/7,,1/8,,
{8},5,3,7,1,8,2/6,,
{4}3-8[8:1],7,7-4[8:1],2,
{8}2-5[8:1],,6,,3b/6-1[8:1],3b,,,
{16}3/4,,,5/2,,,1/6,,,,7,,8,,7,,
{16}5/6,,,7/4,,,8/3,,,,2,,1,,2,,
{8}8,4,6,2,5,4,8,2h[4:1],
{8},6,,6,,6,5/6,,
{8}1,8,2,7,3,6,4,5<4[8:5],{1},
{8}8/1,,4/3,2/5,,6/5,7/4,
{16}8b/1-5[16:3],,,,,,,,
E
&inote_5=(205.0){1},
{16},,,,,,,,5,4,3,2,1-4[5000:469],8,7,6,
{16}1-3[5000:469],,,1-6[5000:469],,,1,,,,8,,1,,7/2,,
{8},3,5,6/4,4,2,8-5[5000:469],6,
{16}8-6[5000:469],,,8-3[5000:469],,,8,,,,8,,1,,2/7,,
{8},6,4,3/5,5,7,1,3,
{8}4/5,4,4/6,6,2/6,2,2/8,7/1,
{8},6/2,7/3,,1/6,,4/8,2/6,
{8}4/5,5/4,6/3,6/3,7/2,2/7,1/8,1/8,
{16}1,8,1,8,2,7,2,7,3,6,3,6,4-1[16:3],5-8[8:1],4,5,
{1}4b,
{4},,5/4,3b/5b,
{8}6/2h[2:1],5,6,5,6,1,,8/2,
{8}3/7h[2:1],4,3,4,3,8,,1/7,
{16}3/4,,,2,,,8,,5/6,,,7,,,1,,
{4}8/2,1/6,7/3,2/5,
{8}8/3h[2:1],7,8,7,6,4,,3/7,
{8}1/6h[2:1],2,1,2,3,5,,2/6,
{4}1-6[8:1],1,7-4[8:1],7/3-8[8:1],
{4}3/5-1[8:1],5/4-8[8:1],4/6-1[8:1],6b/3b,
{8}5/3,6/4,3/5,4/6,1,8,,2/7,
{8}4/6,5/3,6/4,5/3,8,1,,2/7,
{16}3/5,,,3/6,,,3/7,,3/6,,,6/2,,,1/6,,
{16}7/8,,,1/2,,,4/7,,,2/5,,,4/6,,5/3,,
{8}4/8,4,4,4,4,4,4,4,
{8}6/4,6,6,6,6,6,6,6,
{8}6/2,2,2,2,8/2,8,8,8,
{16}1,8,1,8,1,8,1,8,
{641}1,,,,,,,,,,,,,,,,,,,,
{639}2,,,,,,,,,,,,,,,,,,,,3,,,,,,,,,,,,,,,,,,,,
{641}4,,,,,,,,,,,,,,,,,,,,5,,,,,,,,,,,,,,,,,,,,
{639}6,,,,,,,,,,,,,,,,,,,,7,,,,,,,,,,,,,,,,,,,,
{641}8,,,,,,,,,,,,,,,,,,,,1,,,,,,,,,,,,,,,,,,,,
{639}2,,,,,,,,,,,,,,,,,,,,3,,,,,,,,,,,,,,,,,,,,
{641}4,,,,,,,,,,,,,,,,,,,,5,,,,,,,,,,,,,,,,,,,,
{639}6,,,,,,,,,,,,,,,,,,,,7,,,,,,,,,,,,,,,,,,,,
{641}8,,,,,,,,,,,,,,,,,,,,
{1}1q7[2:1]/5q3[2:1],
{16}1,2,3,4,8,7,6,5,2,3,4,5,6,7,8,1,
{16}5,4,,6,5,,7,,1,2,3,4,5,6,7,8,
{16}1,2,3,4,1,2,3,4,8,7,6,5,4,3,2,1,
{16}8,7,6,5,1,2,3,4,8,7,6,5,1,2,3,4,
{16}8,7,6,5,8,7,6,5,8,7,6,5,4,3,2,1,
{16}5,4,3,2,1,,5,4,3,2,1,,4,3,2,1,
{16}4,5,6,7,8,,4,5,6,7,8,,5,6,
{625}7,,,,,,,,,,,,,,,,,,,,,,,,,,,,,,,,,,,,,,,
{623}8,,,,,,,,,,,,,,,,,,,,,,,,,,,,,,,,,,,,,,,
{16}1,2,3,4,8,7,6,5,1,2,3,4,8,7,6,5,
{16}1,8,1,8,2,7,2,7,3,6,3,6,4,5,4,5,
{4}4b,4/5,5/4h[2:1],6,
{4}6h[2:1],1,1h[2:1],7,
{4}7h[2:1],3,3h[2:1],8,
{4}8p5[2:1],1,2,3,
{8}4,4,4,4,5,5,5,5,
{16}4,5,4,5,4,5,4,,3/5,,,4/7,,,5/1-5[1250:39],,
{16},,8-4[1250:39],,,2-5[1250:39],,,7-4[1250:39],,,3-6[1250:39],,,8-4[1250:39],,
{16},,1-5[1250:39],,,7-4[1250:39],,,2-5[1250:39],,,6-3[1250:39],,,4-8[1250:39],,
{16},,5-1[1250:39],,,3-8[1250:39],,,6-1[1250:39],,,2-7[1250:39],,,5-1[1250:39],,
{16},,4-8[1250:39],,,6-1[1250:39],,,3-8[1250:39],,,7-2[1250:39],,,1,,
{4},2b/7b,,,{1},
{16}1,2,3,4,5,6,7,8,5/1,4,3,2,1,8,7,6,
{16}1/5,2,3,4,8/5,7,6,5,1/4,2,3,4,5/8,7,6,5,
{16}4/1,,,7/3,,,5/1,,,,4,5,4,,8/1,,
{16},,5,,7/3,,,,6,,1,8,1,,6/2,,
{8},3,1/8,,2/5,7/4,,1/8,
{8},4,6h[4:1],,8,7b/2b,,,
{16},,8/6,,,5/3,,,8/2,,,5/7,,,2/4,,
{16},3/1,,,4/6,,,1/7,,,2/4,,,7/5,,,
{16}8b,7,6,5,4,,1b,2,3,4,5,,8b,7,6,5,
{16}4,,1b,2,3,4,5,,8b,7,6,5,1b,2,3,4,
{16}5/8,,,2/6,,,4/8,,,,5,4,5,,8/1,,
{16},,4,,6/2,,,,3,,8,1,8,,3/7,,
{8},6,1/8,,4/7,5/2,,1/8,
{8},5,3h[4:1],,1,7b/2b,,,
{16},,1/3,,,4/6,,,1/7,,,2/4,,,5/7,,
{16},8/6,,,3/5,,,8/2,,,5/7,,,2/4,,,
{16}1,5,2,6,3,7,4,8,5,1,4,8,3,7,2,,
{8},5/1,,4/8,,6/2,7/3,,
{16}8/1,2,3,4,5,6,7,8,1/5,6/2,3/7,4/8,1/5,6/2,
{8}3q5[8:13]/7q1[8:13],{1},,
{16}4,,6,,6,,2,,2,,8,,8,,1,8,
{16}1,8,1,8,1,8,1,8,1-5[8:1],,,,8b/1b,,,,
{8}6,,6,,6,4,6,4,
{8}3,,3,,3,5,3,5,
{16}3h[8:3],,,2,,,8,,6h[8:3],,,7,,,1,,
{4}8/4,6/1,7/3,5/2,
{8}8,,8,,8,2,8,2,
{8}1,,1,,1,7,1,7,
{4}1-5[8:1],8,8-4[8:1],2-5[8:1],
{4}2/7-4[8:1],7/1-6[8:1],1/8-3[8:1],1b/8b,
{8}4,5,4,5,4,5,4,5,
{16}3,,6,,3,,6,,3,,6,,3,,6,3,
{8}7,2,7,2,7,2,7,2,
{16}8/1,,,3/1,,,6/8,,,4/5,,,7/2,,4,5,
{16}4,,4,,4,,4,,4,,4,,4,,4,5,
{16}6,,6,,6,,6,,6,,6,,6,,6,7,
{16}8,,8,,8,,8,1,2,,2,,2,,2,3,
{16}6/4,,,3/5,,,7/4,,,2/5,,,4/8,,5,2,
{1}8z4[2:1],
{16}2,5,4,5,2,5,4,5,2,5,4,,6b/3b,,,,
{16}8/1h[16:3],,,2,,,3/6,,,,4,5,4,,6/3-7[8:1],,
{16},,1/3,,2,,,,1,,7,8,7,,6/1-5[8:1],,
{8},3/1,2,,4,6,8,1/7,
{8},2/1,8/3,1-4[8:1]/2-6[8:1],,1b/2b,,,
{16},,1/3,,,3/5,,,7/5,,,7/1,,,1/3,,
{16},3/8,,,6/1,,,4/7,,,5/2,,,8/3,,,
{16}7/1h[4:1],6,5,4,3,,2/8h[4:1],3,4,5,6,,7/1h[4:1],6,5,4,
{16}3,,2/8h[4:1],3,4,5,6,,7/1h[4:1],6,5,4,3b,,,,
{16}1/8h[16:3],,,7,,,6/3,,,,5,4,5,,3/6-2[8:1],,
{16},,8/6,,7,,,,8,,2,1,2,,3/8-4[8:1],,
{8},6/8,7,,5,3,1,2/8,
{8},7/8,6/1,7-3[8:1]/8-5[8:1],,8b/7b,,,
{16},,8/6,,,6/4,,,2/4,,,8/2,,,6/8,,
{16},6/1,,,8/3,,,2/5,,,7/4,,,6/1,,,
{16}4,5,4,5,4,5,4,5,4,5,4,5,4,,5/3,,
{8},4/7,,2/6,,1/8,7/2,,
{16}8/1,7,6,5,4,3,2,1,8/4,3/7,2/6,1/5,8/4,7/3,
{8}2q8[2:1]/6q4[2:1],{1},
{8}2/8-4[8:1],,3/8,1-5[8:1],,6/1,7-3[8:1],2-6[8:1],
{4},8b,
E
