&title=響縁
&artist=豚乙女
&wholebpm=180
&demo_seek=66.4
&demo_len=21.5
&lv_1=2
&lv_2=5
&lv_3=6
&lv_4=9+
&lv_5=13
&des_4=某S氏
&des_5=はっぴー
&inote_1=(180.0){1},,,,,,,,,,
{1}1,
{1}1,
{1}2,
{1}2,
{1}3,
{1}3,
{1}4,
{1}4,
{1}4h[1:1],,
{1}3h[1:1],,
{1}2h[1:1],,
{1}1h[1:1],,
{1}8,
{1}8,
{1}7,
{1}7,
{1}6,
{1}6,
{1}5,
{1}5,
{1}4,
{1}4,
{1}3,
{1}3,
{1}2,
{1}2,
{1}1,
{1}1,
{1}1-4[4:3],,
{1}5-8[4:3],,
{1}1,
{1}8,
{1}1b,,
{1}1,
{1}2,
{1}3,
{1}4,
{1}5,
{1}6,
{1}7,
{1}8,
{1}8,
{1}7,
{1}6,
{1}5,
{1}4,
{1}3,
{1}2,
{1}1,
{1}2/1,,
{1}8/7,,
{1}8h[1:1],,
{1}7h[1:1],,
{1}6h[1:1],,
{1}5h[1:1],,
{1}4,
{1}4,
{1}3,
{1}3,
{1}2,
{1}2,
{1}1,
{1}1,
{1}1/2,,
{1}8/7,,
{1}1b,
E
&inote_2=(180.0){1},,,,,,,,,,
{1}4,
{1}4,
{1}3,
{1}3,
{1}2,
{1}2,
{2}1,1,
{2}8/1,8/1,
{2}2,2,
{2}3,3,
{2}4,4,
{1}5/4,
{2}6,6,
{2}7,7,
{2}8,8,
{1}1b/8b,
{1}3h[1:1],,
{1}4h[1:1],,
{1}6h[1:1],,
{1}5h[1:1],,
{2}4,4,
{1}3,
{2}5,5,
{1}6,
{2}7,7,
{1}8,
{2}2,2,
{1}1,
{2}2/1,8,
{1}7,
{2}6/5,4,
{1}3,
{2}1,2,
{2}3,4,
{1}5-8[4:3],,
{4}1,1,1,,
{4}2,2,2,,
{4}3,3,3,,
{4}4,4,4,,
{4}5,5,5,,
{4}6,6,6,,
{2}8/7,1/8,
{4}2/1,1/2,2/1,,
{4}8,8,8,,
{4}7,7,7,,
{4}6,6,6,,
{4}5,5,5,,
{4}4,4,4,,
{4}3,3,3,,
{2}1/2,8/1,
{4}7/8,8/7,8/7,,
{1}2h[2:1]/1h[2:1],
{1}4h[2:1]/3h[2:1],
{1}6h[2:1]/5h[2:1],
{1}8h[2:1]/7h[2:1],
{2}2/7,2,
{2}3,3,
{2}4,4,
{2}5,5,
{2}6,6,
{2}7,7,
{2}8,8,
{4}1/8,8/1,1/8,,
{2}7,7,
{2}6,6,
{2}5,5,
{2}4,4,
{2}3,3,
{2}2,2,
{2}1,1,
{4}8/1,1/8,8/1,,
{2}8/7,8/7,
{2}2/1,2/1,
{2}3/4,4/3,
{2}6/5,6/5,
{1}8b/7b,
E
&inote_3=(180.0){1},,
{2}1,1,
{2}2,2,
{385}3,,,,,,,,,,,,,,,,,,,,,,,,,,,,,,,,,,,,,,,,,,,,,,,,,,,,,,,,,,,,,,,,,,,,,,,,,,,,,,,,,,,,,,,,,,,,,,,,,,,,,,,,,,,,,,,,,,,,,,,,,,,,,,,,,,,,,,,,,,,,,,,,,,,,,,,,,,,,,,,,,,,,,,,,,,,,,,,,,,,,,,,,,,,,,,,,,3,,,,,,,,,,,,,,,,,,,,,,,,,,,,,,,,,,,,,,,,,,,,,,,,,,,,,,,,,,,,,,,,,,,,,,,,,,,,,,,,,,,,,,,,,,,,,,,,,,,,,,,,,,,,,,,,,,,,,,,,,,,,,,,,,,,,,,,,,,,,,,,,,,,,,,,,,,,,,,,,,,,,,,,,,,,,,,,,,,,,,,,,,,,,,,,,
{2}4,4,
{2}5,5,
{2}6,6,
{555}7,,,,,,,,,,,,,,,,,,,,,,,,,,,,,,,,,,,,,,,,,,,,,,,,,,,,,,,,,,,,,,,,,,,,,,,,,,,,,,,,,,,,,,,,,,,,,,,,,,,,,,,,,,,,,,,,,,,,,,,,,,,,,,,,,,,,,,,,,,,,,,,,,,,,,,,,,,,,,,,,,,,,,,,,,,,,,,,,,,,,,,,,,,,,,,,,,,,,,,,,,,,,,,,,,,,,,,,,,,,,,,,,,,,,,,,,,,,,,,,,,,,,,,,,,,,,,,,,,,,,,,,,,,,,,,,,,,,,,7,,,,,,,,,,,,,,,,,,,,,,,,,,,,,,,,,,,,,,,,,,,,,,,,,,,,,,,,,,,,,,,,,,,,,,,,,,,,,,,,,,,,,,,,,,,,,,,,,,,,,,,,,,,,,,,,,,,,,,,,,,,,,,,,,,,,,,,,,,,,,,,,,,,,,,,,,,,,,,,,,,,,,,,,,,,,,,,,,,,,,,,,,,,,,,,,,,,,,,,,,,,,,,,,,,,,,,,,,,,,,,,,,,,,,,,,,,,,,,,,,,,,,,,,,,,,,,,,,,,,,,,,,,,,,,,,,,,,,,
{1}8b,
{1}1-4[2:1],
{1}5-8[2:1],
{1}2-7[2:1],
{1}6-3[2:1],
{1}1^4[2:1],
{1}5^8[2:1],
{1}1^4[2:1],
{1}5^8[2:1],
{4}8,8,7,7,
{4}6,6,5,,
{4}1,1,2,2,
{4}3,3,4,,
{4}5,5,6,6,
{4}7,7,8,,
{4}3,3,2,2,
{1}1b,
{1}3h[1:1],
{1}4h[1:1],
{1}5h[1:1],
{1}6,
{1}6h[1:1],
{1}5h[1:1],
{1}4h[1:1],
{1}3,
{4}6,6,5/6,,
{4}3,3,3/4,,
{4}5,6,6/5,,
{4}4,3,4/3,,
{4}2,2,2/1,,
{4}7,7,7/8,,
{4}1,2,2/1,,
{4}8,7,8/7,,
{4}2,2,4/3,,
{4}7,7,6/5,,
{4}1,2,4/3,,
{4}8,7,5/6,,
{1}4^1[2:1],
{1}8^5[2:1],
{1}4p1[4:5],,
{4}8,8,7,7,
{4}6,6,5/6,,
{4}4,4,3,3,
{4}2,2,2/1,,
{4}1,1,2,2,
{4}3,3,4/3,,
{4}5,5,6,6,
{4}7,7,8b/7b,,
{4}5,6,7,8,
{4}1,2,4/3,,
{4}4,3,2,1,
{4}8,7,5/6,,
{4}8,7,6,5,
{4}4,3,1/2,,
{4}1,2,3,4,
{4}5,6,7/8,,
{2}6/5,4/3,
{4}6/5,6/5,4/7,,
{2}3/4,6/5,
{4}3/4,4/3,5/2,,
{4}1,1,7,7,
{4}5,5,3,3,
{4}1,1,3,3,
{4}5,5,7,7,
{4}8,8,2,2,
{4}4,4,6,6,
{4}4,4,2,2,
{4}8,8,1/8,,
{4}6,6,6/5,5/6,
{4}3,3,3/4,3/4,
{4}6,6,6/5,6/5,
{4}3,3,3/4,4/3,
{4}2,2,1/2,1/2,
{4}7,7,8/7,8/7,
{4}2,2,1/2,1/2,
{4}8/7,8/1,1/2,,
{2}7/8,2/1,
{4}8/7,7/8,1/6,,
{2}2/1,7/8,
{4}1/2,1/2,3/8,,
{1}7b/2b,
E
&inote_4=(180.0){1},,
{1}2^5[8:3],
{2}6h[2:1],7h[2:1],
{1}8^3[8:3],
{2}1h[2:1],8h[2:1],
{1}7^4[8:3],
{2}3h[2:1],2h[2:1],
{1}1^6[8:3],
{1}1b,
{4}3,3,3/4,,
{4}6,6,5/6,,
{4}4,4,3/5,,
{4}5,5,4/6,,
{4}2,1,8/3,,
{4}7,8,1/6,,
{4}4/5,6/3,2/7,1/8,
{1}1^4[4:1]/8^5[4:1],
{8}6h[4:1],,5,,3,4,3,,
{4}7h[4:1],6h[4:1],5h[4:1],4,
{4}2h[4:1],3h[4:1],4h[4:1],5,
{1}6^1[4:1],
{8}3h[4:1],,4,,6,5,6,,
{4}2h[4:1],3h[4:1],4h[4:1],5,
{1}4-1[4:1]/5-8[4:1],
{1}2b/7b,
{4}4/3h[4:7],4,5,5,
{4}4,4,5,4,
{4}5/6h[4:5],5,4,4,
{8}5,,5,,4,5,4,,
{4}8/7h[4:7],8,1,1,
{4}8,8,1,8,
{4}1/2h[4:5],1,8,8,
{8}1,,1,,8,1,8,,
{8}3,,4/3,,5,4,5,,
{8}6,,5/6,,4,5,4,,
{8}7,,8/7,,1,8,1,,
{8}2,,2/1,,8,1,8,,
{8}3,,4/2,,5,4,5,,
{8}6,,5/7,,4,5,4,,
{8}2,,1/3,,8,1,8,,
{1}1-5[4:1],
{8}3/6,,6/3,,4,5,,4h[8:3]/5h[8:3],
{2},6/3,
{8}7/2,,7/2,,7/2,,1,8h[8:3],
{4},7h[4:1],6h[4:1],5,
{8}4h[8:3],,,3h[8:3],,,2,,
{8}6h[8:3],,,7h[8:3],,,8,,
{1}1s5[2:1],
{2},2b/7b,
{4}5/3,8,4/6,1,
{4}3/5,6/8,6/4,1/3,
{4}4,7/5,5,2/4,
{2}2-6[8:1],7-3[8:1],
{4}2/4,7/8,6/4,2/1,
{2}1^4[8:1],5^8[8:1],
{4}2/1,4/3,5/6,8/7,
{1}4^1[4:1]/8^5[4:1],
{4}2,3/1,7,6/8,
{4}3/4,8/7,5/6,1/2,
{4}3,4/2,6,5/7,
{4}1/2,6/5,8/7,4/3,
{4}1/5,6/2,7/3,8/4,
{4}3/7,6/2,1/5,4/8,
{4}8/7,6/5,3/4,1/2,
{8}7-5[4:1]/8-4[4:1],,,,,,,3,
{8}4,,,6,5,,,4,
{4}5,4,3/6,2h[4:1],
{8}1,,,7,8,,,1,
{4}8,1,2/7,8h[4:1],
{4}1b,5/3,8/1,6/4,
{4}2/5,7/8,7/4,1/2,
{4}2/8,3/4,7/1,6/5,
{4}4/3,4/5,5/6,7/6,
{4}5/4,7/1,4/5,8/2,
{4}7/8,1/2,7/8,2/1,
{4}4,2,6,8,
{4}8/1,5/4,7b/2b,,
{4}2h[4:1],1,7h[4:1],8,
{4}3h[4:1],1,6h[4:1],8,
{4}4h[833:208],2,5h[4:1],7,
{4}6/5,4/5,4/3,2/3,
{2}1-6[8:1]/2-5[8:1],7-4[8:1]/8-3[8:1],
{2}1^6[8:1]/2^5[8:1],7^4[8:1]/8^3[8:1],
{4}1,3,7,5,
{8}4/5,,1/8,,7b/2b,,,3,
{8}4,,,6,5,,,4,
{4}5,4,3/6,2h[4:1],
{8}1,,,7,8,,,1,
{4}8,1,7/2,1b/8b,
{1}7b/2b,
E
&inote_5=(180.0){1},,
{1}4>5[8:3],
{16}7h[16:3],,,6h[16:3],,,5,,2h[16:3],,,3h[16:3],,,4,,
{4}5<4[8:3],,,1/8,
{16}2h[16:3],,,3h[16:3],,,4,,7h[16:3],,,6h[16:3],,,5,,
{4}4>5[8:3],,,8/1,
{16}7h[16:3],,,6h[16:3],,,5,,2h[16:3],,,3h[16:3],,,4,,
{4}5<2[8:3],,,4>5[2:1],{1},
{2}2-4[8:1]/6-8[8:1],4-6[8:1]/8-2[8:1],
{2}1-6[8:1]/8-3[8:1],3-6[8:1],
{2}8^5[8:1],4^1[8:1],
{2}1-5[8:1]/7-3[8:1],2-6[8:1]/8-4[8:1],
{2}2^7[4:1],6q3[4:1],
{1}5p4[2:1],
{4}1^4[4:1],4^7[4:1],7^2[4:1],2^5[4:1],
{4}5,1,7b/2b,,
{8}2^5[8:1],1,8,,7^4[8:1],8,1,,
{8}2^5[8:1],1,8,,7^4[8:1],8,1,,
{8}3^8[8:1],4,5,,6^1[8:1],5,4,,
{8}3^8[8:1],4,5,,6^1[8:1],5,4,,
{8}2q6[8:1],1,8,,7p3[8:1],8,1,,
{8}2q6[8:1],1,8,,7p3[8:1],8,1,,
{8}2/5,,6/5,7/4,,4/3,5/2,,
{8}3/6,4,5,,7b/2b,,,,
{4}4/3>4[2:3],4,4,4,
{4}3,3,3,3,
{4}5/6<5[2:3],5,5,5,
{4}6,6,6,6,
{4}4/3>4[2:3],4,4,4,
{4}3,3,3,3,
{4}5/6<4[1:1],5,5,5,
{8}6,,6,,5b,7b,1b,3b,
{16}7,,6,,5,,,3,4,,4,,1/7,,,,
{16}2,,3,,4,,,6,5,,5,,8/2,,,,
{16}7,,6,,5,,,3,4,,4,,1/7,,,,
{16}2,,3,,4,,,6,5-1[8:1],,5,,,,,,
{16}8,,7,,6,,,2,3,,3,,1/4,,,,
{16}1,,2,,3,,,7,6,,6,,8/5,,,,
{16}8,,7,,6,,,2,3,,3,,4/1,,,,
{8}7/8,6,1,1/2,3,8,2/7,,
{8}4/3,3-7[8:1]/4-8[8:1],,,,,,2/5,
{8},7-3[8:1]/8-4[8:1],7/8,,,1b/2b,,,
{8}6/5,5-1[8:1]/6-2[8:1],,,,,4/7,7/4,
{8},1-5[8:1]/2-6[8:1],2/1,,,3,4,5,
{2}6^3[4:1],2q6[4:1],
{1}7>6[2:1],
{8}6/5,7/4,,3/4,2/5,,8/1,7/2,
{16},,6/3,,4,5,4,,7b/2b,,,,,,,,
{8}7-4[8:1]/8-3[8:1],,8/7,,1-6[8:1],6q4[8:1],,,
{16},,8,,7,,6,,1h[16:3],,,2h[16:3],,,3,,
{8}1-6[8:1]/2-5[8:1],,2/1,,8-3[8:1],3p5[8:1],,,
{8},1,2,3,1-5[8:1]/8-4[8:1],,,,
{8}7^4[8:1]/8^3[8:1],,8/7,,1-6[8:1],6q4[8:1],,,
{8},8<4[8:1],4>8[8:1],,,,,,
{4}3p7[8:1]/7p3[8:1],3^6[8:1]/7^2[8:1],,2q6[8:1]/6q2[8:1],
{2}2^7[8:1]/6^3[8:1],2b/7b,
{8}7-4[8:1]/8-3[8:1],,7/8,,2-5[8:1],5p3[4:1],,,
{16},,8,,7,,6,,1h[16:3],,,3h[16:3],,,5,,
{8}1-6[8:1]/2-5[8:1],,2/1,,7-4[8:1],4q6[4:1],,,
{16},,1,,2,,3,,8h[16:3],,,6h[16:3],,,4,,
{8}7^4[8:1]/8^3[8:1],,7/8,,2-5[8:1],5p3[4:1],,,
{16},,8,,7,,6,,1h[16:3],,,3h[16:3],,,5,,
{8}1^6[8:1]/2^5[8:1],,1/2,,7-4[8:1],4q6[4:1],,,
{8},1-4[8:1],8-5[8:1],1b,8b,,,7/8,
{8}1/6,,,2/1,3/8,,,2/6,
{4}2^5[8:1]/6^1[8:1],2q8[8:1],,3/4,
{8}2/5,,,6/5,7/4,,,3/7,
{4}3^8[8:1]/7^4[8:1],7p1[8:1],,4/5,
{8}2^5[8:1],2,8,8,6,7/8,3,2/1,
{8}7^4[8:1],7,1,1,3,2/1,6,8/7,
{8}2^5[8:1],2,8,8,6,8/7,3,2/1,
{8}7^4[8:1],7,1,1,3,1/2,6,8/7,
{8}3^8[8:1],3,6,6,5,2/1,4,8/7,
{8}6^1[8:1],6,3,3,4,7/8,5,2/1,
{8}3^8[8:1],3,6,6,5,2/1,4,7,
{8}1^4[8:1]/2^7[8:1],1/2,,,8b/3b,,,,
{8}7^4[8:1],7,1,1,3,8/2,6,7/1,
{8}2^5[8:1],2,8,8,6,1/7,3,8/2,
{8}7^4[8:1],7,1,1,3,2/8,6,1/7,
{8}2^5[8:1],2,8,8,6,8/2,3,7/1,
{8}6^1[8:1],6,3,3,4,6/8,5,2/8,
{8}3^8[8:1],3,6,6,5,1/3,4,7/1,
{8}6^1[8:1],6,3,3,4,8/6,5,2,
{8}7^2[8:1]/8^5[8:1],7/8,,,6b/1b,,,8/7,
{8}1/6,,,1/2,3/8,,,2/6,
{4}2^5[8:1]/6^1[8:1],6q4[8:1],,7/8,
{8}6/1,,,2/1,3/8,,,7/3,
{4}3^8[8:1]/7^4[8:1],3p5[8:1],,8/1,
{1}2b/7b,
E
