&title=赤心性:カマトト荒療治
&artist=スズム
&wholebpm=205
&demo_seek=47.1
&demo_len=20.4
&lv_1=3
&lv_2=5
&lv_3=7+
&lv_4=9+
&lv_5=13+
&des_4=mai-Star
&des_5=はっぴー
&inote_1=(205.0){1},,,,,,,,,,,
{1}1,
{1}1,
{1}1,,
{1}8,
{1}8,
{1}8,,
{1}1/8,,
{1}2,,
{1}3,,
{1}4,,
{1}5,,
{1}6h[1:1],,
{1}5h[1:1],,
{1}4h[1:1],,
{1}3h[1:1],,
{1}2,
{1}1,
{1}8,
{1}7b,
{1}7,
{1}7,
{1}7,
{1}8/1,
{1}2,
{1}2,
{1}2,
{1}1/8,
{1}7,
{1}6,
{1}7,
{1}8/1,
{1}2,
{1}3,
{1}2,
{1}1/8,
{1}1-4[4:7],,,,
{1}8-5[4:7],,,,
{1}5,
{1}5,
{1}6,
{1}6,
{1}7,
{1}7,
{1}8,
{1}8,
{1}1,
{1}1,
{1}2,
{1}2,
{1}3,
{1}3,
{1}4,
{1}4,
{1}5-8[4:7],,,,
{2}1,1,
{1}1,
{1}2,
{1}2,
{2}3,3,
{1}3,
{1}4,
{1}4,
{2}5,5,
{1}5,
{1}6,
{1}6,
{2}7,7,
{1}7,
{1}8,
{1}8,
{1}1b,,
{1}2h[1:1],,
{1}1h[1:1],,
{1}8h[1:1],,
{1}7,
{1}7,
{1}7h[1:1],,
{1}8h[1:1],,
{1}1h[1:1],,
{1}2,
{1}2b,
E
&inote_2=(205.0){1},,,,,,,,,,,
{1}1,
{1}1,
{1}1,,
{1}8,
{1}8,
{1}8,,
{1}1h[1:1],,
{1}2,
{1}2,
{1}1,
{1}1,
{1}8,
{1}8,
{1}7,
{1}7,
{2}6,6,{1},
{2}5,5,{1},
{2}4,4,{1},
{2}3,3,{1},
{1}2,
{1}1/2,
{1}8/7,
{1}8/1,
{2}1,1,
{4}1,1,,,
{2}2,2,
{4}2,2,,,
{2}3,3,
{4}3,3,,,
{2}4,4,
{4}4,4,,,
{2}5,5,
{4}5,5,,,
{2}6,6,
{4}6,6,,,
{2}7,7,
{4}7,7,,,
{2}8,8,
{4}8,8,,,
{1}1-4[4:3],,
{1}5-8[4:3],,
{1}1-4[4:3],,
{1}5h[1:1],,
{2}4,4,
{1}4/3,
{2}3,3,
{4}3,3,3,,
{2}2,2,
{1}1/2,
{2}1,1,
{4}1,1,1,,
{2}8,8,
{1}8/7,
{2}7,7,
{4}7,7,7,,
{2}6,6,
{1}5/6,
{2}5,5,
{4}5,5,5,,
{1}4-1[4:3],,
{1}8-5[4:3],,
{2}4/3,3/4,
{4}3,3,3,,
{2}2/1,2/1,
{4}1,1,1,,
{2}8/7,8/7,
{4}7,7,7,,
{2}6/5,6/5,
{4}5,5,5b,,
{4}5,5,5,,
{4}6,6,6,,
{4}7,7,7,,
{4}8,8,8,,
{4}1,1,1,,
{4}2,2,2,,
{4}3,3,3,,
{4}4,4,4,,
{1}5/4,
{2}5/4,5/4,
{2}4,4,
{2}3,3,
{2}2,2,
{1}1/8,
{2}8,8,
{2}7,7,
{2}6,6,
{1}5/4,
{2}5,6,
{2}7,8,
{2}1,2,
{1}3/4,
{2}4,3,
{2}2,1,
{2}8,7,
{1}5/6,
{1}5b,
E
&inote_3=(205.0){1},,,,,,,,,,,
{4}2,3,4/5,,
{4}7,6,5/4,,
{4}2,1,8,7,
{4}8,1,8/1,,
{4}6,7,1/8,,
{4}3,2,8/1,,
{4}7,8,1,2,
{4}1,8,2/7,7/2,{1},
{4},,4/5,4/5,
{4}3,4,2/5,,
{4}6,5,7/4,,
{4}3,4,5,6,
{4}5,4,6/3,,
{4}3,2,1/8,,
{4}6,7,8/1,,
{4}7,7,8,8,
{4}1,1,1/8,,
{4}3,3/4,6,6/5,
{4}4,4/5,3/6,,
{4}2,2/1,7,7/8,
{4}1,1/8,2/7,,
{4}6,6/5,3,3/4,
{4}5,5/4,6/3,,
{4}7,7/8,2,2/1,
{4}3,4,5,6,
{1}7/2,
{4}6/3,,,4/5,
{4}6/3,,,7/2,
{4}8/1,8/1,1b/8b,,
{4}3,4,2/5,,
{4}6,5,4/7,,
{4}8,1,7/2,,
{4}2/7,3/6,4b/5b,,
{2}3/4,6/5,
{4}4,5,3/6,,
{4}7,8,1/2,,
{4}3,4,5,6,
{4}6,5,4/7,,
{4}3,4,2/5,,
{4}8,1,7/2,,
{4}7/2,6/3,5/4,,
{2}6/5,3/4,
{4}5,4,3/6,,
{4}2,3,4/5,,
{4}7,6,5/4,,
{1}1-4[4:3]/8-5[4:3],,
{1}4-1[4:3]/5-8[4:3],,
{1}2-5[2:1],
{1}7-4[2:1],
{2}4h[2:1],5h[2:1],
{4}4,5,6/3,,
{4}2,2,5,5,
{4}3,4,2/5,,
{4}4,4,5,5,
{4}3/4,3/4,6/5,6/5,
{4}7,7,4,4,
{4}6,5,4/7,,
{4}5,5,4,4,
{4}5/6,3/4,5/4,,
{4}3,3,8,8,
{4}2,1,3/8,,
{4}1,1,8,8,
{4}2/1,2/1,8/7,8/7,
{4}6,6,1,1,
{4}7,8,1/6,,
{4}2,2/1,7,7/8,
{4}1,1/8,
{2}2b/7b,{1},,,
{4},,4/5,5/4,
{4}3,4,2/5,,
{4}6,5,4/7,,
{4}8,1,2/7,,
{4}1/8,7/2,6/3,,
{2}3h[2:1],5h[2:1],
{4}4,5,3/6,,
{4}7,8,1/2,,
{4}3,4,5,6,
{4}6,5,7/4,,
{4}3,4,5/2,,
{4}8,1,7/2,,
{4}1/2,2/1,8/7,7/8,
{2}6h[2:1],4h[2:1],
{4}5,4,3/6,,
{4}2,1,8/7,,
{4}7,8,1/2,,
{2}4h[1:1],5h[2:1],
{4},4/5,4/5,,
{4}3,4,5,4,
{4}6,5,4/3,,
{4}2,1,8,7,
{4}1/8,1/8,2/7,,
{4}2,1,8,1,
{4}7,8,1/2,,
{4}3,4,5,6,
{4}4/5,5/4,6/3,,
{4}2,3,4,3,
{4}7,6,4/5,,
{4}3,4,5,6,
{4}7/2,7/2,8/1,,
{4}3,2,1,2,
{4}6,7,8/1,,
{4}2,1,8,7,
{4}1/8,2/7,6/3,4/5,
E
&inote_4=(205.0){1},
{2}3,4,
{2}5,6,
{4}5,5,4,4,
{2}6,5,
{2}4,3,
{2}4h[4:1]/5h[4:1],5h[4:1]/4h[4:1],
{4}2h[2:1],4,4,7h[2:1],
{4}5,5,2h[2:1],1,
{4}1,7h[2:1],8,8,
{4}1/8,1/8,3/6,8b/1b,
{4}2,2-5[4:1],,,
{4}7,7-4[4:1],,,
{4}1,1^6[4:1],,,
{4}8,8^3[4:1],,,
{4}6,5-2[4:1],,,
{4}3,4-7[4:1],,,
{4}7,7^2[4:1],,,
{4}8/1,1-4[16:3]/8-5[16:3],,,
{8}3h[8:3],,1,1,,,6h[8:3],,
{8}8,8,,,3/6,,1/8,,
{4}1,1-3[4:1],,,
{4}4,5,6,7,
{4}8,8-6[4:1],,,
{4}5,4,3,2,
{4}1,1-4[4:1],,,
{4}5,3,7,1,
{4}8,8-5[4:1],,,
{4}4,6,3,5b,
{8}3,3,3,,6,6,6,,
{8}5/4,4/5,5/4,,1b,,1b,,
{8}6,6,6,,3,3,3,,
{8}4/5,5/4,4/5,,8b,,8b,,
{8}3,4,3,,6,5,6,,
{8}4/3,3/4,4/3,,1b,,1b,,
{8}6,5,6,,3,4,3,,
{8}5/6,5/6,6/5,,2/1,,7/8,,
{1}1b/8b,
{1}1q7[2:1],
{1}8p2[2:1],
{4}1,1s5[4:1],,,
{4}2/1,2/3,3/4,,
{4}7/8,6/7,6/5,,
{4}4/3,5/4,6/5,,
{4}5/4,1/8,7/2,3b/6b,
{2}2h[4:1]/3h[4:1],6h[4:1]/7h[4:1],
{4}1/2,8/1,8/7,,
{4}7/2,4-1[4:1]/5-8[4:1],,,
{4}2h[4:1],8b,7h[4:1],1b,
{4}6/3,3/6,8/1,,
{4}1/2,3/4,5/6,,
{4}8/7,5/6,4/3,,
{4}1/2,1/2,8/7,8/7,
{2}8h[4:1]/1h[4:1],4h[4:1]/5h[4:1],
{4}3/4,4/5,6/5,,
{4}3/6,1-5[4:1]/8-4[4:1],,,
{4}7/8,1/8,2/1,,
{1}1p8[2:3],,
{1}8<1[2:3],,
{1}1q4[4:5],,
{2}4h[4:1],5h[4:1],
{4}2b/7b,2b/7b,1b/8b,,
{4}1,2,3,4,
{4}8,7,6,5,
{8}2,,7,,1,8,1,,
{4}1b/3b,1b/3b,6b/8b,8b/6b,
{4}5,6,7,8,
{4}4,3,2,1,
{8}7,,2,,8,1,8,,
{4}2b/1b,7b/8b,2b/7b,,
{8}3,4,3,,6,5,6,,
{8}4,5,4,5,4,5,4,,
{4}7h[4:1],1h[4:1],8h[4:1],2,
{4}3b/1b,6b/8b,1b/3b,8b/6b,
{8}6,5,6,,3,4,3,,
{8}5,4,5,4,5,4,5,,
{4}2h[4:1],8h[4:1],1h[4:1],7,
{4}1/8,1-4[8:1]/8-5[8:1],,,
{1}2h[1:1],
{1}1h[1:1],
{1}8h[1:1],
{4}7,7s3[4:1],,,
{4}2/1,1-6[16:3]/2-5[16:3],,,
{4}7/8,7-4[16:3]/8-3[16:3],,,
{4}1/8,1-5[16:3]/8-4[16:3],,,
{4}4/3,7/8,6/5,1b/2b,
{2}5^7[8:1],4^2[8:1],
{4}4/5,1-3[8:1]/8-6[8:1],,,
{4}1,7,3,5,
{4}8h[4:1],6b,2h[4:1],4b,
{2}5-8[16:3],1,
{4}1/8,6-3[16:3]/7-2[16:3],,,
{4}1/8,2-7[16:3]/3-6[16:3],,,
{4}7/6,5/4,8/1,2/3,
{2}8-4[16:3],1-5[16:3],
{4}6,4/3,2/1,,
{4}1/8,5/4,1/8,,
{4}1,1^7[16:3],,,
{1}1-4[2:1]/7-4[2:1],
{4}4,4-8[16:3],,,
{4}2,2,2-6[8:1],,
{4}7,7,7-3[8:1],,
{4}2,2,2^8[8:1],,
{4}6,6^4[8:1],,,
{4}1,1,1-3[8:1],,
{4}5,5,5-7[8:1],,
{4}3,3,3-5[8:1],,
{4}7,7-1[8:1],,,
{4}4/3,4/3,6/5,5/6,
{4}4/2,4/2,7/5,7/5,
{4}1/3,3/1,6/8,8/6,
{4}2/1,7/8,8/1,,
{8}2,1,2,,7,8,7,,
{8}1,8,2,7,3,6,4,,
{8}3/7,3/7,3/7,,1/5,1/5,1/5,,
{8}2,2,6,6,4,4,8,8,
{8}3h[8:3],,1,1,,,6h[8:3],,
{8}8,8b,
E
&inote_5=(205.0){1},,,,,,,
{1}4h[4:11],,
{1}5h[4:3],
{4}4/5,4-1[8:1]/5-8[8:1],,7b/2b,
{4}1/2-5[8:1],1,8/7-4[8:1],8,
{4}1/2-5[8:1],1<2[4:1],,,
{4}8/7-4[8:1],8,1/2-5[8:1],1,
{16}6,,2,1,2,,8/3,,3b/8b,,,,1/2,,,,
{4}8/7-4[8:1],8,1/2-5[8:1],1,
{4}8/7-4[8:1],8>7[4:1],,,
{8}7,6,5,2,3,4,6,2,
{8}7,2/7,2/7,7/2,8/1,8/1,1/8z4[2:1],8/1,
{4},,,1-5[8:1],
{8},,,4,5,,7/2,,
{2}6-1[8:1],2-5[8:1],
{8}6,5,4/7,,3,4,2/5,,
{2}3-8[8:1],7-4[8:1],
{8}3,4,2/5,,6,5,4/7,,
{2}2^7[8:1],6^3[8:1],
{4}2^5[8:1],7^2[8:1],4^7[8:1],,
{2}2v5[8:1]/8v5[8:1],1v4[8:1]/7v4[8:1],
{4}5-1[8:1],4-8[8:1],5,2b/7b,
{8}1-4[8:1]/8-5[8:1],1/8,,,4v1[8:1]/5^8[8:1],4/5,,,
{8}1v4[8:1]/8v5[8:1],8/1,,,8b/7b,,2b/1b,,
{8}2-6[8:1]/6-3[8:1],2/6,,,3v2[8:1]/6v7[8:1],3/6,,,
{8}1-5[8:1]/8v5[8:1],1/8,,,6b,5b,4b,3b,
{8}1-4[8:1]/8q4[8:1],8/1,,,7-5[8:1]/8-5[8:1],7/8,,,
{8}2-7[8:1]/3-6[8:1],2/3,,,1v3[8:1]/8v6[8:1],1/8,,,
{8}1-4[8:1]/8v5[8:1],8/1,,,4-1[8:1]/5^8[8:1],5/4,,,
{8}1^6[8:1]/2^5[8:1],2/1,,,7/4,,8/3,,
{1}1b/2b,
{4}8b/7b,,,1/8,
{4}7b/2b,,,6/3>5[4:1],
{4},,8/1,7/2,
{16}8/3,,,6,5,,5,,8/3,,3/8,,,,2,,
{8}4,5,7p2[4:1],7,,,,1,
{8}2-5[8:1],2,7-4[8:1],7,1-5[8:1],1,,,
{2}3q8[8:1]/4^7[8:1],5^2[8:1]/6p1[8:1],
{8}2-5[8:1],2,,8,7-4[8:1],7,,1,
{8}8,1,1^6[8:1]/8^3[8:1],,,,,,
{4}2-5[8:1]/6-1[8:1],,3/7,1-3[8:1]/8-4[8:1],
{4}1-5[8:1]/8-6[8:1],1-3[8:1]/8-4[8:1],1-5[8:1]/8-6[8:1],,
{8}3-8[8:1]/4-7[8:1],,,,5b/2b,,,7,
{8}5,4,2q7[4:1],2,,,,8,
{8}7-4[8:1],7,2-5[8:1],2,8-4[8:1],8,,,
{2}5^2[8:1]/6p1[8:1],3q8[8:1]/4^7[8:1],
{8}7-4[8:1],7,,1,2-5[8:1],2,,8,
{8}1,8,1-5[8:1]/8-4[8:1],,,,,3/6,
{16}6/3,,,7/2,2-6[8:1]/7-3[8:1],,,,,,,,,,1,,
{4}1,4/5,2/7,,
{1}1b/6b,,
{1}8b/3b,
{8},,,,,4/5,5/4,4/5,
{2}2b/5b,6,
{2}7b/4b,3,
{4}1b/5b,3/4,4b/8b,6/5-1[8:1],
{4}4-8[8:1],6-1[8:1],3,7b/2b,
{16}6h[16:3],,,5,7,,5,,4,,3,,2/4,,,,
{16}3h[16:3],,,4,2,,4,,5,,6,,5/7,,,,
{16}8h[16:3],,,1,7,,2,,3,,4,,6/5-1[8:1],,,,
{4}4-8[8:1],6-1[8:1],3-8[8:1],1b,
{16}3h[16:3],,,4,2,,4,,5,,6,,5/7,,,,
{16}6h[16:3],,,5,7,,5,,4,,3,,2/4,,,,
{16}1h[16:3],,,8,2,,7,,6,,5,,3/4-8[8:1],,,,
{4}5-1[8:1],3-8[8:1],6,2b/7b,
{16}2h[16:3],,,1,3,,1,,8,,7,,6/8,,,,
{16}7h[16:3],,,8,6,,8,,1,,2,,3/1,,,,
{16}5h[16:3],,,4,6,,7,,6,,5,,3/4-8[8:1],,,,
{4}5-1[8:1],3-8[8:1],6-1[8:1],8b,
{16}7h[16:3],,,8,6,,8,,1,,2,,3/1,,,,
{16}2h[16:3],,,1,3,,1,,8,,7,,8/6,,,,
{16}4h[16:3],,,5,3,,2,,3,,4,,6/5,,,,
{12}1,
{995}3,,,,,,,,,,,,,,,,,,,,,,,,,,,,,,,,,,,,,,,,,,,,,,,,,,,,,,,,,,,,,,,,,,,,,,,,,,,,,,,,,,,
{12}2,8,
{995}6,,,,,,,,,,,,,,,,,,,,,,,,,,,,,,,,,,,,,,,,,,,,,,,,,,,,,,,,,,,,,,,,,,,,,,,,,,,,,,,,,,,
{12}7,
{2}1s5[4:11],{1},,,
{4}4-1[8:1]/5-8[8:1],,1/8,2/7,
{16}6/1,,,3,4,,4,,1/6,,6/1,,,,7,,
{8}5,4,2<4[4:1],2,,,,8,
{8}7-4[8:1],7,2-5[8:1],2,8>4[8:1],8,,,
{2}5^2[8:1]/6p1[8:1],3q8[8:1]/4^7[8:1],
{8}7-4[8:1],6,,1,2-5[8:1],3,,8,
{8}1,8,1<5[8:1]/8>4[8:1],,,,,,
{4}3-8[8:1]/7-4[8:1],,2/6,1-5[8:1]/8-6[8:1],
{4}1-3[8:1]/8-4[8:1],1-5[8:1]/8-6[8:1],1-3[8:1]/8-4[8:1],,
{8}5-2[8:1]/6-1[8:1],,,,7b/4b,,,2,
{8}4,5,7>5[4:1],7,,,,1,
{8}2-5[8:1],2,7-4[8:1],7,1^6[8:1],1,,,
{2}3q8[8:1]/4^7[8:1],5^2[8:1]/6p1[8:1],
{8}2-5[8:1],3,,8,7-4[8:1],6,,1,
{8}8,1,1-5[8:1]/8-4[8:1],,,,,6/3,
{16}3/6,,,7/2,2-6[8:1]/7-3[8:1],,,,,,,,,,8,,
{4}8,5/4,7/2,,
{1}3-6[2:1]/7-2[2:1],
{4}3/8,1-5[8:1]/2-6[8:1],,,
{4}5/2-5[8:1],1,4/7-4[8:1],8,
{4}5/2-5[8:1],1p8[4:1],,,
{4}4/7-4[8:1],8,5/2-5[8:1],1,
{16}6,,2,1,2,,3/8,,8/3,,1b,,1b,,1b,,
{4}4/7-4[8:1],8,5/2-5[8:1],1,
{4}4/7-4[8:1],8q1[4:1],,,
{8}2,4,3,7,5,6,2,6,
{8}1,1/8,8/1,8/1,2-5[8:1]/7-4[8:1],7/2,,,
{8}2-5[8:1],2,8,8,7-4[8:1],7,1,1,
{8}2-5[8:1],2,8,8,7-4[8:1],7,1,1,
{8}2-5[8:1],2,8,8,7-4[8:1],7,1,1,
{16}2/5,,7,8,7,,1/6,,1/6,,8b,,8b,,8b,,
{8}5/2-5[8:1],2,8,8,4/7-4[8:1],7,1,1,
{8}5/2-5[8:1],2,8,8,4/7-4[8:1],7,1,1,
{8}2,4,3,7,5,6,4,5,
{8}4,6/3,6/3,2/7,2/7,8/1,8/1s5[2:1],1/8,
{4},,,
{8}8-4[8:1],,,,
E
