&title=最終鬼畜妹・一部声
&artist=ビートまりお
&wholebpm=200
&demo_seek=39.4
&demo_len=19.6
&lv_1=3
&lv_2=6
&lv_3=8
&lv_4=11+
&lv_5=13+
&des_4=はっぴー
&des_5=rioN
&inote_1=(200.0){1},,,,,,,,,
{1}1,
{1}1,
{1}2,
{1}2,
{1}3,
{1}3,
{1}4,
{1}4,
{1}5,
{1}5,
{1}6,
{1}6,
{1}7,
{1}7,
{1}8,
{1}8,
{1}1,
{1}1,
{1}8/1,,
{1}8,
{1}8,
{1}8/1,,
{2}1,1,{1},
{2}2,2,{1},
{2}3,3,{1},
{2}4,4,{1},
{2}5,5,{1},
{2}6,6,{1},
{2}7,7,{1},
{2}8,8,{1},
{1}8h[1:1],,
{1}1h[1:1],,
{1}8h[1:1],,
{1}1h[1:1],,
{1}8,
{1}8,
{1}7,
{1}7,
{1}6,
{1}6,
{1}5,
{1}5,
{1}4,
{1}4,
{1}3,
{1}3,
{1}2,
{1}2,
{1}1,
{1}1b,
{2}1,1,
{1}1,
{2}2,2,
{1}2,
{2}3,3,
{1}3,
{2}4,4,
{1}4,
{2}5,5,
{1}5,
{2}6,6,
{1}6,
{2}7,7,
{1}7,
{2}8,8,
{1}8,
{2}1,2,
{1}3,
{2}4,5,
{1}6,
{2}7,8,
{1}1,
{2}1,8,
{1}8/1,
{1}1,
{1}2,
{1}3,
{1}4,
{1}5,
{1}6,
{1}7,
{1}8,
{1}1-5[4:7],,,
E
&inote_2=(200.0){1},,,,,,,,,
{2}1,1,
{2}2,2,
{2}3,3,
{2}4,4,
{2}5,5,
{2}6,6,
{2}7,7,
{1}8/1,
{2}8,8,
{2}7,7,
{2}6,6,
{2}5,5,
{2}4,4,
{2}3,3,
{2}2,2,
{1}1/8,
{2}2,3,
{2}4,5,
{2}6,7,
{1}8/1,
{2}7,6,
{2}5,4,
{2}3,2,
{1}1/8,
{2}1,1,
{4}2,2,2,,
{2}3,3,
{4}4,4,4,,
{2}5,5,
{4}6,6,6,,
{2}7,7,
{1}8b/1b,
{2}8,8,
{4}7,7,7,,
{2}6,6,
{4}5,5,5,,
{2}4,4,
{4}3,3,3,,
{2}2,2,
{1}1b/8b,
{1}8h[2:1],
{2}7,7,
{1}6h[2:1],
{2}5,5,
{1}4h[2:1],
{2}3,3,
{1}2h[2:1],
{2}1,1,
{2}1,2,
{2}3,4,
{2}5,6,
{2}7,8/1,
{2}8,7,
{2}6,5,
{2}4,3,
{2}2,1/8,
{2}2,4,
{2}6,8,
{2}2,4,
{2}6,8/1,
{2}7,5,
{2}3,1,
{2}7,5,
{2}3,1/8,
{4}1,1,2,2,
{2}2/1,2/1,
{4}3,3,4,4,
{2}4/3,4/3,
{4}5,5,6,6,
{2}6/5,6/5,
{4}7,7,8,8,
{1}8b/1b,
{4}8,8,7,7,
{2}8/7,8/7,
{4}6,6,5,5,
{2}6/5,6/5,
{4}4,4,3,3,
{2}4/3,4/3,
{4}2,2,1,1,
{1}8b/1b,
{4}2,2,3,3,
{4}4,4,5,5,
{4}6,6,7,7,
{4}8b/1b,8b/1b,8b/1b,,
{4}7,7,6,6,
{4}5,5,4,4,
{4}3,3,2,2,
{1}8b/1b,
{1}2-6[4:3],,
{1}7-3[4:3],,
{1}1-5[4:3],,
{1}8-4[4:3],,
E
&inote_3=(200.0){1},2h[4:7]/1h[4:7],,
{1}8h[4:7]/7h[4:7],,
{1}8h[4:3]/1h[4:3],
{1}1h[4:3]/8h[4:3],
{1}2h[2:1]/7h[2:1],
{4}1,1,8,8b,
{4}4/3,3,4,3,
{4}5/6,6,5,6,
{4}3/4,3,4,5,
{4}6,5,4/7,,
{4}5/6,6,5,6,
{4}4/3,3,4,3,
{4}6/5,6,5,4,
{4}3,4,5/2,,
{4}3/4,3,5/6,6,
{4}3,4,5,6,
{4}5/6,6,4/3,3,
{4}6,5,3/4,,
{4}5/6,6,3/4,3,
{4}6,5,4,3,
{4}3/4,3,5/6,6,
{4}3,4,5b/6b,,
{4}3/4,4/5,4/3,4/5,
{4}4,3,2,1,
{4}2/1,1/8,2/1,1/8,
{4}8,7,6/5,,
{4}5/6,4/5,5/6,4/5,
{4}5,6,7,8,
{4}7/8,8/1,8/7,8/1,
{4}1,2,3b/4b,,
{2}1-4[4:1],8-5[4:1],
{4}4,4,2/7,2/7,
{4}4/3,5/6,3/4,5/6,
{4}1/8,2/7,3b/6b,,
{2}5-8[4:1],4-1[4:1],
{4}8,8,6/3,6/3,
{4}6/5,4/3,5/6,3/4,
{1}4^1[8:3]/5^8[8:3],
{2}1^3[16:3],5^7[16:3],
{4}4,4,2/6,2/6,
{4}1/2,7/8,1/2,7/8,
{4}3/6,2/7,8b/1b,,
{2}8^6[16:3],4^2[16:3],
{4}5,5,3/7,3/7,
{4}7/8,1/2,7/8,1/2,
{1}7p3[2:1]/8p3[2:1],
{1}1h[4:3],
{1}2h[4:3]/8h[4:3],
{1}8h[4:3],
{1}7h[4:3]/1h[4:3],
{1}4h[4:3],
{1}3h[4:3]/5h[4:3],
{1}5h[4:3],
{8}4/6,,,3/5,,,6b/3b,,
{4}2/1,2/1,6/5,6/5,
{4}1/2,2/1,6/5,6/5,
{4}7/8,7/8,3/4,4/3,
{4}8/7,8/7,4b/3b,,
{4}4/3,3/4,6/7,7/6,
{4}5/6,5/6,2/3,2/3,
{4}4/3,6/7,6/5,2/3,
{4}3/4,5/6,2/7,,
{4}3/4,5/2,4/3,5/2,
{4}2/4,4/2,7/5,7/5,
{4}5/6,7/4,5/6,4/7,
{4}7/5,7/5,4/8,,
{4}8/4,8/4,6/2,6/2,
{4}8/4,3/7,2/6,5/1,
{4}5/1,5/1,7/3,7/3,
{4}1/5,6/2,7b/3b,,
{2}1-3[16:3],8-4[4:1],
{4}1,1,8/2,3/7,
{2}8-6[16:3],1-5[4:1],
{4}8,8,3/6,,
{2}4-2[16:3],5-1[4:1],
{4}4,4,3/5,2/6,
{2}5-7[16:3],4-8[4:1],
{4}5,5,2b/7b,,
{2}2^4[16:3],7^5[16:3],
{2}1^3[16:3],8^6[16:3],
{4}4,5,4,5,
{4}6/3,2/7,1/8,,
{2}3^1[16:3],6^8[16:3],
{2}4^2[16:3],5^7[16:3],
{4}1,8,1,8,
{4}1/8,7/2,6b/3b,,
{2}1v3[4:1],8v6[4:1],
{2}2v4[4:1],7v5[4:1],
{4}4,5,2,7,
{4}3/4,2/1,7/8,6/5,
{2}4v2[4:1],5v7[4:1],
{2}3v1[4:1],6v8[4:1],
{4}1,8,3,6,
{4}3/4,5/6,8b/1b,,
{4}1h[8:3],,,1,
{8}2h[8:3],,,3h[8:3],,,4,,
{4}8h[8:3],,,8,
{8}7h[8:3],,,6h[8:3],,,5,,
{4}4h[8:3],,,4,
{8}3h[8:3],,,4h[8:3],,,5,,
{4}5h[8:3],,,5,
{8}6h[8:3],,,5h[8:3],,,
{4}4>5[1:3],{1},,,,
E
&inote_4=(200.0){1},5h[2:3]/4h[2:3],
{4},,,4/5,
{1}8h[2:3]/6h[2:3],
{4},,,8/6,
{1}3h[2:1]/1h[2:1],
{1}7h[2:1]/5h[2:1],
{1}2h[2:1]/4h[2:1],
{8}6,6,3,3,5,5,4,,
{4}6/5,6/5,4/3,4/3,
{4}6/5,6/5,4/3,4/3,
{4}6/5,6/5,4/3,4/3,
{4}2/1,3/4,5/6,,
{4}4/3,4/3,6/5,6/5,
{4}4/3,4/3,6/5,6/5,
{4}4/3,4/3,5/6,6/5,
{4}8/7,5/6,3/4,,
{4}7/5,6/5,4/2,4/3,
{4}7/5,6/5,2/4,4/3,
{4}7/5,6/5,4/2,4/3,
{4}3/1,3/4,4/6,,
{4}4/2,4/3,7/5,6/5,
{4}4/2,4/3,7/5,6/5,
{4}4/2,4/3,5/7,6/5,
{4}8/6,5/6,3/5,,
{4}7/8,7/5,1/2,4/2,
{4}7/8,7/5,1/2,4/2,
{4}7/8,7/5,1/2,4/2,
{4}8/7,5/7,4/3,,
{4}1/2,4/2,7/8,7/5,
{4}1/2,4/2,7/8,7/5,
{4}1/2,4/2,7/8,7/5,
{4}2/1,2/4,6/5,1b,
{4}6/7h[4:1],6,3/2h[4:1],3,
{4}8/7h[4:1],8,2/1,3/8,
{4}5/6h[4:1],5,1/2h[4:1],1,
{8}8/7,8/7,6/1,1/6,5/2,,,,
{4}3/2h[4:1],3,6/7h[4:1],6,
{4}1/2h[4:1],1,8/7,1/6,
{4}4/3h[4:1],4,8/7h[4:1],8,
{1}1^6[8:3]/2^5[8:3],
{8}6/5,6,5/6,,3/4,3,3/4,,
{8}4/6,6,6/4,,3/4,3,3/4,,
{8}6/5,6,6/4,,3/4,3,3/5,,
{1}3q5[2:1],
{8}2/1,2,2/1,,7/8,7,8/7,,
{8}2/8,2,8/2,,7/1,7,7/1,,
{8}6,6,3,3,5,5,4,4,
{1}5<4[2:1],
{8}5h[4:1],,6,6h[4:1],,7,7,,
{8}1h[4:1],,2,2h[4:1],,3,3,,
{8}4h[4:1],,3,3h[4:1],,2,2,,
{8}8h[4:1],,7,7h[4:1],,6,6,,
{8}1h[4:1],,2,2h[4:1],,3,3,,
{8}5h[4:1],,6,6h[4:1],,7,7,,
{8}8h[4:1],,7,7h[4:1],,6,6,,
{8}1/8,,7/2,7/2,,6/3,6/3,,
{4}4/5h[2:1],6,4h[2:1],3,
{4}5h[2:1],6,4h[2:1],3,
{4}5h[2:1],7,4h[2:1],2,
{4}5h[2:1],7,4,,
{4}5/4h[2:1],3,5h[2:1],6,
{4}4h[2:1],2,5h[2:1],7,
{4}4h[2:1],1,5h[2:1],8,
{4}4h[2:1],1,5,7b/2b,
{4}1/8h[2:1],7,1h[2:1],2,
{4}8h[2:1],7,1h[2:1],2,
{4}8h[2:1],6,1h[2:1],3,
{4}8h[2:1],6,1,,
{4}8/1h[2:1],2,8h[2:1],7,
{4}1h[2:1],3,8h[2:1],6,
{4}1h[2:1],4,8h[2:1],5,
{4}1,1-4[4:1]/8-5[4:1],,,
{4}1/2h[4:1],3,8/7h[4:1],6,
{4}4/2h[4:1],1,8/7,1/6,
{4}4/3h[4:1],2,8/7h[4:1],6,
{8}1/2,2/1,3/8,3/8,7/4,,,,
{4}8/7h[4:1],6,1/2h[4:1],3,
{4}5/7h[4:1],8,2/1,8/3,
{4}5/6h[4:1],7,1/2h[4:1],3,
{1}7^4[8:3]/8^3[8:3],
{4}1/2,5/7,7/8,4/2,
{4}2/1,7/5,3/4,1/6,
{4}7/8,2/4,2/1,5/7,
{1}2^7[8:3]/4-7[8:3],
{4}8/7,2/4,1/2,5/7,
{4}8/7,2/4,5/6,8/3,
{4}2/1,5/7,7/8,4/2,
{1}5-2[8:3]/7^2[8:3],
{8}7/8,7,7/5,,2/1,2,4/2,,
{8}7/8,7,5/7,,1/2,2,2/4,,
{8}1/7,7,5/7,,8/2,2,2/4,,
{8}8/1,1/8,2/7,7/2,3/6,3/6,4/5,4/5,
{1}4h[4:7]/5<3[1:1],
{4},,,8b,
{8}1,1,8,8,2,2,7,7,
{1}1s5[2:1],
{8}5,5,4,5,5,6,5,4,
{8}5h[4:1],,6,6h[4:1],,7,7,,
{8}4,4,5,4,4,3,4,5,
{8}4h[4:1],,3,3h[4:1],,2,2,,
{8}8,8,1,8,8,7,8,1,
{8}8h[4:1],,7,7h[4:1],,6,6,,
{8}1,1,8,1,1,2,1,8,
{8}1-5[4:1],,,8-4[4:1],,,1h[8:47],,
{16},,,,,,,8<2[16:53],,,{1},,,,,,
E
&inote_5=(200.0){1},1h[2:3]/8h[2:3],
{4},,,5/4,
{1}4h[2:3]/2h[2:3],
{4},,,4/5,
{1}5h[2:1]/7h[2:3],
{1}2h[1:2],
{2}8,8,
{1}8z4[2:1],
{4}5/1^4[8:1],7,1/5^2[8:1],7,
{4}5/1^4[8:1],7,1/5^2[8:1],7,
{4}5/1^4[8:1],7,1/5^2[8:1],7,
{4}5/1^4[8:1],7,5/1,,
{4}4/8^5[8:1],2,8/4^7[8:1],2,
{4}4/8^5[8:1],2,8/4^7[8:1],2,
{4}4/8^5[8:1],2,8/4^7[8:1],2,
{4}4/8^5[8:1],2,4/8,,
{4}5/1-4[8:1],7,1/5-2[8:1],7,
{4}5/1-4[8:1],7,1/5-2[8:1],7,
{4}5/1-4[8:1],7,1/5-2[8:1],7,
{4}5/1-4[8:1],7,5/1,,
{4}4/8-5[8:1],2,8/4-7[8:1],2,
{4}4/8-5[8:1],2,8/4-7[8:1],2,
{4}4/8-5[8:1],2,8/4-7[8:1],2,
{4}4/8-5[8:1],2,8/4,,
{4}5/1-4[8:1],1/7,1/5-2[8:1],5/7,
{4}5/1-4[8:1],7/1,1/5-2[8:1],5/7,
{4}5/1-4[8:1],7/1,1/5-2[8:1],5/7,
{4}5/1-4[8:1],7/1,5/1,,
{4}4/8-5[8:1],8/2,8/4-7[8:1],4/2,
{4}4/8-5[8:1],8/2,8/4-7[8:1],2/4,
{4}4/8-5[8:1],2/8,8/4-7[8:1],2/4,
{4}4/8-5[8:1],2/8,8/4,,
{2}1^3[8:1]/5^7[8:1],4^6[8:1]/8^2[8:1],
{8}8,7,1,6,2-6[5000:629],,2b,,
{16}8,,2,,7,,3,,6,,3,4,3,,6,,
{4}1^6[8:1],1^4[8:1],1b,,
{2}4^2[8:1]/8^6[8:1],1^7[8:1]/5^3[8:1],
{8}1,2,8,3,7-3[8:1],,7b,,
{16}1,,7,,2,,6,,3,,6,5,6,,3,,
{1}8<1[2:1],
{2}3^5[8:1]/7^1[8:1],2^4[8:1]/6^8[8:1],
{8}1,8,2,7,3-7[5000:629],,3b,,
{16}6,,5,,7,,4,,8,,2,1,2,,7,,
{4}1^6[2000:249],1^4[8:1],1b,,
{2}2^8[8:1]/6^4[8:1],3^1[8:1]/7^5[8:1],
{8}8,1,7,2,6-2[5000:629],,6b,,
{16}3,,4,,2,,5,,1,,7,8,7,,2,,
{1}8<1[2:1],
{8}2h[4:1],3,4,5h[4:1],4,3,2h[8:1],1,
{8}1h[4:1]/2h[4:1],,,1h[4:1]/8h[4:1],,,8/7,,
{8}7h[4:1],6,5,4h[4:1],5,6,7h[8:1],8,
{8}8h[4:1]/7h[4:1],,,1h[4:1]/8h[4:1],,,2/1,,
{8}7/8h[4:1],6,5,3/4h[4:1],2,1,8/7,6,
{8}5h[4:1]/1h[4:1],,,6h[4:1]/2h[4:1],,,7/3,,
{8}2/1h[4:1],3,4,6/5h[4:1],7,8,1/2,3,
{8}4h[4:1]/8h[4:1],,,3h[4:1]/7h[4:1],,,6/2,,
{8}1-4[8:1],7,1,8,5-2[8:1],7,5,6,
{8}1-4[8:1],7,1,8,5-2[8:1],7,5,6,
{8}1-4[8:1],7,1,8,5-2[8:1],7,5,6,
{8}1-4[8:1],7,1,8,5h[4:1],,,,
{8}8-5[8:1],2,8,1,4-7[8:1],2,4,3,
{8}8-5[8:1],2,8,1,4-7[8:1],2,4,3,
{8}8-5[8:1],2,8,1,4-7[8:1],2,4,3,
{8}8-5[8:1],2,8,1,4h[4:1],,,,
{8}1-6[8:1],7,1,2,5-8[8:1],7,5,4,
{8}1-6[8:1],7,1,2,5-8[8:1],7,5,4,
{8}1-6[8:1],7,1,2,5-8[8:1],7,5,4,
{8}1-6[8:1],7,1,2,5h[4:1],,,,
{8}8-3[8:1],2,8,7,4-1[8:1],2,4,5,
{8}8-3[8:1],2,8,7,4-1[8:1],2,4,5,
{8}8-3[8:1],2,8,7,4-1[8:1],2,4,5,
{8}8-3[8:1],2,8,7,4h[4:1],,,,
{4}1^3[8:1]/5^7[8:1],5/1,4^7[8:1]/8^3[8:1],,
{8}5,6,7,8,1-4[8:1]/2-7[8:1],,1b/2b,,
{16}6,,6,,5,,5,,7,,3,4,3,,5/2,,
{4}4/8-4[8:1],8/1-5[8:1],8b/1b,,
{4}4^2[8:1]/8^6[8:1],4/8,1^6[8:1]/5^2[8:1],,
{8}4,3,2,1,7-2[8:1]/8-5[8:1],,8b/7b,,
{16}3,,3,,4,,4,,2,,6,5,6,,7/4,,
{1}5<4[2:1],
{4}2^8[8:1]/6^4[8:1],2/6,3^8[8:1]/7^4[8:1],,
{8}6,4,8,2,4^6[8:1]/8^2[8:1],,8b/4b,,
{16}8,,8,,4,,4,,6,,1,8,1,,3/6,,
{4}1-5[8:1]/8-6[8:1],1-3[8:1]/8-4[8:1],1b/8b,,
{4}3^5[8:1]/7^1[8:1],3/7,2^5[8:1]/6^1[8:1],,
{8}3,5,1,7,1^7[8:1]/5^3[8:1],,1b/5b,,
{16}1,,1,,5,,5,,3,,7,8,6,,3/7,,
{1}1>8[2:1],
{4}4^7[8:1]/8^3[8:1],8/4,4^7[8:1]/8^3[8:1],4/8,
{8}1/5,5/1,3/7,3/7,1-6[8:1]/5-2[8:1],,5b/1b,,
{16}3/7,,7/3,,1/5,,5/1,,7/3,,3/7,2/6,5/1,,7/3,,
{8}5b/1b,1b/5b,6b/2b,2b/6b,7b/3b,3b/7b,8b/4b,8b/4b,
{4}1^6[8:1]/5^2[8:1],5/1,1^6[8:1]/5^2[8:1],1/5,
{8}8/4,4/8,2/6,2/6,4-7[8:1]/8-3[8:1],,4b/8b,,
{16}2/6,,6/2,,4/8,,8/4,,2/6,,6/2,3/7,4/8,,6/2,,
{1}1^6[2:1]/5^2[2:1],
{8}1^3[8:1],8,7,6^8[8:1],5,4,3^5[8:1],2,
{8}1-4[8:1],,,7-4[8:1],,,8b,,
{8}8^6[8:1],1,2,3^1[8:1],4,5,6^4[8:1],7,
{8}8-5[8:1],,,2-5[8:1],,,1b,,
{8}2^5[8:1],1,8,7^2[8:1],6,5,4^7[8:1],3,
{8}2^7[8:1],,,4^7[8:1],,,3b,,
{8}7^4[8:1],8,1,2^7[8:1],3,4,5^2[8:1],6,
{8}7^2[8:1],,,5^2[8:1],,,
{4}6<5[5000:28753],{1},,,,,
{4},,,
{1000}1b,,
E
