&title=全世界共通リズム感テスト
&artist=☆リズムに合わせてボタンを叩き達成率を競うゲームです☆
&wholebpm=120
&demo_seek=1.7
&demo_len=16.2
&lv_1=4
&lv_2=6
&lv_3=8
&lv_4=10
&lv_5=12
&inote_1=(120.0){1},1b,
{1}1,
{1}1,
{1}1,
{1}1b,
{1}1,
{1}1,
{1}1,
{1}1b,
{1}1,
{1}1,
{1}1,
{1}1b,
{1}1,
{1}1,
{1}1,
{1}1b,
{1}1,
{1}1,
{1}1,
{1}1b,
{1}1,
{1}1,
{1}1,
{1}1b,
{1}1,
{1}1,
{1}1,
{1}1b,
{1}1,
{1}1,
{1}1,
{1}1b,
E
&inote_2=(120.0){1},
{2}1b,1,
{2}1b,1,
{2}1b,1,
{2}1b,1,
{2}1b,1,
{2}1b,1,
{2}1b,1,
{2}1b,1,
{2}1b,1,
{2}1b,1,
{2}1b,1,
{2}1b,1,
{2}1b,1,
{2}1b,1,
{2}1b,1,
{2}1b,1,
{2}1b,1,
{2}1b,1,
{2}1b,1,
{2}1b,1,
{2}1b,1,
{2}1b,1,
{2}1b,1,
{2}1b,1,
{2}1b,1,
{2}1b,1,
{2}1b,1,
{2}1b,1,
{2}1b,1,
{2}1b,1,
{2}1b,1,
{2}1b,1,
{1}1b,
E
&inote_3=(120.0){1},
{4}1b,1,1,1,
{4}1b,1,1,1,
{4}1b,1,1,1,
{4}1b,1,1,1,
{4}1b,1,1,1,
{4}1b,1,1,1,
{4}1b,1,1,1,
{4}1b,1,1,1,
{4}1b,1,1,1,
{4}1b,1,1,1,
{4}1b,1,1,1,
{4}1b,1,1,1,
{4}1b,1,1,1,
{4}1b,1,1,1,
{4}1b,1,1,1,
{4}1b,1,1,1,
{4}1b,1,1,1,
{4}1b,1,1,1,
{4}1b,1,1,1,
{4}1b,1,1,1,
{4}1b,1,1,1,
{4}1b,1,1,1,
{4}1b,1,1,1,
{4}1b,1,1,1,
{4}1b,1,1,1,
{4}1b,1,1,1,
{4}1b,1,1,1,
{4}1b,1,1,1,
{4}1b,1,1,1,
{4}1b,1,1,1,
{4}1b,1,1,1,
{4}1b,1,1,1,
{1}1b,
E
&inote_4=(120.0){1},
{4}1b,1b,1b,1b,
{4}1b,1b,1b,1b,
{4}1b,1b,1b,1b,
{4}1b,1b,1b,1b,
{4}1b,1b,1b,1b,
{4}1b,1b,1b,1b,
{4}1b,1b,1b,1b,
{4}1b,1b,1b,1b,
{4}1b,1b,1b,1b,
{4}1b,1b,1b,1b,
{4}1b,1b,1b,1b,
{4}1b,1b,1b,1b,
{4}1b,1b,1b,1b,
{4}1b,1b,1b,1b,
{4}1b,1b,1b,1b,
{4}1b,1b,1b,1b,
{4}1b,1b,1b,1b,
{4}1b,1b,1b,1b,
{4}1b,1b,1b,1b,
{4}1b,1b,1b,1b,
{4}1b,1b,1b,1b,
{4}1b,1b,1b,1b,
{4}1b,1b,1b,1b,
{4}1b,1b,1b,1b,
{4}1b,1b,1b,1b,
{4}1b,1b,1b,1b,
{4}1b,1b,1b,1b,
{4}1b,1b,1b,1b,
{4}1b,1b,1b,1b,
{4}1b,1b,1b,1b,
{4}1b,1b,1b,1b,
{4}1b,1b,1b,1b,
{1}1b,
E
&inote_5=(120.0){1},
{4}1b,1b,1b,1b,
{4}1b,1b,1b,1b,
{4}1b,1b,1b,1b,
{4}1b,1b,1b,1b,
{4}1b,1b,1b,1b,
{4}1b,1b,1b,1b,
{4}1b,1b,1b,1b,
{4}1b,1b,1b,1b,
{4}1b,1b,1b,1b,
{4}1b,1b,1b,1b,
{4}1b,1b,1b,1b,
{4}1b,1b,1b,1b,
{4}1b,1b,1b,1b,
{4}1b,1b,1b,1b,
{4}1b,1b,1b,1b,
{4}1b,1b,1b,1b,
{4}1b,1b,1b,1b,
{4}1b,1b,1b,1b,
{4}1b,1b,1b,1b,
{4}1b,1b,1b,1b,
{4}1b,1b,1b,1b,
{4}1b,1b,1b,1b,
{4}1b,1b,1b,1b,
{4}1b,1b,1b,1b,
{4}1b,1b,1b,1b,
{4}1b,1b,1b,1b,
{4}1b,1b,1b,1b,
{4}1b,1b,1b,1b,
{4}1b,1b,1b,1b,
{4}1b,1b,1b,1b,
{4}1b,1b,1b,1b,
{4}1b,1b,1b,1b,
{1}1b,
E
