&title=シリウス
&artist=藍井エイル「キルラキル」 [アニメPV]
&wholebpm=176.0
&lv_1=2
&lv_2=4
&lv_3=6
&lv_4=8
&lv_5=10
&des_4=Jack
&des_5=rioN
&inote_1=
(176.0){1},,
{1}1,,
{1}2,,
{1}3,,
{1}4,,
{1}5,,
{1}6,,
{1}7,,
{1}8,,
{1}1b,,
{1}8,,
{1}1,,
{1}8,,
{1}7h[1:2],,,
{1}8b,
{1}8,
{1}7,
{1}7,
{1}6,
{1}6,
{1}5,
{1}5,
{1}4,
{1}4,
{1}3,
{1}3,
{1}2,
{1}2,
{1}1h[1:1],,
{1}8-5[4:3],,
{1}4-1[4:3],,
{1}8h[1:1],,
{1}1h[1:1],,
{1}8,
{1}8,
{1}7,
{1}7,
{1}6,
{1}6,
{1}5,
{1}5,
{2}4-8[4:5],{1},,
E
&inote_2=
(176.0){1},,
{2}2,2,
{2}3,3,
{2}4,4,
{2}5,5,
{2}6,6,
{2}7,7,
{2}8,8,
{1}1b/8b,
{2}8,8,
{2}1,1,
{2}2,2,
{1}3/4,
{2}5,5,
{2}6,6,
{2}7,7,
{2}1/8,8/1,
{1}1-5[4:3],,
{1}8-4[4:3],,
{4}3,3,3,,
{4}2,2,2,,
{1}1h[1:1]/8h[1:1],,
{4}7,7,7,,
{4}2,2,2,,
{1}1b/8b,
{4}7,7,7,,
{2}8,8,
{4}1,1,1,,
{1}2/1,
{4}2,2,2,,
{2}1,1,
{1}8-4[4:3],,
{4}3,3,3,,
{4}4,4,4,,
{4}5,5,5,,
{4}6,6,6,,
{2}5,4,
{2}3,2,
{1}8h[1:1]/1h[1:1],,
{4}2,2,2,,
{2}1,1,
{4}8,8,8,,
{1}7/8,
{4}7,7,7,,
{2}8,8,
{1}1-5[4:3],,
{4}6,6,6,,
{4}5,5,5,,
{4}4,4,4,,
{4}3,3,3,,
{2}4,5,
{2}6,7,
{1}1h[1:1]/8h[1:1],,
{4}2-6[1:1],{1},,
E
&inote_3=
(176.0){1},,
{2}2,1,
{4}8/7,8/7,8/7,,
{2}7,8,
{4}2/1,2/1,2/1,,
{4}3,4,5,6,
{4}5,4,3/6,,
{4}2,1,8,7,
{1}8b/1b,
{4}3,3h[2:1],,,
{4}8,8h[2:1],,,
{4}1,1h[2:1],,,
{4}6,6h[2:1],,,
{4}3,4,3,,
{4}6,5,6,,
{4}7,7,8,8,
{4}1,1,2/8,,
{1}1^4[2:1],
{1}8^5[2:1],
{1}2-6[8:3],
{1}7-3[8:3],
{4}2,2,1,1,
{4}8,8,7/1,,
{4}1,1,3,3,
{4}5,5,7,7,
{2}7h[2:1],8h[2:1],
{2}1h[2:1],2,
{1}8b/1b,
{4}3/4,3,4,5,
{4}5/6,6,5/4,,
{4}2,1,8,7,
{4}6,5,4,3,
{1}2^7[2:1],
{1}6^3[2:1],
{2}1-4[4:1],8-5[4:1],
{4}3,6,7/2,,
{4}1,3,5,7,
{4}8,7,6/5,,
{4}8,6,4,2,
{4}1,2,4/3,,
{1}1-4[8:3]/8-5[8:3],
{1}1-6[8:3]/2-5[8:3],
{1}7-4[8:3]/8-3[8:3],
{4}6,5,3,4,
{4}8b/1b,8/1,1/8,1/8,
{4}4/5,4/5,4/5,,
{4}3,4,5,6,
{4}5/4,6/3,2/7,1^4[2:1]/8^5[2:1],{1},
{4}2,1,8,7,
{4}7,8,1,2,
{4}3,4,5,6,
{4}3,4,3,8,
{4}6,5,6,1,
{4}2h[4:1],,4,4,
{4}7h[4:1],,5,5,
{4}2h[4:1],,3,3,
{4}7h[4:1],,6,6,
{1}1h[1:1]/8h[1:1],
{4},,5,4,
{1}6q3[4:3]/7^2[4:3],,
E
&inote_4=
(176.0){1},
{8}4,5,4,5,4,,3/6,,
{8}2,1,2,,7,8,7,,
{8}6,5,6,,3,4,3,,
{2}2-5[8:1],8-4[8:1],
{2}1-5[5000:621],7-4[8:1],
{8}3,4,3,,6,5,6,,
{8}7,8,7,,2,1,2,,
{8}4,5,3/6,,2,7,1,8b,
{8},,,,,4,5,,
{8}4/3,,2/5,,6,5,6,5,
{8},4/7,,1,8,1,8,,
{8}6/5,,4/7,,3,4,3,4,
{8},5/2,,8,1,8,1,,
{4}2h[4:1],1,7h[4:1],8,
{8}1,8,2,7^2[16:3],,,,,
{4}3/4,6/5,2/4,7/5,
{8}6,4,5,3^6[16:3],,,,,
{8}6h[2:1],,,5,5,,7/4,,
{8}3h[2:1],,,4,4,,5/2,,
{8}5h[2:1],,,4,4,,7/2,,
{8}3/6,,1,8-4[8:1],,,,,
{4}4/3,5/6,5/4,2/7,
{8}1,8,2,7,,,8/1,,
{8}6/4,,3/5,,2,1,2,,
{8}5/3,,6/4,,7,8,7,,
{2}2-5[8:1],7-4[8:1],
{2}1-6[8:1],8-3[8:1],
{8}1/2,,8/7,,1,8,7b/2b,,
{8}1/2,,4,5,,7/8,,3/6,
{8},1,8,7/2,,,3/4,,
{8}6/5,,4,4h[4:1],,5,,7/2,
{4},3h[4:1],4h[4:1],5h[4:1],
{8}6<3[8:3],,,,,,,1/2,
{8}2/1,,7/8,7/8,,1>8[8:7],,,{1},
{4}2/1,3/4,6/5,7b/8b,
{8}2h[4:1],,1,,8,1/8,,2-4[8:1],
{8},8-6[8:1],,1-5[8:1],,,,,
{8}7h[4:1],,8,,1,8/1,,7-5[5000:619],
{8},1-3[8:1],,8-4[8:1],,,,,
{8}3/4,,6,5/6,,4-1[16:3]/5-8[16:3],,,
{4},2/7,3/6,4/5,
{4}6h[4:1],5h[4:1],4h[4:1],3,
{8}5,4,5,,3/6,,2b/7b,,
{8}8/7,,5,4,,1/2,,3/6,
{8},8,1,2/7,,,6/5,,
{8}4/3,,5,5h[4:1],,4,,2/7,
{4},6h[4:1],5h[4:1],4h[4:1],
{8}3>6[8:3],,,,,,,7/8,
{8}7/8,,1/2,1/2,,8<1[8:7],,,{1},
{4}8/7,5/6,4/3,2b/1b,
{8}7h[4:1],,8,,1,8/1,,7-5[5000:619],
{8},1-3[8:1],,8-4[8:1],,,,,
{8}2h[4:1],,1,,8,1/8,,2-4[8:1],
{8},8-6[8:1],,1-5[8:1],,,,,
{8}5/6,,3,3/4,,1^4[8:1]/8^5[8:1],,,
{4},3/6,7/2,8/1,
{8}4,5,3,6,2,7,1,,
{4}2/7,6/3,4/5,1/8,
{2}4>5[4:13],{1},,,,
E
&inote_5=
(176.0){1},
{16}3,4,3,,6,5,6,,4,5,4,5,4,,,,
{8}3/6,2,7,1,8,1-5[8:1],,8-4[8:1],
{8},2-6[8:1],,7,,4,5,3,
{8}1/6,,5,6,4,3/8,,2/6,
{16},,4,,5,,6/3,,4,5,4,5,4,,,,
{8}3,6,3,5-1[8:1],,4-8[8:1],,6-2[8:1],
{8},3,,4/5,,3/6,2/7,,
{8}1h[4:1],,8h[4:1],,3,4>5[2:1],5,6,
{8},,,,,5b/4b,5b/4b,,
{8}2,,2,8,,8,3,7,
{8},7,1,6,,6,4,5,
{8}3^8[4:1],,8^5[4:1],,5^3[8:1],,
{993}7,,,,,,,,,,,,,,,,,,,,,,,,,,,,,,,,,,,,,,,,,,,,,,,,,,,,,,,,,,,,,,,,,,,,,,,,,,,,,,,,,,,,,,,,,,,,,,,,,,,,,,,,,,,,,,,,,,,,,,,,,,,,
{999}7,,,,,,,,,,,,,,,,,,,,,,,,,,,,,,,,,,,,,,,,,,,,,,,,,,,,,,,,,,,,,,,,,,,,,,,,,,,,,,,,,,,,,,,,,,,,,,,,,,,,,,,,,,,,,,,,,,,,,,,,,,,,,
{8},2,2,,1/8,7/2,6/3,,
{8}5h[4:1]/4h[4:1],,,7/2,,7,1,6,
{8},3,5,2,,5/4,,2,
{8}8/1,,6,7/5,,4/2,,8/6,
{8},5/4,6/3,2/7,,8,8,1,
{8}1s5[4:1],,,7,7,,6/3,,
{8}4/5,,2,2,,1/8,,8,
{8}8z4[4:1],,,2,2,,6/3,,
{8}2/7,,7/2,1-4[8:1]/8-5[8:1],,8b/1b,,,
{8}6h[8:3],,5,3h[2:1],,4,5,7h[2:1],
{8},6,4,2h[8:3],,8,8,,
{8}2h[4:1],,5,7h[4:1],,8,2,1,
{8},,2,3,4,5,6,7,
{8}2,5,2,7,4,7,2,1,
{8}3,7,8,6,1,8,1,8,
{4}1h[4:3],2v7[8:1],,8b,
{8}4-1[8:1],,6,7^1[8:1],,5,4,3^1[8:1],
{8},7,6,5-1[8:1],,,2,,
{8}8h[4:1],,1,7/2,,3/4,,5/6,
{4},2-5[8:1],7-4[8:1],1>8[2:1],
{8},,,,,,,6,
{8}5/7,,3,4/2,,2/7,,7/2,
{4}2^5[4:1],5^8[4:1],8^3[4:1],3-7[4:1],
{16}7^5[8:1],,,,8,,,,6,,4,5,4,,,,
{8}6/5,,3,3/4,,5/6,,1/2-5[8:1],
{8},8-5[8:1],,1-5[8:1],,1,,3,
{8}3/4,,6,5/6,,2,1,8/7-4[8:1],
{8},1-4[8:1],,8-4[8:1],,8,,2,
{8}8/2,,7,7/1,,6/1,,7h[4:1]/2h[4:1],
{4},8/3,2/7,8/1,
{8}7-4[8:1],7,2-5[8:1],2,8-5[8:1],8,1,,
{16}3,4,3,4,3,,6,5,6,5,6,,1b/8b,,,,
{8}5/4,3,3,5/4,6,6,2,7,
{8}1-5[8:1],8-4[8:1],1,8,,,2,3,
{8}4h[4:1],,5,3/6,,2/4,,7/5,
{4},5-1[8:1],4-8[8:1],5<4[2:1],
{8},,,,,,,2,
{8}8/3,,7,6/1,,4/5,,7/2,
{4}7^4[4:1],4^1[4:1],1^6[4:1],6-2[4:1],
{16}2^4[8:1],,,,1,,,,3,,5,4,5,,,,
{8}6/5,,7,8/7,,1/7,,2/8-5[8:1],
{8},8-3[8:1],,8-4[8:1],,8b,,3,
{8}3/4,,2,1/2,,7,8,7/1-4[8:1],
{8},1-6[8:1],,1-5[8:1],,1b,,7,
{8}3/4,,2,5/6,,5/2,,3h[4:1]/6h[4:1],
{4},4/7,3/1,6/8,
{8}7-3[8:1],7,2-6[8:1],2,8-5[8:1],8,2,,
{16}4,5,4,5,4,5,4,5,4,,,,6/3h[417:1772],,,,
{8}8,,,2<4[8:19],,,,,{1},,,
{16}4,5,6,
E
