&title=ケロ⑨destiny
&artist=Silver Forest
&wholebpm=172
&demo_seek=45.9
&demo_len=22.6
&lv_1=2
&lv_2=4
&lv_3=7
&lv_4=10+
&lv_5=12+
&des_4=はっぴー
&des_5=某S氏
&inote_1=(172.0){1},,,,,
{1}1,
{1}1,
{1}8,
{1}8,
{1}1,
{1}1,
{1}2,
{1}2,
{1}3,
{1}3,
{1}4,
{1}4,
{1}5,
{1}5,
{1}6,
{1}6,
{1}7,
{1}7,
{1}8,
{1}8,
{1}1h[1:1],,
{1}8h[1:1],,
{1}1h[1:1],,
{1}8h[1:1],,
{1}1,
{1}2,
{1}3,
{1}4,
{1}5,
{1}6,
{1}7,
{1}8/1,
{1}8,
{1}7,
{1}6,
{1}5,
{1}4,
{1}3,
{1}2,
{1}1/8,
{1}1-4[4:3],,
{1}5-8[4:3],,
{1}1b,,,
{1}2-7[4:3],,
{1}6-3[4:3],,
{1}2,
{1}2,
{2}1,1,
{1}1,
{1}8,
{1}8,
{2}7,7,
{1}7,
{1}6,
{1}6,
{2}5,5,
{1}5,
{1}4,
{1}4,
{2}3,3,
{1}3,
{1}2,
{1}2b,,
{1}3,
{1}4,
{1}5,
{1}6,
{1}7,
{1}8,
{4}1-5[1:1],{1},,
E
&inote_2=(172.0){1},,,,,
{2}1,1,
{2}2,2,
{2}3,3,
{1}4,
{2}4,4,
{4}4,4,4,,
{2}3,3,
{4}3,3,3,,
{2}2,2,
{4}2,2,2,,
{2}1,1,
{4}1,1,1b,,
{2}8,8,
{4}8,8,8,,
{2}7,7,
{4}7,7,7,,
{2}6,6,
{4}6,6,6,,
{2}5,5,
{4}5,5,5b,,
{1}4h[2:1],
{1}5h[2:1],
{1}4h[2:1],
{1}5h[2:1],
{1}6h[2:1],
{1}7h[2:1],
{1}8h[2:1],
{1}1b,
{4}8,8,8,,
{4}7,7,7,,
{2}8,7,
{1}7/8,
{4}5,5,5,,
{4}6,6,6,,
{2}5,6,
{1}5/6,
{4}3,3,3,,
{4}4,4,4,,
{2}3,4,
{1}4/3,
{4}1,1,1,,
{4}2,2,2,,
{2}1,2,
{1}1/2,
{2}1,2,
{2}3,4,
{2}5,6,
{2}7,8,
{1}1b,,,
{2}2,3,
{2}4,5,
{2}6,7,
{1}1/8,
{4}1,1,1,,
{4}2,2,2,,
{4}4,4,3,3,
{1}3/4,
{4}8,8,8,,
{4}7,7,7,,
{4}5,5,6,6,
{1}6/5,
{4}4,4,4,,
{4}3,3,3,,
{4}1,1,2,2,
{1}1/2,
{4}5,5,5,,
{4}6,6,6,,
{4}8,8,7,7,
{1}7/8,
{1}8-5[4:5],,,
{2}4,3,
{4}2,2,1/2,,
{2}8,7,
{4}6,6,6/5,,
{2}3,2,
{4}1,1,8,8,
{1}8/1,
E
&inote_3=(172.0){1},,,,,
{2}1,2,
{2}3,4,
{2}5,6,
{2}7,8,
{2}1,1,
{4}2,2,2,,
{2}3,3,
{4}4,4,4,,
{2}5,5,
{4}6,6,7,7,
{4}8,8,8,,
{4}1,1,1/8,,
{2}8,8,
{4}7,7,7,,
{2}6,6,
{4}5,5,5,,
{2}4,4,
{4}3,3,2,2,
{4}1,1,1,,
{1}1b/8b,
{2}2h[2:1],1,
{2}7h[2:1],8,
{2}3h[2:1],4,
{2}6h[2:1],5,
{2}2h[2:1],1,
{2}7h[2:1],8,
{2}3h[2:1],4,
{2}6h[2:1],5b,
{4}4,4,4,,
{4}3,3,3,,
{4}2,2,1,1-4[2:1],{1},
{4}5,5,5,,
{4}6,6,6,,
{4}7,7,8,8-5[2:1],{1},
{4}3,3,3,,
{4}4,4,4,,
{4}5,5,6,6-3[2:1],{1},
{4}2,2,2,,
{4}1,1,1,,
{4}8,8,7,7-2[2:1],{1},
{4}1,2,3,4,
{4}5,6,7/8,,
{4}8,7,6,5,
{4}4,3,1/2,,
{1}1b/8b,,,
{4}1,1,2,2,
{4}3,3,4,4,
{4}5,5,6,6,
{4}7,7,8b,,
{4}1,2,3,,
{4}4,3,2,,
{4}1,2,3,4^1[2:1],{1},
{4}8,7,6,,
{4}5,6,7,,
{4}8,7,6,5^8[2:1],{1},
{4}1,3,2,,
{4}4,2,3,,
{4}1,2,3,4q1[2:1],{1},
{4}8,6,7,,
{4}5,7,6,,
{4}8,7,6,5p8[2:1],{1},
{4}1,2,3,4,
{1}5q8[4:5],,
{4}1,2,3,4,
{1}5h[2:1],
{4}3,4,3,,
{4}6,5,6,,
{4}4,3,2,1,
{1}8h[2:1],
{1}1>8[4:7],,,
E
&inote_4=(172.0){1},
{2}8h[2:1],6h[2:1],
{2}4h[2:1],2h[2:1],
{4}1h[4:1],2h[4:1],3h[4:1],4h[4:1],
{4}5h[4:1],6h[4:1],7h[4:1],8,
{4}8h[4:1],7h[4:1],6h[4:1],5,
{4}1h[4:1],2h[4:1],3h[4:1],4,
{4}8h[4:1],7h[4:1],6h[4:1],5,
{4}1h[4:1],2h[4:1],3h[4:1],4,
{4}7h[4:1],6,2h[4:1],3q4[2:1],
{4},,,5/6,
{4}1h[4:1],2,8h[4:1],7<2[2:1],
{4},,,1/2,
{4}6h[4:1],5,3h[4:1],4,
{4}7h[4:1],8,2h[4:1],1,
{4}7h[4:1],6q3[4:1],,,
{4}5h[4:1],4,2b/7b,,
{4}5/6h[4:1],2,4/3h[4:1],7,
{4}6/7h[4:1],1,3/2h[4:1],8,
{2}4-8[4:1],5-1[4:1],
{1}4s8[2:1],
{4}4/3h[4:1],7,5/6h[4:1],2,
{4}3/2h[4:1],8,6/7h[4:1],1,
{4}1/2h[4:1],5,8/7h[4:1],4p5[2:1],
{8},,,,,8b,8b,,
{16}7h[16:3],,,6h[16:3],,,5,,2h[16:3],,,3h[16:3],,,4,,
{16}7h[16:3],,,6h[16:3],,,5,,2h[16:3],,,3h[16:3],,,4,,
{16}8h[16:3],,,7h[16:3],,,6,,1h[16:3],,,2h[16:3],,,3,,
{1}4^1[8:3]/5^8[8:3],
{16}2h[16:3],,,3h[16:3],,,4,,7h[16:3],,,6h[16:3],,,5,,
{16}2h[16:3],,,3h[16:3],,,4,,7h[16:3],,,6h[16:3],,,5,,
{16}1h[16:3],,,2h[16:3],,,3,,8h[16:3],,,7h[16:3],,,6<5[2:1],,
{4},,,2b/7b,
{16}4h[16:3],,,5h[16:3],,,6,,6,,,,2/8,,,,
{16}4h[16:3],,,3h[16:3],,,2,,2,,8h[4:1],,,,1,,
{16}6h[16:3],,,7h[16:3],,,8,,3h[16:3],,,2h[16:3],,,1,,
{8}1>6[4:1],,,,,8,8,,
{16}5h[16:3],,,4h[16:3],,,3,,3,,,,7/1,,,,
{16}5h[16:3],,,6h[16:3],,,7,,7,,1h[4:1],,,,8,,
{16}3h[16:3],,,2h[16:3],,,1,,6h[16:3],,,7h[16:3],,,8,,
{8}7/1,,8/2,,,2b/7b,2b/7b,,
{16}1h[16:3],,,8h[16:3],,,7,,7,,,,5/3,,,,
{16}1h[16:3],,,2h[16:3],,,3,,3,,8h[4:1],,,,1,,
{16}1h[16:3],,,2h[16:3],,,3,,8h[16:3],,,7h[16:3],,,6,,
{8}6>1[4:1],,,,,8,8,,
{16}8h[16:3],,,1h[16:3],,,2,,2,,,,6/4,,,,
{16}8h[16:3],,,7h[16:3],,,6,,6,,1h[4:1],,,,8,,
{16}8h[16:3],,,7h[16:3],,,6,,1h[16:3],,,2h[16:3],,,3,,
{8}8/2,,7/1,,,7b/2b,7b/2b,,
{4}8,7,6,5,
{4}4,3,1/2,,
{4}1,2,3,4,
{4}5,6,7/8,,
{1}8b/4b,,,
{4}8h[4:1],1h[4:1],3h[4:1],4h[4:1],
{4}1h[4:1],8h[4:1],6h[4:1],5h[4:1],
{4}8h[4:1],1h[4:1],3h[4:1],4q5[2:1],
{4},,,2b/7b,
{16}4h[16:3],,,5h[16:3],,,6,,6,,,,3/8,,,,
{16}4h[16:3],,,3h[16:3],,,2,,2,,5/3,,,,2/4,,
{2}1-5[4:1],8-4[4:1],
{8}1-5[4:1],,,,,8,8,,
{16}5h[16:3],,,4h[16:3],,,3,,3,,,,6/1,,,,
{16}5h[16:3],,,6h[16:3],,,7,,7,,3/5,,,,4/6,,
{16}3h[16:3],,,2h[16:3],,,1,,6h[16:3],,,7h[16:3],,,8,,
{8}1/7,,8/2,,,7b/2b,2b/7b,,
{16}1h[16:3],,,8h[16:3],,,7,,7,,,,5/2,,,,
{16}1h[16:3],,,2h[16:3],,,3,,3,,1/7,,,,8/2,,
{2}7-2[4:1],3q6[2:1],
{8},,,,,1,1,,
{16}8h[16:3],,,1h[16:3],,,2,,2,,,,7/4,,,,
{16}8h[16:3],,,7h[16:3],,,6,,6,,2/8,,,,7/1,,
{16}6h[16:3],,,7h[16:3],,,8,,3h[16:3],,,2h[16:3],,,1,,
{8}2/8,,7/1,,,7b/2b,7b/2b,,
{2}8h[4:3],1h[4:1],
{8}2b/7b,,,,,7,8,7,
{8},5/3,,4/6,,2/1,,1/2,
{8},5/3,,4/6,,3/5,,4/6,
{8}7h[2:1],,8h[4:1],,,6b/1b,1b/6b,,
{8}7,7,,5/3,,2,1,2,
{8},6/4,,5/3,,7/8,,7/8,
{8},6/4,,3/5,,4/6,,5/3,
{8}2h[2:1],,1h[4:1],,,8b/3b,3b/8b,
E
&inote_5=(172.0){1},
{4}1h[2:1],2,3h[2:1],4,
{4}5h[2:1],6,7h[2:1],8,
{8}1,1,7,7,3,3,5,5,
{8}4,4,6,6,2,2,8,8,
{4}1-5[8:1],8-4[8:1],2-5[8:1],7-4[8:1],
{4}1-5[8:1],8-4[8:1],2-5[8:1],7-4[8:1],
{4}1-5[8:1],2-6[8:1],3-7[8:1],4-8[8:1],
{4}5-1[8:1],6-2[8:1],7-3[8:1],8b,
{8}1h[8:3],,,3,3h[8:3],,,5,
{16}7,,,8,,,1,,4/2,,,,6,,5,,
{16}4h[8:3],,,,,,2,,2h[16:3],,,1,,,8,,
{8}1^4[8:1]/6^1[8:1],,,,2/7,,1,8,
{16}7h[8:3],,,,,,5,,5h[16:3],,,4,,,3,,
{16}1/2,,,3/8,,,7/4,,7/8,,,1/6,,,5/2,,
{16}3/4h[4:1],,,,6h[4:1],,,,7,,,1,,,8,,
{4}3/7,1^4[8:1]/5-8[8:1],5/1,,
{8}2/3^6[8:1],,,7,8/7^4[8:1],,,2,
{16}2/1,,,4,,,5,,8/7,,,,6,,5,,
{16}4p7[8:1],,,,,,5,,6q2[8:1],,,5,,,4,,
{8}3>6[4:1],,,,1,,8,1,
{8}2q6[8:1],,,1,8p3[8:1],8,,2,
{16}1/2,,,8/3,,,7/4,,7/8,,,1/6,,,5/2,,
{16}4/3,,,,6/4,,,,3/5,,,7/4,,,2/6,,
{8}4^1[8:1]/8-5[8:1],,,,,8b,8b,,
{16}3h[16:3],,,4,,,2/5,,6h[16:3],,,5,,,7/4,,
{16}2h[16:3],,,1,,,8/3,,7/1,,,2/8,,,1/7,,
{16}3h[16:3],,,1,,,5/2,,6h[16:3],,,8,,,7/4,,
{16}1,2,3,4,5,6,7,8,1,2,3,4,5/6,,,,
{16}7h[16:3],,,8,,,1/6,,2h[16:3],,,1,,,3/8,,
{16}6h[16:3],,,5,,,4/7,,6/1,,,3/8,,,6/1,,
{16}4h[16:3],,,8,,,6/2,,5h[16:3],,,1,,,3/7,,
{16}5,6,7,8,1,2,3,4,5,6,7,8,1b,,,,
{16}2-5[8:1],,,2,,,7,,7,,2,,1,,2,,
{16}7-4[8:1],,,7,,,2,,2,,8,,,,1,,
{16}4h[16:3],,,3h[16:3],,,2,,6h[16:3],,,7h[16:3],,,8<1[8:3],,
{1}8,
{16}3-8[8:1],,,3,,,6,,6,,2,,1,,2,,
{16}6-1[8:1],,,6,,,3,,3,,8,,,,1,,
{16}5h[16:3],,,3h[16:3],,,1,,5h[16:3],,,7h[16:3],,,1s5[4:1],,
{8}1,,,,,8b,8b,,
{16}7^4[8:1],,,7,,,2,,2,,7,,8,,7,,
{16}2^5[8:1],,,2,,,7,,7,,1,,,,8,,
{16}5h[16:3],,,6h[16:3],,,7,,3h[16:3],,,2h[16:3],,,1>8[8:3],,
{8}1,,,,,1b,1b,,
{16}6^1[8:1],,,6,,,3,,3,,7,,8,,7,,
{16}3^8[8:1],,,3,,,6,,6,,1,,,,8,,
{16}4h[16:3],,,6h[16:3],,,8,,4h[16:3],,,2h[16:3],,,8z4[4:1],,
{8}8,,,,,1b,1b,,
{4}8/1h[4:1],2h[4:1],3h[4:1],4h[4:1],
{4}5h[4:1],6h[4:1],7h[4:1],8,
{4}6/5h[4:1],2h[4:1],7h[4:1],4h[4:1],
{4}1h[4:1],6h[4:1],3h[4:1],8-4[8:1],
{1}8b,,
{4},,,7b/3b,
{8}1,1,8,8,2,2,7,7,
{8}3,3,6,6,4,4,5,5,
{16}4,5,4,5,4,5,4,5,4,5,4,5,4,5,4,5,
{16}4,3,2,1,8,7,6,5,4,3,2,1,8b,,,,
{16}2p5[16:3],,,2,,,7,,7,,2/8,,7/1,,8/2,,
{16}7q4[16:3],,,7,,,2,,2,,8/7,,,,2/1,,
{16}4h[16:3],,,3h[16:3],,,2,,6h[16:3],,,7h[16:3],,,8<1[8:3],,
{1}8h[2:1],
{16}3q8[16:3],,,3,,,6,,6,,7/2,,8/1,,7/2,,
{16}6p1[16:3],,,6,,,3,,3,,2/8,,,,1/7,,
{16}5h[16:3],,,3h[16:3],,,1,,5h[16:3],,,7h[16:3],,,1s5[4:1],,
{8}1,,,,,8b,8b,,
{16}7p6[4:1],,,7,,,2,,2,,1/7,,8/2,,7/1,,
{16}2q3[4:1],,,2,,,7,,7,,8/6,,,,1/3,,
{16}5h[16:3],,,6h[16:3],,,7,,3h[16:3],,,2h[16:3],,,1>8[8:3],,
{8}1h[2:1],,,,,1b,1b,,
{16}6q7[4:1],,,6,,,3,,3,,1/8,,2/7,,8/1,,
{16}3p2[4:1],,,3,,,6,,6,,7/1,,,,8/2,,
{16}4h[16:3],,,6h[16:3],,,8,,4h[16:3],,,2h[16:3],,,8z4[4:1],,
{8}8,,,,,1b,1b,,
{16}5/3,,,4/2,,,1/3,,7/5,,,8/6,,,7/1s5[4:1],,
{16}1,,8,8,,,,,,,1b,,2,,1b,,
{8}3/6,4,5,4,6/3,1b,,8b,
{8}7/4,3,8,3,2/5,6,1^4[8:1],6,
{8}1^6[8:1],,1q2[16:3],,1,8b,8b,,
{8}2/7,1,8,1,2/7,1b,2,1b,
{8}3/6,5,4,5,3/6,8b,,1b,
{8}2/5,6,1,6,4/7,3,8^5[8:1],3,
{8}8^3[8:1],,8p7[16:3],,8,1b,1b,,
{1}3^6[4:7]/6-3[4:7],,,
E
