&title=キャプテン・ムラサのケツアンカー
&artist=ARM+夕野ヨシミ(IOSYS)feat.山本椛
&wholebpm=190
&demo_seek=14.5
&demo_len=11.5
&lv_1=3
&lv_2=6
&lv_3=7
&lv_4=11
&lv_5=13
&des_4=某S氏
&des_5=はっぴー
&inote_1=(190.0){1},,,,,,,,,,,,
{1}1,
{1}1,
{1}1,,
{1}8,
{1}8,
{1}8,
{1}8/1,
{1}1,
{1}1,
{1}2,
{1}2,
{1}3,
{1}3,
{1}4,
{1}4,
{1}5,
{1}5,
{1}6,
{1}6,
{1}7,
{1}7,
{1}8,
{1}8,
{1}1h[1:1],,
{1}1h[1:1],,
{1}8h[1:1],,
{1}8h[1:1],,
{1}1-4[4:3],,
{1}5-8[4:3],,
{1}8/1,
{1}1/8,
{1}1b,
{1}8b,
{1}8/1,
{1}2,
{1}8/1,
{1}7,
{1}8/1,
{1}8/1,
{1}1-5[4:5],,,
{2}4,4,
{1}3,
{2}2,2,
{1}1,
{2}8,8,
{1}7,
{2}6,6,
{1}5b,
E
&inote_2=(190.0){1},,,,,,,,,,,,
{2}1,1,
{4}2,2,2,,
{2}3,3,
{4}4/3,4/3,4/3,,
{2}5,5,
{4}6,6,6,,
{2}8/7,8/7,
{4}8/1,8/1,8b/1b,,
{2}1,1,
{2}2,2,
{2}3,3,
{2}4,4,
{2}5,5,
{2}6,6,
{1}7h[2:1],
{2}8,8/1,
{2}8,8,
{4}7,7,7,,
{2}6,6,
{4}5,5,5,,
{2}4,4,
{4}3,3,3,,
{1}2h[2:1],
{2}1,8b/1b,
{2}1,1,
{4}2,2,2,,
{2}8,8,
{4}7,7,7,,
{2}6,6,
{4}5,5,5,,
{2}3,3,
{4}4,4,4,,
{2}5,4,
{2}3/4,3/4,
{2}4,5,
{1}5h[2:1]/6h[2:1],
{2}6/5,4/3,
{2}5/4,6/3,
{2}3,2,
{4}1/8,8/1,8b/1b,,
{4}7,7,7,,
{4}6,6,6,,
{4}5,5,5,,
{2}3/4,3/4,
{4}2,2,2,,
{4}3,3,3,,
{4}5h[8:3]/4h[8:3],,,6h[4:5]/3h[4:5],{1},
{2},5/4,
{1}4-1[4:3]/5-8[4:3],,
{4}1,1,1,,
{4}8,8,8b,,
{4}2,2,1/2,,
{4}7,7,8/7,,
{2}2/8,7/1,
{4}8/1,8/1,8/1,1h[4:3]/8h[4:3],,,,
E
&inote_3=(190.0){1},,,,,,,,,,,,
{4}3,3,4,4,
{4}3,4,5/2,,
{4}4,4,5,5,
{4}4/5,6/3,6/3,,
{4}6,6,5,5,
{4}6,5,7/4,,
{2}5/4,5/4,
{4}6/3,7/2,8/1,,
{2}2/1,2/1,
{4}3,4,5,6,
{2}8/7,8/7,
{4}6,5,4,3,
{2}1/8,8/1,
{4}2,7,2,7,
{4}2h[4:1],1,7h[4:1],8,
{1}1-4[2:1]/8-5[2:1],
{2}3/4,6/5,
{4}3,4,5/2,4,
{2}6/5,4/3,
{4}6,5,4/7,5,
{2}3/4,6/5,
{4}5/4,6/3,7/2,8/1,
{2}2h[4:1]/1h[4:1],8h[4:1]/7h[4:1],
{1}1^4[2:1]/8^5[2:1],
{2}3h[2:1],4h[2:1],
{4}5,6,7/8,,
{2}6h[2:1],5h[2:1],
{4}4,3,2/1,,
{2}2h[2:1],4h[2:1],
{4}5,6,8/7,,
{2}7h[2:1],5h[2:1],
{4}4,3,2/1,,
{4}3,3,4,3,
{4}2,5,3,3,
{4}6,6,5,6,
{4}7,4,6,6,
{2}2-5[4:1],7-4[4:1],
{4}1,8,8/1,,
{4}1,1,8,8,
{4}1,8,7b/2b,,
{8}3,,4,,3,3,,,
{8}6,,5,,6,6,,,
{8}7,,8,,7,7,,,
{8}2,,1,,2,2,,,
{8}4,,3,,3/4,4/3,,,
{8}5,,6,,6/5,5/6,,,
{1}4s8[4:7],,
{2},8b/1b,
{4}2,1,2,1,
{4}2,1,8/2,1/7,
{4}8,1,8,1,
{4}1/8,7/2,7/2,,
{4}7,8,7,8,
{4}7,8,1/7,8/2,
{2}1/2,7/8,
{4}1/8,7/2,
{1}1^4[4:3]/8^5[4:3],,
E
&inote_4=(190.0){1},
{8},,,3/4h[8:11],,,,,
{4},,,5h[4:5],{1},
{1}4h[4:5],
{4},3h[4:5],,,
{2},7h[4:5],
{4},,,1h[4:5],{1},
{8}8b,,,8b,,,8b,,
{4}2h[4:1],8,7h[4:1],1,
{8}1,8,1,8,1,5,4,6,
{2}8/7-3[8:1],1/2-6[8:1],
{4}7/5,6/4,5/3,2/4,
{2}2/1-5[8:1],7/8-4[8:1],
{4}5p4[4:1],,,8b/1b,
{2}4/3-7[8:1],5/6-2[8:1],
{4}1/3,8/2,7/1,6/8,
{8}6,4,5,,3,5,4,,
{4}8/1,7/2,6/3,1b,
{4}3,3/4,6,5/6,
{4}4,4/3,5,5/6,
{4}1,2/8,8,1/7,
{2}1-6[8:1]/2-5[8:1],3/8,
{4}6,7/5,3,2/4,
{4}7,8/6,2,1/3,
{8}8,1,8,,5/6,,4/3,,
{4}1/2h[2:1],,4-8[8:1],1b,
{8}7,8,7,,2,1,2,,
{8}6,5,6,,3,4,3,,
{8}7,6,7,,2,3,2,,
{2}7-4[8:1]/8-3[8:1],6/1,
{8}2,1,8/3,,7,8,6/1,,
{8}3,4,5/2,,6,5,4/7,,
{8}4,5,4,,1/2,,5/4,,
{1}7^4[4:1]/8^3[4:1],
{8}2q6[8:1],2,,,7p3[8:1],7,,,
{4}1,8,2-6[8:1]/7-3[8:1],,
{8}7/1,1,,,2/8,8,,,
{4}7<3[16:3],,1-5[8:1],8b,
{8}6q2[8:1],6,,,3p7[8:1],3,,,
{4}5,4,2-6[8:1]/7-3[8:1],,
{8}8/4,8,,,5/1,1,,,
{4}2>6[16:3],,8-4[8:1],1b,
{4}2h[2:1],1,3h[2:1],4,
{4}2h[4:1],1,4/3,2/7,
{4}7h[2:1],8,6h[2:1],5,
{8}8b,8b,8,,5/6,,7/2,,
{2}1-5[8:1]/2-6[8:1],7-3[8:1]/8-4[8:1],
{2}2^5[8:1]/6^1[8:1],7b/3b,
{8}2,1,2,,7,8,7,,
{4}4/5,3/6,7/2-5[8:1],8b,
{8}6h[4:1],,7h[4:1],,8,8,,3h[8:3],
{8},,2h[4:1],,1,1,,5h[8:3],
{8},,6h[4:1],,7,7,,,
{8}2/1,,3/8,,4/7,7/4,,,
{8}6h[4:1],,4h[4:1],,2,2,,3h[8:3],
{8},,5h[4:1],,7,7,,,
{8}8-4[8:1],,,2-6[8:1],,,
{4}5>6[1:1],{1},
{2},1b/8b,
{4}2h[4:1],1,7h[4:1],8,
{4}1/2,8/3,7/4,5/6,
{4}6h[4:1],8,3h[4:1],1,
{4}1/7,8/2,7/1-5[8:1],8b,
{4}7h[4:1],5,2h[4:1],4,
{4}4/3,5/2,6/1,7/8,
{8}2,1,3,,7,8,6,,
{8}8/1,1/8,2/7,2/7,3/6,,4,5,
{16}1,,8,,,,,,,7b/2b,
E
&inote_5=(190.0){1},,
{8},,,,1,
{12}2,
{643}4,,,,,,,,,,,,,,,,,,,,,,,,,,,,,,,,,,,,,,,,,,,,,,,,,,,,,,,,,,,,,,,,,,,
{16}7,,,
{4},2v4[2:1]/6v8[2:1],,,
{8},,,3,,3^5[4:1],,,
{8},,,8b,,,,4h[8:9]/6h[8:23],{1},
{8},,,5>7[8:9],,,,,{1},
{8}2/7,,7/2,1/8,,1/8,2b/7b,,
{16}4,5,4,5,4,5,4,5,3,6,3,6,2,7,2,7,
{16}1,8,1,,7/2,,1/8,,2/7,,6,,5,,4,,
{4}3^8[8:1],6^1[8:1],4p7[8:1],5>6[8:3],
{8},,,,2,1,4/7,,
{4}6^1[8:1],3^8[8:1],5q2[8:1],4<3[8:3],
{4},,5/1-5[8:1],1b,
{4}3^8[8:1],6^1[8:1],4p7[8:1],5>6[8:3],
{8},,,,2,1,7/4,,
{16}6,,3,4,3,,2,,7,,5,,2,,4,,
{8}6,4,2^5[8:1],8,8,,7b/1b,,
{4}6/5^2[8:1],6,7/5p8[8:1],7,
{4}6/5^2[8:1],6,7/5p8[8:1],7,
{8}6/5^2[8:1],6,6,,7/5p8[8:1],,7,,
{4}6/5^2[8:1],6,7/5p8[8:1],7,
{4}6/5^2[8:1],6,7/5-1[8:1],7,
{8}6/5v8[8:1],6,6,,7/5p1[8:1],,7,,
{8}4/5,5/6,5/4,4/3,4/5,,5/4,,
{16}1,8,1,8,1,8,1,8,2-6[8:1],,2,,1b,,,,
{4}3/4-8[8:1],3,3/5-1[8:1],3,
{4}6/5-1[8:1],6,6/4-8[8:1],6,
{8}3/4-7[8:1],3,3,,3/5-2[8:1],,3,,
{4}6/5-2[8:1],6,6/4-7[8:1],6,
{4}3/4q8[8:1],3,3/1p4[5000:621],3,
{8}6/5p1[8:1],6,6,,6/8q5[8:1],,6,,
{8}7,6,5,4,3h[4:1],,4,,
{2}7p4[2:1],8b,
{8}1-6[8:1]/2-5[10000:1243],1/2,,,7-4[8:1]/8-3[8:1],8/7,,,
{16}1,8,1,8,2,7,2,7,1,8,1,,2-5[8:1]/7-4[8:1],,,,
{4}2/7,1-5[8:1]/8-4[8:1],1b/8b,2/7,
{16}3/6^3[8:1],,,,6,,,,1,8,1,,2b/7b,,,,
{8}7^4[8:1]/8^3[8:1],7/8,,,1^6[8:1]/2^5[8:1],2/1,,,
{16}8,1,8,1,7,2,7,2,8,1,8,,2-6[8:1]/7-3[8:1],,,,
{4}2/7,1-6[8:1]/8-3[8:1],1b/8b,5/4,
{16}6/3^6[8:1],,,,3,,,,8,1,8,,7b/2b,,,,
{4}5h[8:1]/4h[8:3],7h[8:3],2h[4:1],1,
{8}4b/5b,,8h[8:1]/1h[8:1],,7/2,7/2,4/5,,
{4}7h[4:3]/4h[8:1],2h[8:1],8h[8:1],1,
{8}5b/4b,4b/5b,5b/4b,,2/7,,4/5,,
{8}1-5[8:1]/8-4[8:1],8/1,,,7/2,,5/4,,
{4}6/3,1-4[8:1]/8-5[8:1],1b/8b,3/6,
{4}8<4[4:1],4>8[4:1],8<4[4:1],4>8[4:1],
{4}8^5[4:1],5-1[8:1],1,2b/7b,
{8}2,2/4,2,8/2^5[8:1],2,6,7,7h[4:1],
{8},5,7,1/7^4[8:1],7,3,2,2h[4:1],
{16},,4,,2,,8/2^5[8:1],,2,,6,,7,,8,1,
{8}8,,3/6,,4-1[8:1]/5-8[8:1],4/5,,,
{8}6,6/8,6,4/6^1[8:1],6,2,3,3h[4:1],
{16},,4,,2,,5/2^8[8:1],,2,,7,,6,,6,5,
{8}7-4[8:1],3,2,1-5[8:1],6,7,8b,,
{16},,4/5,,6/3,,7/2,,3,4,3,,6,5,6,,
{16}7b/2b,,,,,,,,4,5,4,5,4,5,4,,
{16}8/7,,7,8,6,1,5,2,4,,5/3,,,,6^1[8:1],,
{8},3,3^8[8:1],,5q2[8:1],,4b,,
{16}2/1,,2,1,3,8,4,7,5,,4/6,,,,3^8[8:1],,
{8},6,6^1[8:1],,4p7[8:1],,5b,,
{16}8/7,,7,8,6,1,5,2,4,,3/5,,,,6^1[8:1],,
{8},3,3^8[8:1],,5q2[8:1],,4b,,
{16}3,,6,5,6,,7,,2/4,,3,,5/7,,6,,
{16}3,,5,,7^4[8:1],,1,,1,,,,
{621}1/8,,,,,,,,,,,,,,,,,,,,,,,,,,,,,,,,,,,,,,,,,,,,,,,,,,,,,,,,,,,,,,,,,,,,,,,,,,,,,,,,,,,,,,,,,,,,,,,,,
{629}7/2,,,,,,,,,,,,,,,,,,,,,,,,,,,,,,,,,,,,,,,,,,,,,,,,,,,,,,,,,,,
{641},,,,,,,,,,,,,,,,,,,,
{8}3/6,4/5,,,
{1}2v5[4:3]/7-2[4:3],,
E
