&title=オルフェ
&artist=宮野真守 [PV]
&wholebpm=184.0
&lv_1=2
&lv_2=4
&lv_3=7
&lv_4=9
&lv_5=10
&des_4=はっぴー
&des_5=Jack
&inote_1=
(184.0){1},,,,,
{1}1,
{1}1,
{1}1,,
{1}2,
{1}2,
{1}2,,
{1}3,
{1}3,
{1}3,,
{1}4b,,
{1}5,
{1}5,
{1}6,,
{1}7,
{1}7,
{1}8,,
{1}1,
{1}1,
{1}2,,
{1}3,
{1}3,
{1}4,,
{1}4h[1:1],,
{1}5h[1:1],,
{1}4h[1:1],,
{1}5h[1:1],,
{1}4b,,
{1}3,
{1}3,
{1}2,
{1}2,
{1}1,
{1}1,
{1}8,
{1}8,
{1}7,
{1}7,
{1}6-3[4:5],,,
{1}2-7[4:5],,,
{1}8,
{1}1,
{1}8/1,,
{1}1h[1:3],,,,
{1}1,
{1}2,
{1}3,
{1}4,
{1}5,
{1}6,
{1}7,
{1}8-4[4:7],,,
E
&inote_2=
(184.0){1},,,,,
{1}2,
{1}3,
{1}4/5,
{2}6,6,
{4}5,5,,5,
{4},4,,4,
{4},3,,3,
{4},2,,2,
{4},1,,1,
{4},8,,8,
{1}8-5[4:3],,
{1}1-4[4:3],,
{2}5,5,
{2}6,6,
{1}8h[2:1]/7h[2:1],
{1}8h[2:1]/7h[2:1],
{2}1,1,
{2}2,2,
{1}3h[2:1]/4h[2:1],
{1}4h[2:1]/3h[2:1],
{2}5,5,
{2}6,6,
{1}7h[2:1]/1h[2:1],
{1}1h[2:1]/7h[2:1],
{2}8,8,
{2}1,1,
{1}2-6[4:3],,
{1}5h[2:1],
{2}5,5,
{1}4h[2:1],
{2}4,4,
{1}6h[2:1],
{2}6,6,
{1}3h[2:1],
{2}3,3,
{1}5-8[4:3],,
{2}1b,1,
{4}2,2,2,,
{2}8,8,
{4}7,7,7,,
{4}6,6,6,,
{4}5,5,5,,
{2}4,4,
{1}3b/4b,
{2}1,1,
{4}2,2,2,,
{2}8,8,
{2}8,8/1,
{2}7,7,
{2}6,6,
{2}5,5,
{1}4b/5b,
{2}3,3,
{2}2,2,
{1}1h[2:1],
{2}1/8,1/8,
{1}1-4[4:3]/8-5[4:3],,,,
{2}3,3,
{2}3/4,4/3,
{2}6,6,
{2}6/5,5/6,
{2}7,7,
{2}8,8,
{2}1,1,
{1}2-6[4:3],,
E
&inote_3=
(184.0){1},1-4[2:1],
{1}5-8[2:1],
{1}3q6[8:11],,
{1}7-2[2:1],
{1}3-6[2:1],
{1}1-4[2:1]/8-5[2:1],
{4}4/5,4/5,3/6,,
{4}2,3,4/5,,
{4}7,6,4/5,,
{4}3,4,5,6,
{4}7,8,1,2/7,
{4}6,5,3/4,,
{4}3,4,5/6,4^1[4:3]/5^8[4:3],{1},
{2}1/8,2/7,
{1}1-4[2:1]/8-5[2:1],
{4}5/4,,5/3,6/4,
{4}3,4,2/5,,
{4}6h[2:1],5,5,,
{4}3h[2:1],4,4,,
{4}5h[2:1],4,4,,
{4}6,6,7,7,
{4}8,8,1/7,,
{4}3,3,2,2,
{4}1,1,2/8,1/7,
{4}6,5,4/7,,
{4}3h[2:1],4,4,,
{4}6h[2:1],5,5,,
{4}4h[2:1],5,5,,
{4}3,3,2,2,
{4}1,1,8/2,1/7<2[2:3],{1},,
{8}3h[8:3],,,5h[8:3],,,4h[8:3],,
{8},6h[8:3],,,5,,4/7,,
{4}3,4,2/5,,
{4}1,8,2/7,,
{8}6h[8:3],,,4h[8:3],,,5h[8:3],,
{8},3h[8:3],,,4,,5/2,,
{4}6,5,7/4,,
{4}8,1,2/7,,
{4}3,4/2,6,5/7,
{8}1/8,8b/1b,,,,,,,
{4}1/8,7/2,3/6,5/4,
{8}3,3-7[8:3],,,,,,,
{4}8/1,2/7,3/6,4/5,
{8}6,6-2[8:3],,,,,,,
{4}2,1/3,7,6/8,
{2}1h[4:3],8h[4:1],
{8}7/2,,3/6,,5/4,,7/2,7/2,
{4},,3/4,6/5,
{4}4/5,6/3,7/2,8/1,
{8}2/7,7/2,,4/5,,,8/7,,
{8}2/1,,3/4,3h[4:1]/4h[4:1],,,4/3,,
{8}6/5,6h[4:1]/5h[4:1],,,5/6,,,,
{4}3,4,5/2,,
{4}6,5,7/4,,
{4}8,1,2/7,,
{4}3/6,2/7,8b/1b,,
{4}2,3,4,5/6,
{4}7,6,5,4/3>6[4:3],{1},
{4}8/7,6/5,3/4,1/2,
{1}8<1[4:11],,,,
{4}2,1,3/8,,
{4}7,8,1/6,,
{4}5,4,3,2,
{4}1,8,7/2,,
{4}8,1,2,3,
{4}4,5,6,7,
{8}8h[8:3],,,2h[8:3],,,6h[8:3],,
{8},4h[8:3],,,5,,,7/2,
E
&inote_4=
(184.0){1},,,,,
{1}6h[1:1],
{1}5h[1:1],
{1}4>5[4:3],
{4},,5/4,6/3,
{8}8h[4:1],,2h[4:1],,3,3,,6h[4:1],
{8},5,5,,3,,2/4,,
{8}1h[4:1],,7h[4:1],,6,6,,3h[4:1],
{8},4,4,,6,,5/7,,
{8}8h[4:1],,2h[4:1],,3,3,,6h[4:1],
{8},5,5,,2b/7b,,,,
{8}7,,5/6,,2,4,3,,
{8}2,,3/4,,7,5,6,,
{8}7,,6/5,,2,4,3,,
{4}2,3/4,8b/4b,,
{8}2/5,,3h[4:1],,4,4,,6h[4:1],
{8},5,5,,4/7,7/4,,1h[4:1]/2h[4:1],
{8},,1/2,,3/8,,,6h[4:1]/5h[4:1],
{4},6/5,4/7,,
{8}2/1,,7h[4:1],,6,6,,2h[4:1],
{8},3,3,,8,8,,7h[8:3],
{8},,8,,1/6,6/1,,3h[4:1],
{8},4,4,,1/2,,3/8,,
{8}4/7,,6h[4:1],,5,5,,3h[4:1],
{8},4,4,,2/5,5/2,,7h[4:1]/8h[4:1],
{8},,7/8,,1/6,,,4h[4:1]/3h[4:1],
{4},4/3,2/5,,
{8}7/8,,2h[4:1],,3,3,,7h[4:1],
{8},6,6,,1/2,,4/7,,
{1}5/6<5[4:5],,
{8}1h[8:3],,,3h[8:3],,,4h[8:3],,
{8},5h[8:3],,,7,,8/7,,
{4}1>5[8:3],,,8,
{1}8q1[2:1],
{8}8h[8:3],,,6h[8:3],,,5h[8:3],,
{8},4h[8:3],,,2,,1/2,,
{8}6/5,6/5,,4/3,4/3,,4/6,6/4,
{8},5/3,5/3,,4/5,,2/7,,
{8}2/1,2/1,,7/8,7/8,,1,8,
{8}1,7/2,,,,,,,
{4}1/6,8/3,2/5,7/4,
{8}1/2,1-6[8:1]/2-5[8:1],,,,,8/3,,
{4}1/6,4/7,5/2,8/3,
{8}7/8,7-4[8:1]/8-3[8:1],,,,,6/1,,
{8}4,4,5,5,3/6,,4/5,,
{2}2h[4:1]/6h[4:1],8b/4b,
{8}1/8,1^4[8:1]/8^5[8:1],,,,,1/8,2b/7b,
{8},,,4/5,,2/7,7/2,,
{4}3/8,6/1,7/4,5/2,
{8}8/7,7-3[8:1]/8-4[8:1],,,,,5/4,,
{8}7/2,,6/5,4/7,,3/4,5/2,,
{8}8/7,6/1,,2/1,3b/8b,,,,
{8}6,6h[4:1],,4,4h[4:1],,8,8h[8:3],
{4},7,6,5,
{8}3,3h[4:1],,5,5h[4:1],,
{4}1s5[2:1],{1},
{8}7,,5/6,,2,3,3/4,,
{8}2,,3/4,,7,6,5/6,,
{8}7,,6/5,,2,3,3/4,,
{4}7b/2b,5b/4b,3b/6b,1/8,
{8}2/7,,8/1,1h[2:5]/8<2[8:11],,,,,{1},
{8},,,,,,,6h[4:1],
{8},5,5,,3h[4:1],,4,4,
{8},7,7h[4:1],,8,8,,2/1,
{8},3/4,,6/5,,7/8,,3h[4:1],
{8},4,4,,6,6,,7/8,
{8},5/6,,4/3,,1,1,,
{8}7h[4:1],,6,6,,1,,2q5[8:5],{1},
{8}7/5,,1/3,3/1,,8/6,6/8,,
{8}4/2,2/4,,8/1,8/1,,4/5,6b/3b,
E
&inote_5=
(184.0){1},2^5[2:1],
{1}7^4[2:1],
{4}3h[4:3],,,4,
{8}5h[8:3],,,6h[8:3],,,7,,
{1}8p6[2:1],
{1}1q3[2:1],
{16}7/2,,,,,,1,8,1,,,,,,,,
{16}3/4,,,,5/6,,,,4,5,4,5,4b,,,,
{8}3,4,5,6h[4:1],,5,4,3h[4:1],
{8},4,5/2,,6/5,4/7,,6h[8:7],
{8},,1,,2,,3,3h[8:3],
{4},4,1/8,6/5,
{8}7,8,1,2h[4:1],,1,8,7h[4:1],
{8},8,6/1,,1/2,3/8,,,
{1}5<4[4:5],,
{1}3>6[1:1],
{4},,4/5,2/7,
{8},8,1,2,3,4v2[8:1]/8v6[8:1],,,
{8},,1,8,7,6/5,,2h[4:1]/1h[4:1],
{8},,1-6[8:1]/2-5[8:1],,,,,8h[4:1]/7h[4:1],
{4},7-4[8:1]/8-3[8:1],,1/6,
{8},7,6,5,4,3p6[16:5],,,
{8},,7,8,1,2/7,,4h[8:3],
{8},,7h[8:3],,8,8,,2h[8:3],
{8},1,1,,8b/4,,5/1b,,
{8},1,8,7,6,1v3[8:1]/5v7[8:1],,,
{8},,8,1,2,3/4,,2h[4:1]/6h[4:1],
{8},,3-6[8:1]/7-2[8:1],,,,,1h[4:1]/5h[4:1],
{4},4-1[8:1]/8-5[8:1],,3/7,
{8},2,3,4,5,6q3[16:5],,,
{8},,1,2,4/3,,1/8,,
{8}5/6^1[8:1],,,3^8[8:1],,,7,,
{8}4/5,,
{12}3,
{995}4,,,,,,,,,,,,,,,,,,,,,,,,,,,,,,,,,,,,,,,,,,,,,,,,,,,,,,,,,,,,,,,,,,,,,,,,,,,,,,,,,,,
{12}3,6,
{995}5,,,,,,,,,,,,,,,,,,,,,,,,,,,,,,,,,,,,,,,,,,,,,,,,,,,,,,,,,,,,,,,,,,,,,,,,,,,,,,,,,,,
{12}6,4b,,,
{8}7^4[8:1],,,2^7[8:1],,,5^2[8:1],,
{415},,,,,,,,,,,,,,,,,,,,,,,,,,,,,,,,,,,,,,,,,,,,,,,,,,,,
{830}1h[1668:625],,,,,,,,,,,,,,,,,,,,,,,,,,,,,,,,,,,,,,,,,,,,,,,,,,,,,,,,,,,,,,,,,,,,,,,,,,,,,,,,,,,,,,,,,,,,,,,,,,,,,,,,,,,,,,,,,,,,,,,,,,,,,,,,,,,,,,,,,,,,,,,,,,,,,,,,,,,,,,,,,,,,,,,,,,,,,,,,,,,,,,,,,,,,,,,,,,,,,,,,,,,,,,,,,,,,,,,,,,,,,,,,,,,,,,,,,,,,,,,,,,,,,,,,,,,,,,,,,,,,,,,,,,,,,,,,,,,,,,,,,,,,,,,,,,,,,,,,,,,,,,,,,,,,,,,
{4}8,5/4,
{8}7,7^2[8:1],,,,,7/2,,
{8}3,3>6[8:3],,,,,,,
{8}2^5[8:1],,,7^2[8:1],,,4^7[8:1],,
{8},8h[8:3],,,1,,4/5,,
{8}2,2^7[8:1],,,,,2/7,,
{8}6,6q3[16:3],,,,,3/6,,
{8}4,4>5[2:1],,,,,,,
{8}1/8,2b/7b,,,,,,,
{4}1^4[8:1],1^6[8:1],1-5[8:1],1,
{8}4/8,3-6[8:1]/7-2[8:1],,,,,1/5,,
{4}8^5[8:1],8^3[8:1],8-4[8:1],8,
{8}1/5,3>6[4:1]/6q3[4:1],,,,,4/5,,
{16}2,,5,,4,,7,,6/5,,,4/3,,,8/1,,
{2}2-5[8:1]/7-4[8:1],4-8[8:1]/5-1[8:1],
{8}2/7,3/6<3[4:1],,,,,4/5,2b/7b,
{8},,,4/5,,8/1,7/2-5[8:1],,
{4}2/7-4[8:1],7/1-5[8:1],1/8-4[8:1],2/8,
{8}3,3>6[4:1],,,,,1/8,,
{8}3-8[8:1],,7,7-4[8:1],,2,2-5[8:1],,
{8}6,6-1[8:1],,8,8b,,,,
{8}2h[4:1],,3h[4:1],,4h[8:3],,,8,
{8},1/5,,7/3,6/2,,8/4,,
{8}7h[4:1],,6h[4:1],,5h[8:3],,,4,
{8},8/1,,7/2,2/7,,,,
{4}4-1[8:1]/5-8[8:1],,2^5[4:1],5^8[4:1],
{4}8^3[4:1],3^6[4:1],6^1[4:1],1>8[2:1],
{4},,,5/1,
{2}2v4[8:1]/6v8[8:1],3v1[8:1]/7v5[8:1],
{8}2/7,,,5/4>5[4:9],,,,,{1},
{8},,,,,,,1h[4:1],
{8},2,3,4,5,6,7,8h[8:3],
{8},1,1,,5,4,5,3h[8:3],
{8},4,5,6h[8:3],,7,8,1h[8:3],
{8},8,8,,4,5,4,7h[8:3],
{8},8,1,2h[8:3],,1,1,,
{8}8,7,6,5h[2:1],,2,3,4,
{16},,4,5,4,,3,,2,,1,,8,,7,,
{8}6^3[8:1],,,1^6[8:1],,,4^1[8:1],,
{8},7^4[8:1],,,2^7[8:1],,,5<4[1:2],{1},
{4},,,
{8}1s5[8:1],,,,
E
