&title=ウミユリ海底譚
&artist=n-buna
&wholebpm=120
&demo_seek=61.92
&demo_len=16.18
&lv_1=2
&lv_2=4
&lv_3=7
&lv_4=9+
&lv_5=13
&des_4=某S氏
&des_5=はっぴー
&inote_1=(120.0){1},,
{1}1,
{1}1,
{1}8,
{1}8,
{1}1,
{1}1,
{1}2,
{1}2,
{1}3,
{1}3,
{1}4,
{1}4/5,
{1}5,
{1}5,
{1}6,
{1}6,
{1}7,
{1}7,
{1}8,
{1}8,
{1}1h[1:1],,
{1}8h[1:1],,
{1}1h[1:1],,
{1}8h[1:1],,
{1}1/8,
{2}8,8,
{2}7,7,
{2}6,6,
{1}5,
{2}4,4,
{2}3,3,
{2}2,2,
{1}1,
{1}8-5[4:3],,
{1}4-1[4:3],,
{2}8,8,
{1}1h[1:2],,,
{2}1,1,
{1}8h[1:2],,,
{2}1,1,
{2}2,2,
{2}3,3,
{1}4,
{2}5,5,
{2}6,6,
{2}7,7,
{1}8,
{2}1,8,
{1}1b,
{1}2-7[4:3],,
{1}6-3[4:3],,
{2}4,5,
{2}4,5b,
E
&inote_2=(120.0){1},,
{2}1,1,
{4}2,2,2,,
{2}8,8,
{4}7,7,7,,
{2}6,6,
{4}5,4,5,,
{2}3,3,
{4}4,5,4,,
{2}6,6/5,
{4}5,4,5,,
{2}3,3/4,
{4}4,5,4b,,
{2}6,6,
{2}7,7,
{2}8,8,
{4}1,1,1,,
{1}1h[2:1],
{1}8h[2:1],
{2}1,2,
{4}3,3,3/4,,
{4}4,4,5,,
{4}5,5,6,,
{2}6/5,5/4,
{2}4/3,5/4,
{4}5,5,6,,
{4}6,6,7,,
{2}8/7,8/1,
{2}2/1,8/1,
{4}1,8,1b,,
{4}8,8,1,,
{4}1,1,2,,
{4}2,2,3,,
{2}3/4,3/4,
{4}1,1,8,,
{4}8,8,7,,
{4}7,7,6,,
{2}6/5,6b/5b,
{1}6-3[4:3],
{2},2,
{1}3-6[4:3],
{2},7,
{1}6h[2:1],
{1}5h[2:1],
{1}4h[2:1],
{1}3h[2:1],
{2}2,2,
{2}1,1,
{2}8,8,
{2}7,7,
{4}6,6,5,,
{2}5/4,5b/4b,
{4}4,4,3,,
{4}2,2,1/2,,
{4}1,1,8,,
{4}7,7,7/8,,
{4}6,5,4,,
{4}3,4,5,,
{4}6,6,6/5,,
{4}3,3,4b/3b,,
{4}5,5,6,6,
{4}7,7,8/1,,
{4}1,1,2,2,
{4}3,3,5/4,,
{2}6,7,
{4}8,,1,1,
E
&inote_3=(120.0){1},,
{8}3/4,,5/6,,4,5,4,,
{8}6/5,,3/4,,2,1,8,,
{8}1/2,,7/8,,1,8,1,,
{8}7/8,,1/2,,7,8,1,,
{4}3h[4:1],4,6h[4:1],5,
{4}3h[4:1],6h[4:1],4h[1945:488],5,
{4}2h[4:1],1,7h[4:1],8,
{4}2h[4:1],7h[4:1],1h[4:1],8,
{4}3,4/2,6,5/7,
{4}3/4,6/5,7/1,8/2,
{4}7,6/8,2,3/1,
{8}8/7,,2/1,,8,8,8/1,,
{8}2,,3,,4,5,4,5,
{4}4h[2:1],,6,5/3,
{8}6,,7,,8,1,8,1,
{4}8h[4:1],1,2/7,4/5,
{4}6h[4:1],5,3h[4:1],4,
{4}2h[4:1],1,7h[4:1],8,
{4}5h[2:1],,3,6/4,
{8}5,4,5,4,5,,7/2,,
{4}3,4,6/5,7,
{8}6,,5,,3/4,,5,4,
{8}3/6,,,,2h[4:1],,
{926}1,,,,,,,,,,,,,,,,,,,,,,,,,,,,,,,,,,,,,,,,,,,,,,,,,,,,,,,,,,,,,,,,,,,,,,,,,,,,,,,,,,,,,,,,,,,,,,,,,,,,,,,,,,,,,,,,,,,,,,,,,,,,,,,,,,,,,,,,,,,,,,,,,,,,,,,,,,,,,,,,,,,,,,,,,,,,,,,,,,,,,,,,,,,,,,,,,,,,,,,,,,,,,,,,,,,,,,,,,,,,,,,,,,,,,
{741}7h[463:117],,
{8},,8,,1/8,,2,2,
{8}2,,3,3,3,,4,4,
{8}4,,5,5,5,,6,6,
{8}6,,7/1,,2/8,,1,8,
{4}2/7,,3/4,6/5,
{8}4,5,4,5,4,,4b/5b,,
{8}1/2,,3/4,,6,5,6,,
{8}8/7,,6/5,,3,4,3,,
{8}1/2,,7/8,,6,5,6,,
{8}7/8,,1/2,,3,4,3,,
{8}6/5,,3/4,,2,1,2,,
{8}3/4,,5/6,,7,8,7,,
{8}6/5,,7/4,,8,1,8,,
{8}3/4,,5/2,,1,8,1,,
{2}2-5[8:1],7-4[8:1],
{8}3,,4/2,,1,1,1/8,,
{1000}7$,
{555}7?-4[8:1],,,,,,,,,,,,,,,,,,,,,,,,,,,,,,,,,,,,,,,,,,,,,,,,,,,,,,,,,,,,,,,,,,,,,,,,,,,,,,,,,,,,,,,,,,,,,,,,,,,,,,,,,,,,,,,,,,,,,,,,,,,,,,,,,,,,,,,,,,,,,,,,,,,,,,,,,,,,,,,,,,,,,,,,,,,,,,,,,,,,,,,,,,,,,,,,,,,,,,,,,,,,,,,,,,,,,,,,,,,,,,,,,,,,,,,,,,,,,,,,,,,,,,,,,,,,,,,,,,,,,,,,,,,,,,,,,,,,,
{4}2-5[8:1],,
{8}6,,5/7,,8,8,1,1,
{2}1/8,2/3,
{8}6/7,,,,4/5,,,3,
{2}3/4,7/8,
{8}1/6,,5/2,,3,4,3,,
{2}1/8,6/7,
{8}2/3,,,,4/5,,,6,
{2}5/6,1/2,
{8}8/3,,7/4,,6,5,6,,
{4}3h[4:1],4h[4:1],5h[4:1],6h[4:1],
{8}4h[2:1],,,,5,4,3b/6b,,
{8}1/2,,4/3,,6,5,6,,
{8}7/8,,6/5,,3,4,3,,
{8}1/2,,8/3,,7,6,5/4,,
{8}7/8,,1/6,,2,3,5/4,,
{8}3/6,,7/2,,1,8,1,,
{8}2/7,,3/6,,4/5,5/4,6/3,,
{4}2h[4:1],1,7h[4:1],8,
{4}4h[4:1],5,1-4[8:1]/8-5[8:1],,
{4}3h[4:1],4,6h[4:1],5,
{8}4,5,4,5,4,,2/7,,
{4}6h[4:1],8,3h[4:1],1,
{8}8,1,8,1,8,1,2/7,,
{2}3h[2:1],6h[2:1],
{8}4h[2:1],,,,5,4,6/3,
E
&inote_4=(120.0){1},
{8}8,,8,,4,5,4,5,
{8}3,,3/4,,2,1,2,,
{8}6,,6/5,,7,8,7,,
{8}2,,2/1,,3,4,3,,
{4}6/4,3/5,4h[4:1]/6h[4:1],,
{8}7,8,7,8,6,5,6,5,
{8}4,3,2,1,8h[4:1],,1,,
{8}2,1,2,1,3,4,3,4,
{8}5,6,7,8,1h[4:1],,8,,
{8}7,8,6,1,5,2,4,3,
{8}6,5,7,4,8-4[5000:469],,2,,
{8}2,1,3,8,4,7,5,6,
{8}3,4,2,5,1-5[5000:469],,7b,,
{4}4,3/5,5,4/6,
{8}3h[4:1],,1,,8,7,6,5,
{4}4,2/5,5,7/4,
{4}5h[4:1],3h[4:1],1h[4:1],8,
{8}1^4[5000:469],7,7,,8^5[5000:469],2,2,,
{8}2q6[5000:469],8,8,,7p3[5000:469],1,1,,
{4}1h[4:1],7h[4:1],5h[4:1],4,
{4}3/5,7/4,1/6,2b/8b,
{8}2,3,4,5,6/7,,3/6,,
{8}7,6,5,4,3/2,,6/3,,
{2}8h[4:1]/2^5[5000:469],1h[4:1]/7^4[5000:469],
{4}3h[4:1],4h[4:1],5,6/3,
{8}3,2,1,8,7/6,,2/7,,
{8}6,7,8,1,3/2,,7/2,,
{2}5h[4:1]/3^8[5000:469],4h[4:1]/6^1[5000:469],
{4}2h[4:1],4h[4:1],6h[4:1],8,
{4}7/8,6/5,3/4,2b/1b,
{8}4,4,6,6,8/7,7/8,6/1,,
{8}5,5,3,3,1/2,1/2,3/8,,
{8}4,4,6,6,1/7,7/1,2/8,,
{4}6h[4:1],5h[4:1],4h[4:1],3b,
{8}1,1,7,7,5/6,6/5,7/4,,
{8}8,8,2,2,4/3,4/3,5/2,,
{8}1,1,7,7,4/6,4/6,3/5,,
{4}3h[4:1],4h[4:1],5h[4:1],6b,
{8}7,8,7,1,6,4,5,,
{8}2,1,2,8,3,5,4,,
{8}4/5,3,5/4,6,4/5,2,4/5,7,
{8}5/4,3,5/4,6,4-1[5000:469]/5-8[5000:469],,,,
{4}1,2,3,4,
{8}5h[2:1],,,,,,,6,
{1}6h[2:1]/5h[2:1],
{4}7,8,1h[4:1],8,
{4}1,2,3,4,
{8}5<1[4:1],,,,,,,2,
{1}2>6[4:1],
{4}6h[4:1],5h[4:1],4h[4:1],3b,
{8}3,3,1,1,8/7,8/7,6/1,,
{8}8h[4:1]/7h[4:1],,,,6/4,3/5,2/4,,
{8}7,7,5,5,4/3,3/4,2/5,,
{4}1-4[5000:469],8-5[5000:469],1-4[5000:469],,
{8}6,6,8,8,1/2,2/1,3/8,,
{8}3,3,5,5,8b/6b,1b/7b,8b/2b,,
{8}2,2,4,4,6/5,5/6,4/7,,
{4}8-5[5000:469],1-4[5000:469],8-5[5000:469],,
{8}2,3,4,5,1,8,7,6,
{8}4,5,6,7,1/8,1/8,2/7,,
{8}7,8,7,4/6,2,1,2,5/3,
{8}6,3,7,2,1-4[5000:469]/8-5[5000:469],,,,
{8}6,5,6,7/1,3,4,3,8/2,
{8}7,2,6,3,4/5,3/6,2b/7b,,
{4}8h[2:1],1,2h[2:1],7,
{8}6h[2:1],,3,,4h[4:1],5,5,
E
&inote_5=(120.0){1},
{8}5h[4:3],,,,4,4,4,4/3,
{8}6,6/5,3,4/3,7,5/7,2,4/2,
{8}6,6/5,3,4/3,5,4/5,7/2,,
{8}3,4/3,6,6/5,4,4/5,2/7,5/6,
{8}7/4,4/3,5/2,1/8,5/4,4/5,7/2,,
{16}6/4,,3,,4/2,,5,5,6/4,,3,,4/2,,5,,
{8}4/6,7,6/4,3,2/4h[4:1],2,5,4,
{16}5/3,,6,,7/5,,4,4,5/3,,6,,7/5,,4,,
{8}3/5,2,3/5,6,7/5h[4:1],7,4,3,
{16}2/8,,7,,8/6,,1,1,2/8,,7,,8/6,,1,,
{8}8/2,3,2/8,7,6/8h[4:1],6,1,8,
{16}1/7,,2,,3/1,,8,8,1/7,,2,,3/1,,8,8,
{16}1/7,,6,,7/1,,2,2,3/1,,8,,7b/2b,,,,
{8}1^4[8:1],5,6,5,1^6[8:1],5,4,5,
{16}1^4[8:1],,5,,6,,5,,1,,5,,3,,8,1,
{8}8^5[8:1],4,3,4,8^3[8:1],4,5,4,
{16}8^5[8:1],,4,,3,,4,,8,,4,,4,5,4,5,
{8},1,2,1^4[4:1],,8,7,8^5[4:1],
{8},1,2,1^4[4:1],,8,7,8<2[8:3],
{8}8,,,1,1h[8:3],,,8,
{8}8-4[8:1],8,1-5[8:1],1,,,4/5,2,
{8}2^7[8:1],2,6q3[8:1],6,,,1,8,
{16}7^2[8:1],,7,,3p6[8:1],,3,,,,,,4,4,5,5,
{8}3/6,,5,6,7,8,1,2,
{8}3>6[4:1],4,5,5,4,,4,5,
{8}6^3[8:1],6,2q7[8:1],2,,,8,1,
{16}3^6[8:1],,3,,7p2[8:1],,7,,,,,,5,5,4,4,
{8}6/3,,2,3,4,5,6z2[4:1],6,
{8},,,2,2^5[8:1],2,8^5[8:1],8,
{8}1-5[8:1],1,8-4[8:1],8,,,5b/4b,,
{8}2,1/8-4[8:1],7,8/1-5[8:1],2,1/8-4[8:1],7,8/1-5[8:1],
{8}2,1/8-4[8:1],7,8/1-5[8:1],2,8/1,7,8/1,
{8}2,1/8-4[8:1],7,8/2-6[8:1],3,8/2,7,2/1,
{8}7/4,7/8,5/2,2/1,4/7,5,3,2/8^5[8:1],
{8}7,8/1^4[8:1],2,1/8^5[8:1],7,8/1^4[8:1],2,1/8^5[8:1],
{8}7,8/1^4[8:1],2,1/8^5[8:1],7,1/8,2,8/1,
{8}7,8/1-5[8:1],2,1/7-3[8:1],6,7/1,2,5/6,
{16}8/3,,3/4,,1/6,,1/8,,5/4,,4/5,,7b/2b,,8,1,
{16}8,,7,,6,,3,4,2,5,8h[8:1],,7,8,6,1,
{16}5,2,4h[8:1],,2,1,3,8h[8:1],,7,,1/6,,2,5,3,
{16}4,,4/5,,5/6,,2,1,3,8,4,7,5,,3/4,,
{8}4/5,7/5,5/4,4/3,6/5,4/2,7/5,8/1,
{8}4,4h[4:1],5,5h[4:1],4,4h[4:1],5,5h[4:1],
{8}3,3h[4:1],6,6h[4:1],3,3h[4:1],6,6h[4:1],
{8}4,4h[4:1],6,6h[4:1],3,3h[4:1],5,5h[4:1],
{8}4,4h[4:1],5,5,4/5,4/5,6/3,,
{16}2/4,,3,3,4,,2,,7/5,,6,6,5,,7,,
{16}2/4,,3,3,4,,2,,7/5,,6,6,5,,7,,
{16}3/1,,2,2,3,,1,,6/8,,7,7,6,,8,,
{16}1/3,,2,2,3,,1,,5/4,,4/5,,2/7,,,,
{8}6-2[8:1],6,3-8[8:1],3,5-1[8:1],5,4>5[8:3],4,
{8},,,,8/1,8/1,7b/2b,,
{8}1,8/7^4[8:1],6,7/8^3[8:1],1,8/7^4[8:1],6,7/8^3[8:1],
{8}1,8/7^4[8:1],6,7/8^3[8:1],1,7/8,6,1/2^5[8:1],
{8}3,2/1^6[8:1],8,1/2^5[8:1],3,2/1^6[8:1],8,1/2^5[8:1],
{8}3,2/1^6[8:1],8,1/2,3,8/7,5b/2b,,
{8}2,1/8^5[8:1],7,8/1^4[8:1],2,1/8^5[8:1],7,8/4^1[8:1],
{8}3,4/8^5[8:1],7,8/3,3,4,2/5,,
{16}3,,4,,6,,5,,3,,4,,6,,4,5,
{16}3,6,4,5,3,6,4,,4/5,,4/5,,2b/7b,,,,
{8}3,2/7^4[8:1],6,7/1-5[8:1],2,1/8-4[8:1],7,8/2^5[8:1],
{8}3,2/8-4[8:1],7,8/1-5[8:1],2,1/7^4[8:1],6,7/1-5[8:1],
{8}2,1/8-4[8:1],7,8/2^5[8:1],3,2/8-4[8:1],7,8/1-5[8:1],
{8}2,1/8,6,5/4,8/1,2/7,3b/6b,,
{8}5,6,4,3,7,5,2,4,
{8}6,5,3,4,5,5/4,5/4,
E
