&title=planet dancer
&artist=樽木栄一郎
&wholebpm=127
&demo_seek=84.8
&demo_len=15.2
&lv_1=2
&lv_2=4
&lv_3=7+
&lv_4=11
&lv_5=13
&lv_6=13+
&des_4=合作だよ
&des_5=はっぴー
&des_6=ロシェ@ペンギン
&inote_1=(127.0){1},,,,,
{1}1,
{1}1,
{1}2,
{1}2,
{1}3,
{1}3,
{1}4,
{1}4,
{1}5h[1:1],,
{1}6h[1:1],,
{1}7h[1:1],,
{1}8h[1:1],,
{1}1,,
{1}8,,
{1}1/8,,
{2}1,8,
{1}1/8,
{1}1h[1:1],,
{1}8h[1:1],,
{2}7,7,
{2}8,8,
{2}1,1,
{1}2b,
{1}1-4[4:3],,
{1}5-8[4:3],,
{1}1-5[4:3],,
{1}8-4[4:3],,
{2}1,1,
{1}1h[2:1],
{2}8,8,
{1}8h[2:1],
{2}1,2,
{1}2h[2:1],
{2}8,7,
{1}7h[2:1],
{1}1/8,
{1}2,
{1}3,
{2}4,4,
{1}4,
{1}5,
{1}6,
{1}7,
{1}8,
{1}1/8,
{8}1h[8:9]/8h[8:9],{1},,
E
&inote_2=(127.0){1},,,,,
{2}4,4,
{1}4/3,
{2}6,6,
{1}6/5,
{2}8,8,
{1}8/7,
{2}2,2,
{1}2/1,
{1}1h[2:1],
{1}7h[2:1],
{1}5h[2:1],
{1}3h[2:1],
{1}2h[2:1],
{1}4h[2:1],
{1}6h[2:1],
{1}8h[2:1],
{2},7,
{4}7,,7,7,
{2},7,
{4}8,,8,8,
{2},7,
{4}8,,1,1,
{4},,2,2,
{1}2,
{2},3,
{4}3,,3,3,
{2},3,
{4}4,,4,4,
{2},3,
{4}4,,5,5,
{4},,6,6,
{1}6,
{4}7,7,7,,
{4}6,6,6,,
{4}7,7,7/8,,
{2}8b,1b,
{4}2,2,2,,
{4}3,3,3,,
{4}2,2,2/1,,
{1}8b/1b,
{2}5/6,5/6,
{4}7,7,,,
{4}8,8,
{2}8-5[4:3],{1},
{2}3/4,4/3,
{4}2,2,,,
{4}1,1,
{2}1-4[4:3],{1},
{2}6/3,2/7,
{4}6,6,5,,
{4}3,3,
{2}4-1[4:3],{1},
{2}7/2,2/7,
{4}3,3,4,,
{4}6,6,
{2}5-8[4:3],{1},
{2}7/2,1-4[4:3]/8-5[4:3],{1},
{4}6/3,,8/1,8/1,
{1}8b/1b,
E
&inote_3=(127.0){1},
{2}3h[2:1],6h[2:1],
{2}4h[2:1],5h[2:1],
{1}3>6[2:1],
{1}8/1,
{4}3,3/4,6,6/5,
{4}2,2/4,7,7/5,
{4}2,1/2,7,7/8,
{4}1/2,7/8,1/8,2/7,
{4},2/4,5,6/4,
{4}7,6/8,1,8/2,
{4}3,2/4,6,5/7,
{4}1/2,7/8,1/8,2/7,
{2}8h[2:1],7h[2:1],
{2}6h[2:1],5,
{2}1h[2:1],2h[2:1],
{4}3h[2:1],,4,4,
{2}2h[2:1],1h[2:1],
{2}8h[2:1],7,
{2}7h[2:1],8h[2:1],
{2}1h[2:1],2,
{8}4h[4:1],,5,,3,4,3,,
{8}5h[4:1],,4,,6,5,6,,
{8}3h[4:1],,4,,2,5,2,,
{8}6h[4:1],,5,,7,4,7,,
{8}1h[4:1],,8,,2,1,2,,
{8}8h[4:1],,1,,7,8,7,,
{8}6,5,4,,3,4,5,,
{8}7,6,5,,3/4,,4/3,,
{8}6h[4:1],,5,,7,4,7,,
{8}3h[4:1],,4,,2,5,2,,
{8}8h[4:1],,1,,7,8,7,,
{8}1h[4:1],,8,,2,1,2,,
{8}8/3,,7,7,4,4,6,6,
{8},4/3,,5/6,,,1/8,,
{8}2,3,4,,7,6,5,,
{8}4/5,,6/3,,2/7,2b/7b,,,
{2}1-4[4:1],8-5[4:1],
{2}1^4[4:1],8^5[4:1],
{1}1q4[2:1],
{4}5/7,4/6,5/3,4/2,
{2}8-5[4:1],1-4[4:1],
{4}8^5[4:1],,1,8/1,
{8}2,3,4,5,6/4,,3/5,,
{1}1/8,
{8}2,,3/4,,5,4,3,,
{8}6,5,4,,7,6,5,,
{8}8,7,6,,1/2,,3/4,,
{8}5/6,,8/7,,1,1,8,,
{8}7/8,,5/6,,4,5,6,,
{8}3,4,5,,2,3,4,,
{8}1,2,3,,8/7,,5/6,,
{8}3/4,,2/1,,8,8,1,,
{8}2/1,,4/3,,6,5,7,,
{8}3,4,2,,6,5,8,,
{8}3,4,1,,8/7,,5/6,,
{8}3/4,,1/2,,8,1,8,,
{8}5/6,,6/5,,3,4,5/2,,
{8}6,5,4/7,,3,4,2/5,,
{8}6,5,4/7,,1/2,,3/4,,
{8}5/6,,8/7,,1,2,3,,
{8}5/6,5/6,,,7/8,,5/6,,
{8}4/3,,1/2,,8,7,6,,
{8}4/3,4/3,,,
{1}2q5[4:3],,
E
&inote_4=(127.0){1},
{4}2h[4:1],4h[4:1],6h[4:1],8,
{4}3/1,8/6,2/4,7/5,
{8}2,8,4,6,1,5,3,7,
{4}1-6[8:1],8-3[8:1],2-5[8:1],7b,
{4}4/3h[4:1],1,5/6h[4:1],8,
{4}4/3h[4:1],7,5/6h[4:1],2,
{4}1/2h[4:1],4,7-5[8:1],1-3[8:1],
{4}8-4[8:1],,4/5,7/2,
{4}5/6h[4:1],8,4/3h[4:1],1,
{4}5/6h[4:1],1,4/3h[4:1],8,
{4}8/7h[4:1],5,2-4[8:1],8-6[8:1],
{4}1-5[8:1],,4/5,2b/7b,
{4}5h[2:1],7,4h[2:1],2,
{4}7h[2:1],6,3,5/4,
{4}4h[2:1],2,5h[2:1],7,
{4}2h[2:1],3,6,4/7,
{4}8h[2:1],6,1h[2:1],3,
{4}6h[2:1],5,2,8/3,
{4}1h[2:1],3,8h[2:1],6,
{4}3h[2:1],4,7,1b/6b,
{8},,3,4,5,,8/7,,
{4}6h[4:1],5h[4:1],4,3/1,
{8}4,,6,5,4,,2/1,,
{4}3h[4:1],4h[4:1],5,8/6,
{4}5,4h[4:1],5,6/3,
{4}2/7,7/2,8/1,2^8[8:1]/5^7[8:1],
{4},4^2[8:1]/7^1[8:1],,1^4[4:1]/8^5[4:1],
{4},,1/2,7/8,
{4}1/2,4/3,5,7/8v3[4:1],
{4}6,5,4,3/1-7[8:1],
{4},5,4,2/1v6[4:1],
{4}3,4,5,6/8-2[8:1],
{8},,5h[4:1],,4,3,2,,
{8}5,6,7,,8/1,,8,1,
{8}7,2,6,,2-7[4:1]/3-6[4:1],,,,
{8},,8/1,,2/7,2b/7b,,,
{8}6,6h[8:1],,4h[8:1]/3h[8:1],,5h[8:1]/6h[8:1],,4h[8:1]/3h[8:1],
{8},6h[8:1]/5h[8:1],,4h[8:1]/3h[8:1],,6h[8:1]/5h[8:1],,4h[8:1]/3h[8:1],
{8},4h[8:1]/6h[8:1],,5h[8:1]/3h[8:1],,4h[8:1]/6h[8:1],,5/3,
{4}4b,7b,3b/8b,6b/1b,
{8}3,3h[8:1],,4h[8:1]/6h[8:1],,3h[8:1]/5h[8:1],,4h[8:1]/6h[8:1],
{8},3h[8:1]/8h[8:1],,6h[8:1]/1h[8:1],,8h[8:1]/3h[8:1],,6/1,
{8}2,7,3,5,2/6,,3/7,,
{8}7b/2b,,,,4,5,6/3,,
{16},,,,7/8,,2,,2,,7,8,,8,,1/6,
{16},,1/6,,,,,,2,,2,1,,1,,3/8,
{8},3/8,,,1-6[8:1],,5-2[8:1],,
{4}1-6[8:1],5-2[8:1],1,1/8,
{16},,,,2/1,,7,,7,,2,1,,1,,8/3,
{16},,8/3,,,,,,7,,7,8,,8,,1/6,
{8},6/1,,,8-3[8:1],,4-7[8:1],,
{4}8-3[8:1],4-7[8:1],8,1/8,
{16},,,,6/5,,3,,3,,6,5,,5,,7/4,
{16},,7/4,,,,,,3,,3,4,,4,,2/5,
{8},2/5,,,2-4[8:1],,7-5[8:1],,
{4}1-3[8:1],8-6[8:1],1-5[8:1],8-4[8:1],
{16},,,,3/4,,6,,6,,3,4,,4,,3/5,
{16},5/3,,2/6,,,,,6,,6,5,,5,,4/7,
{8},7/4,,,3-1[8:1],,6-8[8:1],,
{4}4v2[16:3],5v7[16:3],4-1[8:1],,
{999}8/7,,,,,,,,,,,,,,,,,,,,,,,,,,,,,,,,,,,,,,,,,,,,,,,,,,,,,,,,,,,,,,,,,,,,,,,,,,,,,,,,,,,,,,,,,,,,,,,,,,,,,,,,,,,,,,,,,,,,,,,,,,,,,
{995}2/5,,,,,,,,,,,,,,,,,,,,,,,,,,,,,,,,,,,,,,,,,,,,,,,,,,,,,,,,,,,,,,,,,,,,,,,,,,,,,,,,,,,,,,,,,,,,,,,,,,,,,,,,,,,,,,,,,,,,,,,,,,,,,,,,,,,,,,,,,,,,,,,,,,,,,,,,,,,,,,,,,,,,,,,,,,,,,,,,,,,,,,,,,,,,,,,,,,,,,,,,,,,,,,,,,,,,,,,,,,,,,,,,,,,,,,,,,,,,,,,,,,,,,,,,,,,,,,,,,,,,,,,,,,,,,,,,,,,,,,,,,,,,,,,,,,,,,,,,,,,,,,,,,,,,,,,,,,,,,,,,,,,,,,,,,,,,,,,,,,,,,,,,,,,,,,,,,,,,,,,,,,,,,,,,,,,,,
{16}3,,3,4,,4,,8/7,
{8},2/5,,,8/1,,6/3,,
{16}1/2,,4/7,,,,,,6,,6,5,,5,,2/1,
{8},4b/7b,
E
&inote_5=(127.0){1},
{4}5/1^4[8:1],6/1^6[8:1],4/1^4[8:1],6/1^6[8:1],
{4}4/1^4[8:1],7/1^6[8:1],3/1^4[8:1],7/1<2[4:3],{1},
{4}5/4,2b/7b,7b/2b,,
{2}8/2^5[8:1],1/7^4[8:1],
{2}8/2q6[8:1],1/7p3[8:1],
{4}8/4,6/2^7[8:1],2/6q3[8:1],6/4q5[8:3],
{16},,,,,,,,5/4,5/4,,8/1,,3/6,,1/7^4[16:3],
{2},8/2^5[8:1],
{2}1/7p3[8:1],8/2q6[8:1],
{4}1/5,3/7^2[8:1],7/3p6[8:1],3/5p4[8:3],
{16},,,,,,,,5/4,5/4,,7/2,,1/6,,3^8[16:3]/8^5[16:3],
{2},1^4[8:1]/6^1[8:1],
{2}2^5[8:1]/5^8[8:1],4^1[8:1]/7^4[8:1],
{4}3^8[8:1]/8^5[8:1],3/8,1^4[8:1]/6^1[8:1],6/1,
{4}2^5[8:1]/5^8[8:1],2/5,4^1[8:1]/7^4[8:1],4/7,
{2}3^8[8:1]/8p3[8:1],1q6[8:1]/6^1[8:1],
{2}2^5[8:1]/5q2[8:1],4p7[8:1]/7^4[8:1],
{4}3^8[8:1]/8p3[8:1],8/3,1q6[8:1]/6^1[8:1],6/1,
{4}2^5[8:1]/5q2[8:1],5/2,4p7[8:1]/7^4[8:1],4/7,
{2}7/3>6[8:1],2/6<3[8:1],
{2}7/3>6[8:1],2/6<3[8:1],
{4}7/3p6[8:1],8/3,2/6q3[8:1],1/6,
{4}7/3p6[8:1],8/3,2/6q3[8:1],1/6,
{2}7/1s5[8:1],2/8z4[8:1],
{2}7/1s5[8:1],2/8z4[8:1],
{2}2p5[8:1]/6^1[8:1],3^8[8:1]/7q4[8:1],
{16}3p6[8:1]/7^2[8:1],,,,,,,,5/4,4/5,,8/1,,7/3,,6/2>7[16:3],
{2},3/7<2[8:1],
{2}6/2>7[8:1],3/7<2[8:1],
{4}6/2q7[8:1],8/2,3/7p2[8:1],1/7,
{4}6/2q7[8:1],2/8,3/7p2[8:1],7/1,
{4}6/1p4[8:1],1/3,3/8q5[8:1],6/8,
{4}6/1p4[8:1],1/3,3/8q5[8:1],8/6,
{4}3/2p3[8:1],8/2,6/7q6[8:1],1/7,
{8}5/2q5[4:1],,,,,8b/1b,,,
{4}6/1>5[8:1],1/6>2[8:1],6/1>5[8:1],1/6>2[8:1],
{4}6/1>5[8:1],1/6>2[8:1],6/1>5[8:1],1/6p4[4:1],
{2},7^4[8:1]/8^3[8:1],
{4}1/6-1[8:1],6/3q5[4:1],,,
{4}3/8<4[8:1],8/3<7[8:1],3/8<4[8:1],8/3<7[8:1],
{4}3/8<4[8:1],8/3<7[8:1],3/8<4[8:1],3/8,
{4}8/3-8[8:1],3/6-1[8:1],6/4-8[8:1],4/5-1[8:1],{1},
{4}5/1<5[8:1],3/1,4/8>4[8:1],6/8,
{4}5/1<5[8:1],1/3,4/8>4[8:1],6/8,
{4}5/1<5[8:1],1/3,2/7^2[8:1],7/3v6[8:1],
{2}3/5p8[8:1],2v4[8:1]/7v1[8:1],
{4}4/8>4[8:1],6/8,5/1<5[8:1],3/1,
{4}4/8>4[8:1],6/8,5/1<5[8:1],1/3,
{4}4/8>4[8:1],8/6,7/2^7[8:1],2/6v3[8:1],
{2}6/4q1[8:1],2v5[8:1]/7v8[8:1],
{4}2/1q6[8:1],1/7q4[8:1],,5/2,
{4}7/8p3[8:1],8/2p5[8:1],,4/7,
{4}2/1q6[8:1],1/7,1^4[8:1]/6^1[8:1],1/6p4[8:3],
{2},3v4[8:1]/6v1[8:1],
{4}7/8p3[8:1],8/2p5[8:1],,7/4,
{4}4^7[8:1]/5^2[8:1],,1/8,3/6,
{4}2/1q6[8:1],7/1,3^8[8:1]/8^5[8:1],8/3q5[8:3],
{2},3v5[8:1]/6v8[8:1],
{8}1/6<2[8:1],4/3,,,8/1^3[8:1],,1/8^6[8:1],,
{4}8/2^4[8:1],2/7^5[8:1],7/3p6[8:1],,
{16}8/3>7[8:1],,5/6,,,,,,7/2,,4/5,4/5,,6/3,,8/1,
{8},7b/2b,
E
&inote_6=(127.0)
{1},
{12}2/5h[12:5],
{995}2,,,,,,,,,,,,,,,,,,,,,,,,,,,,,,,,,,,,,,,,,,,,,,,,,,,,,,,,,,,,,,,,,,,,,,,,,,,,,,,,,,,
{12}2,3,
{995}3,,,,,,,,,,,,,,,,,,,,,,,,,,,,,,,,,,,,,,,,,,,,,,,,,,,,,,,,,,,,,,,,,,,,,,,,,,,,,,,,,,,
{12}3,7/4h[12:5],
{995}7,,,,,,,,,,,,,,,,,,,,,,,,,,,,,,,,,,,,,,,,,,,,,,,,,,,,,,,,,,,,,,,,,,,,,,,,,,,,,,,,,,,
{12}7,6,
{995}6,,,,,,,,,,,,,,,,,,,,,,,,,,,,,,,,,,,,,,,,,,,,,,,,,,,,,,,,,,,,,,,,,,,,,,,,,,,,,,,,,,,
{24}6,,
{16}4/5,,3,4,3,,6,5,6,,1,8,1,,5,4,
{1}4q5[2:1]/5<4[2:1],
{16}3/5,,8,,8,3,,3,4/6,,3/5,,4/5,4/5,,1b/6b,
{16},5,4,,5/7,,4/6,,5/3h[16:5],,4,4,,2,3,4,
{16},5,4/6,,2/4,,4/6,,5,4,5,2h[8:1],,8h[8:1],,6,
{16},5,4/5,,3/4,,2,1,3/8h[16:7],,6,6,,4,,3<8[16:3],
{16},,3h[8:3],,,,,,1,2,,5/3>7[16:3],,4/6,,3/5h[16:3],
{16},,,,5/6,,3/4,,4/6h[16:5],,5,5,,7,6,5,
{16},4,3/5,,5/7,,3/5,,4,5,4,7h[8:1],,5h[8:1],,3,
{16},5,4/6,,3/5,,2,1,3/8h[16:7],,6,6,,4,,3>6[16:3],
{16},,3h[16:3],,,,,,3/5,,2,1,3,8,4,7,
{8}5/6h[4:1],7,5h[4:1],8,6h[4:1],7,4h[4:1],8,
{16}6h[4:1],,7,,3h[4:1],,8,,6h[4:1],,7,,2,5,4,5,
{8}4/3h[4:1],2,4h[4:1],1,3h[4:1],2,5h[4:1],1,
{8}3h[4:1],2,6h[4:1],1,3^5[12:1],
{983}8/7h[8:1],,,,,,,,,,,,,,,,,,,,,,,,,,,,,,,,,,,,,,,,,
{625}1,,,,,,,,,,,,,,,,,,,,,,,,,,
{983}2,,,,,,,,,,,,,,,,,,,,,,,,,,,,,,,,,,,,,,,,,
{8}3,,
{8}5/6h[4:1],7,5h[4:1],8,6h[4:1],7,4h[4:1],1,
{16}6h[4:1],,7,,3h[4:1],,2,,6h[4:1],,7,,2,5,4,5,
{8}4/3h[4:1],2,4h[4:1],1,3h[4:1],2,5h[4:1],8,
{8}3h[4:1],2,6h[4:1],7,3^6[8:1],
{983}8/7h[8:1],,,,,,,,,,,,,,,,,,,,,,,,,,,,,,,,,,,,,,,,,
{625}1,,,,,,,,,,,,,,,,,,,,,,,,,,
{983}2,,,,,,,,,,,,,,,,,,,,,,,,,,,,,,,,,,,,,,,,,
{8}3,,
{16}2/7,,4/5,,6,5,7,,3/4,,5,4,,6,5h[2:1],,
{16}7,,8,8,,1,1s5[8:1],,4,,3,,2,,1,8,
{16},7,6,,4,5,3h[16:5],,2,2,,7-3[8:1],,1/8,,7,
{16},2,1,,2/4,,5,4,6,5/7,,4/6,,3/5,,2/4,
{16},1,8,,2,1,3,,7,8,6,,2,1,4h[4:3],,
{16}1,,7,,2,,6,,3,,5,,2/5,2/5,,8/3^6[8:1],
{16},2,2,,8^5[8:1],,8,,2,,,3/4,,,6/1h[2:1],,
{16}5,,4,,3,,2,,1/8,1/8,,5/7,,2/4,,3/6,
{16},4,5,,3,4,2,,5/6,,4,5,,3,4h[2:1],,
{16}2,,1,1,,8,8>4[16:3],,5,,6,,7,,8,5,
{16},7,2,,5,4,6h[16:9],,7,7,,4>8[8:1],,3,,4,
{16},7,7,,5/6,,4,5,3,2/4,,3/5,,4/6,,5/7,
{16},8,1,,5,4,7,,4,5,2,,4/5,,3/6h[4:1],,
{16}7,,1,,2/4,,5/7,,3,4,3,,2/5,,3^6[8:1],,
{16}1,,8,,7,,4/5,,6/7,,,2-7[16:1]/3-6[16:1],,,2/3,,
{16},,8,7,1,6,2,5,3/4,,3b/8b,,,,,,
{8}4/3h[4:1],1,4h[4:1],1,3h[4:1],1>5[8:1],4,1,
{8}6h[4:1],8,5h[4:1],8,6h[4:1],8<4[8:1],5,8,
{8}3h[4:1],1,4h[4:1],1,3,1,4q8[8:1]/5^7[8:1],,
{4}4^2[8:1]/5p1[8:1],4q5[4:1]/5<4[4:1],4/5,,
{8}5/6h[4:1],8,5h[4:1],8,6h[4:1],8<4[8:1],5,8,
{8}3h[4:1],1,4h[4:1],1,3h[4:1],1>5[8:1],4,1,
{8}7,5/6,3/4,1/2,7/8,,4/5-1[16:1],,
{16}5b/6b,,,,,,,,3/5,,4/6,,4/5,4/5,,3b/8b,
{16},,,,5/7,,2/4,,4/6h[16:3],,8,8h[8:1],,7,8,5,
{16},4,8/4h[4:1],,2,,6,,5,4,5,2h[8:1],,8h[8:1],,6,
{16},5,4/5,,3/4,,2,1,3/8h[16:7],,6,6,,4,,3pp7[16:3],
{16},,3h[8:3],,,,,,6,5,,3h[8:1]/7>3[16:3],,5h[16:5],,7,
{16},,,,2/4,,5/7,,4/3h[16:3],,1,1h[8:1],,2,1,4,
{16},5,1/5h[4:1],,7,,3,,4,5,4,7h[8:1],,5h[8:1],,3,
{16},4,4/5,,5/6,,7,8,6/1h[16:7],,3,3,,5,,7^4[16:1],
{16},,7/8,,1,1,,3/8,3/8,,4,5,3,2/5,,4b/8b,
{16},,,,3,4,3,2/5,,6,5,6h[4:1],,8,,4,
{16},3,1/2,,5/6,,4,4,6,5,6,3h[8:1],,2h[8:1],,1h[8:1],
{16},8,2/7,,3/5,,4,5,3h[16:7],,2,2,,8,,6pp2[16:3],
{16},,6h[4:1],,,,,,1/6,1/6,,5-1[8:1]/7<3[8:1],,2/4,,5/7,
{16},,,,2,4,3,1/2,,6,5,6,,7/4h[8:3],,2b,
{16},5b,,8b,,3,4,2,6,5,5,8<4[8:1],,1/2,,3/8,
{16},2,2,,8,1,8,1,5h[16:7],,6,6,,4,,1^6[16:1],
{16},,1/2,,2,5,2,4,2,3,2,1,2,8,2,7,
{16}2/6,,1/5,,3/4,,1/6,,4h[16:7],,3,3,,5,,8^3[16:1],
{16},,7/8,,7,4,7,5,7,6,7,8,7,1,7,2,
{16}3/7,,4/8,,7,7,1,1h[16:11],,,,,,,,8-3[16:1],,,,,,
E
